osu file format v9

[General]
AudioFilename: J-Mi & Midi-D feat. Hanna Stockzell - Top The Charts.mp3
AudioLeadIn: 0
PreviewTime: 52363
Countdown: 0
SampleSet: Normal
StackLeniency: 0.5
Mode: 0
LetterboxInBreaks: 1

[Editor]
DistanceSpacing: 0.8
BeatDivisor: 4
GridSize: 8

[Metadata]
Title:Top The Charts
Artist:J-Mi & Midi-D feat. Hanna Stockzell
Creator:Tshemmp
Version:Insane
Source:Dance Dance Revolution
Tags:DDR 2010 phaZ

[Difficulty]
HPDrainRate:7
CircleSize:4
OverallDifficulty:7
ApproachRate:9
SliderMultiplier:1.8
SliderTickRate:1

[Events]
//Background and Video events
0,0,"Dance_Dance_Revolution_by_flexyjerkov.jpg"
//Break Periods
//Storyboard Layer 0 (Background)
//Storyboard Layer 1 (Fail)
//Storyboard Layer 2 (Pass)
//Storyboard Layer 3 (Foreground)
//Storyboard Sound Samples
//Background Colour Transformations
3,100,255,255,0

[TimingPoints]
3051,375,4,1,1,75,1,0
9238,-100,4,1,1,50,0,0
15051,-90.9090909090909,4,1,1,75,0,0
27051,-100,4,1,1,50,0,0
30238,-100,4,1,1,40,0,0
30426,-100,4,1,1,50,0,0
30613,-100,4,1,1,60,0,0
30801,-100,4,1,1,50,0,0
30988,-100,4,1,1,40,0,0
31176,-100,4,1,1,50,0,0
52363,-100,4,1,1,5,0,0
52551,-90.9090909090909,4,1,1,75,0,1
64363,-90.9090909090909,4,2,0,20,0,1
64551,-90.9090909090909,4,1,1,75,0,1
76176,-90.9090909090909,4,1,1,50,0,1
76551,-90.9090909090909,4,1,1,75,0,0
89301,-90.9090909090909,4,1,1,65,0,0
89488,-90.9090909090909,4,1,1,55,0,0
89676,-90.9090909090909,4,1,1,45,0,0
89863,-90.9090909090909,4,1,1,35,0,0
90051,-90.9090909090909,4,1,1,75,0,0
90801,-90.9090909090909,4,1,1,55,0,0
91551,-90.9090909090909,4,1,1,35,0,0
92301,-90.9090909090909,4,1,1,15,0,0
93051,-90.9090909090909,4,2,0,5,0,0

[Colours]
Combo1 : 79,141,217
Combo2 : 0,64,128
Combo3 : 0,128,192

[HitObjects]
256,192,8676,1,0
360,112,9051,2,0,B|392:24,1,90,4|0
256,8,9426,2,0,B|256:96,1,90
152,112,9801,2,0,B|120:24,1,90
192,192,10176,1,0
320,192,10363,1,0
152,272,10551,6,0,B|120:360,1,90
256,376,10926,2,0,B|256:288,1,90
360,272,11301,2,0,B|392:360,1,90
320,192,11676,1,0
192,192,11863,1,0
256,72,12051,6,0,B|288:40|344:40,1,90
344,184,12426,1,0
256,144,12613,1,0
160,192,12801,2,0,B|193:225|193:282,1,90
56,280,13176,1,0
64,176,13363,1,0
72,72,13551,1,4
256,192,13738,12,0,14863
440,192,15051,6,0,B|464:240|456:296,1,98.9999970495702,4|0
448,320,15332,1,0
432,352,15426,1,0
296,376,15613,1,0
152,352,15801,2,0,B|56:376,1,98.9999970495702,0|0
56,224,16176,2,0,B|160:256,1,98.9999970495702,0|0
72,136,16551,6,0,B|97:88|149:64,1,98.9999970495702,4|0
172,56,16832,1,0
208,52,16926,1,0
343,91,17113,1,0
428,210,17301,2,0,B|512:260,1,98.9999970495702
416,368,17676,2,0,B|328:312,1,98.9999970495702
264,184,18051,5,4
152,280,18238,1,0
120,264,18332,1,0
96,240,18426,2,0,B|56:192|88:128,2,98.9999970495702
240,216,18988,2,0,B|240:112,2,98.9999970495702
104,128,19551,6,0,B|111:88|169:42,1,98.9999970495702,4|0
200,36,19832,1,0
240,28,19926,1,0
280,28,20019,1,0
320,36,20113,1,0
356,56,20207,1,0
384,88,20301,2,0,B|416:128|424:176,1,98.9999970495702
152,296,20676,2,0,B|64:240|56:112,1,197.99999409914,0|4
200,256,21332,5,0
232,256,21426,1,0
384,256,21613,1,0
456,72,21801,1,0
384,256,21988,1,0
304,72,22176,1,0
232,256,22363,1,0
152,72,22551,6,0,B|72:104|48:192,1,148.499995574355,4|0
48,216,22926,2,0,B|56:272|96:312,1,98.9999970495702
232,344,23301,1,0
272,336,23394,1,0
304,328,23488,1,0
344,320,23582,1,0
384,312,23676,2,0,B|432:312|480:360,2,98.9999970495702,0|0|4
208,184,24332,5,0
208,144,24426,2,0,B|208:40,1,98.9999970495702
360,40,24801,1,0
464,144,24988,1,0
464,296,25176,1,0
360,192,25363,1,0
160,192,25551,6,0,B|80:192|24:248,1,148.499995574355,4|0
192,320,26019,1,0
232,320,26113,1,0
384,320,26301,1,0
384,320,26676,5,4
392,288,26769,1,0
400,256,26863,1,0
392,224,26957,1,0
384,192,27051,2,8,B|384:120|248:128|248:40,1,180,4|0
32,224,27801,5,0
32,224,27988,2,0,B|32:128,1,90,0|4
168,136,28363,2,0,B|168:224,1,90,0|4
304,224,28738,2,0,B|304:128,2,90,0|4|0
240,344,29301,1,4
376,344,29488,1,0
240,344,29676,1,4
376,344,29863,1,0
240,344,30051,1,4
88,352,30238,5,0
24,232,30426,1,0
88,112,30613,1,0
208,48,30801,1,0
344,40,30988,1,0
280,160,31176,2,0,B|192:160,1,90,0|0
448,232,31738,5,0
328,296,31926,2,0,B|267:295|245:348,1,90
320,216,32301,2,0,B|264:192|224:232,1,90
352,144,32676,2,0,B|309:100|256:122,1,90
88,128,33051,6,0,B|80:216|168:200|160:288,1,180,4|0
320,64,33801,1,0
320,64,33988,1,0
320,64,34176,1,0
448,192,34363,2,0,B|480:280,1,90,4|0
344,352,34738,2,0,B|256:320,1,90,4|0
256,64,35113,2,0,B|168:32,1,90,4|0
64,192,35488,2,4,B|32:103,2,90,0|0|0
192,160,36051,5,0
256,280,36238,1,0
352,376,36426,2,0,B|400:336|400:296,2,90
160,376,36988,2,0,B|112:336|112:296,2,90
256,312,37551,1,0
375,192,37738,1,0
256,72,37926,1,0
136,192,38113,1,0
256,192,38207,12,4,39051
144,128,39426,6,0,B|224:48|304:128,1,180
384,232,39988,2,0,B|360:320,2,90,0|0|0
424,72,40551,1,0
264,40,40738,1,0
104,72,40926,1,0
264,112,41113,2,0,B|288:136|328:136|352:160,1,90
168,152,41488,1,0
40,280,41676,6,0,B|88:296|88:256|144:280,1,90
160,288,41957,1,0
192,296,42051,1,4
352,328,42238,1,0
456,200,42426,1,0
296,176,42613,1,0
352,328,42801,1,4
56,232,43363,6,0,B|134:195|98:117|177:81,1,180
296,24,43926,1,0
296,176,44113,1,0
432,96,44301,2,0,B|432:184,1,90,4|0
256,224,44676,1,0
230,241,44769,1,0
214,268,44863,1,0
230,295,44957,1,0
256,312,45051,6,0,B|344:312,2,90,4|0|0
416,312,45613,1,0
464,184,45801,1,0
392,72,45988,2,0,B|352:56|336:80|296:64,1,90
168,72,46363,2,0,B|137:41|113:57|82:27,1,90
168,144,46738,2,0,B|124:144|119:173|76:174,1,90
168,240,47113,2,0,B|124:239|119:210|76:209,1,90
168,312,47488,2,0,B|137:342|113:326|82:356,2,90
296,352,48051,5,0
488,160,48426,1,0
432,40,48613,2,0,B|336:40,1,90
208,40,48988,1,0
208,176,49176,1,0
208,40,49363,1,0
96,112,49551,5,0
88,144,49644,1,0
89,177,49738,1,0
104,207,49832,1,0
128,232,49926,1,0
158,248,50019,1,0
192,248,50113,1,0
224,240,50207,1,0
256,232,50301,1,0
288,240,50394,1,0
312,264,50488,1,0
328,295,50582,1,0
344,324,50676,2,0,B|376:360|424:368,1,90,0|0
256,192,51051,12,0,52363
360,96,52551,6,0,B|448:48,1,98.9999970495702,12|0
264,96,52926,2,0,B|176:48,1,98.9999970495702,8|0
312,192,53301,2,0,B|312:296,1,98.9999970495702,8|0
152,368,53676,2,0,B|120:344|80:360|48:336,1,98.9999970495702,8|0
176,208,54051,1,10
232,40,54238,1,0
176,208,54426,2,0,B|224:192|248:224|296:208,1,98.9999970495702,10|0
232,40,54801,1,10
408,16,54988,1,0
408,192,55176,6,0,B|384:232|328:248,1,98.9999970495702,8|0
176,320,55551,1,8
48,192,55738,1,0
176,320,55926,1,8
48,192,56113,1,0
184,192,56301,1,8
311,64,56488,1,0
184,192,56676,1,8
311,64,56863,1,0
176,80,57051,6,0,B|128:96|112:40|160:24,1,98.9999970495702,10|0
248,16,57426,2,0,B|296:0|312:56|264:72,1,98.9999970495702,10|0
176,80,57801,5,10
136,96,57894,1,0
104,120,57988,1,0
80,152,58082,1,0
64,192,58176,1,8
72,232,58269,1,0
88,272,58363,1,0
112,304,58457,1,0
144,324,58551,6,8,B|248:340|352:284,2,197.99999409914,12|8|8
16,200,59488,2,0,B|0:160|24:104,1,98.9999970495702,0|8
184,32,59863,1,0
352,16,60051,2,0,B|456:16,1,98.9999970495702,10|0
352,168,60426,2,0,B|352:64,1,98.9999970495702,10|0
200,168,60801,2,0,B|304:168,1,98.9999970495702,10|0
200,312,61176,1,8
200,168,61363,1,0
24,192,61551,6,0,B|24:240|64:280,1,98.9999970495702,8|0
216,368,61926,2,0,B|216:320|176:280,1,98.9999970495702,8|0
328,184,62301,1,8
392,16,62488,1,0
216,64,62676,1,8
152,232,62863,1,0
256,192,63051,12,0,64363
320,280,64551,6,0,B|392:352,1,98.9999970495702,12|0
256,216,64926,2,0,B|184:144,1,98.9999970495702,8|0
392,144,65301,2,0,B|320:216,1,98.9999970495702,8|0
184,352,65676,2,0,B|264:272,1,98.9999970495702,8|0
88,352,66051,1,10
8,192,66238,1,0
24,32,66426,2,0,B|128:32,1,98.9999970495702,10|0
288,16,66801,1,10
456,80,66988,1,0
288,144,67176,1,8
456,208,67363,1,0
288,280,67551,6,0,B|240:304|192:272,1,98.9999970495702,8|0
376,280,67926,1,8
376,104,68113,2,0,B|400:152|368:200,1,98.9999970495702,0|8
376,104,68488,1,0
376,280,68676,2,0,B|360:336|384:384,1,98.9999970495702,8|0
200,376,69051,6,0,B|152:392|96:368,1,98.9999970495702,10|0
24,208,69426,1,10
216,152,69613,1,0
408,96,69801,1,10
424,128,69894,1,0
424,168,69988,1,0
416,208,70082,1,0
400,240,70176,1,8
376,264,70269,1,0
344,280,70363,1,0
304,288,70457,1,0
264,288,70551,6,0,B|160:280,1,98.9999970495702,12|0
248,96,70926,2,0,B|352:104,1,98.9999970495702,8|0
160,200,71301,2,0,B|168:96,1,98.9999970495702,8|0
360,184,71676,1,8
346,361,71863,2,0,B|354:257,1,98.9999970495702,0|10
464,120,72238,1,0
256,192,72426,1,10
48,120,72613,1,0
288,120,72801,2,0,B|392:120,1,98.9999970495702,10|0
224,120,73176,2,0,B|120:120,1,98.9999970495702,8|0
112,296,73551,5,8
256,160,73738,1,0
400,296,73926,1,8
400,88,74113,1,0
256,224,74301,1,8
112,88,74488,1,0
256,224,74676,1,0
256,224,75051,1,0
256,192,75144,12,8,76176
432,200,76551,6,0,B|408:248|344:256,1,98.9999970495702,4|0
320,256,76832,1,0
288,248,76926,1,0
256,72,77113,1,0
96,128,77301,2,0,B|0:160,1,98.9999970495702
168,104,77676,2,0,B|72:64,1,98.9999970495702
80,248,78051,6,0,B|104:296|168:304,1,98.9999970495702,4|0
192,304,78332,1,0
224,296,78426,1,0
256,120,78613,1,0
416,176,78801,2,0,B|512:208,1,98.9999970495702
344,152,79176,2,0,B|440:112,1,98.9999970495702
344,264,79551,5,4
201,156,79738,1,0
171,129,79832,1,0
136,112,79926,2,0,B|82:89|32:123,2,98.9999970495702
171,129,80394,1,0
201,156,80488,1,0
344,264,80676,6,0,B|400:288|456:264|456:192|416:152,1,197.99999409914,0|4
296,24,81238,1,0
264,40,81332,1,0
240,72,81426,1,0
256,272,81613,1,0
88,192,81801,2,0,B|112:144|176:136,1,98.9999970495702
424,192,82176,2,0,B|400:144|336:136,1,98.9999970495702
256,312,82551,6,0,B|256:208,1,98.9999970495702,4|0
256,176,82832,1,0
256,144,82926,2,0,B|256:40,1,98.9999970495702
360,176,83301,1,0
256,312,83488,1,0
152,176,83676,1,0
256,312,83863,1,0
360,176,84051,6,0,B|416:176|448:232,1,98.9999970495702,4|0
456,256,84332,1,0
464,296,84426,1,0
352,352,84613,2,0,B|288:384|224:384|160:352,1,197.99999409914
64,288,85176,1,0
232,232,85363,1,0
64,168,85551,6,0,B|64:67,1,98.9999970495702,4|0
88,40,85832,1,0
128,32,85926,1,0
288,56,86113,1,0
448,96,86301,2,0,B|448:197,1,98.9999970495702
256,192,86676,1,0
256,192,86863,1,0
256,16,87051,6,0,B|160:16|88:88,1,148.499995574355
88,240,87519,1,0
108,268,87613,1,0
256,368,87801,2,0,B|352:368|424:296,1,148.499995574355
424,144,88269,1,0
404,116,88363,1,0
256,16,88551,2,0,B|160:16|88:88,1,148.499995574355
88,240,89019,1,0
108,268,89113,1,0
384,296,89301,5,0
128,296,89488,1,0
320,192,89676,1,0
192,192,89863,1,0
256,80,90051,1,4
256,192,90144,12,0,93051
