osu file format v9

[General]
AudioFilename: J-Mi & Midi-D feat. Hanna Stockzell - Top The Charts.mp3
AudioLeadIn: 0
PreviewTime: 52363
Countdown: 0
SampleSet: Normal
StackLeniency: 0.5
Mode: 0
LetterboxInBreaks: 1

[Editor]
DistanceSpacing: 1.2
BeatDivisor: 4
GridSize: 8

[Metadata]
Title:Top The Charts
Artist:J-Mi & Midi-D feat. Hanna Stockzell
Creator:Tshemmp
Version:Hard
Source:Dance Dance Revolution
Tags:DDR 2010 phaZ

[Difficulty]
HPDrainRate:6
CircleSize:4
OverallDifficulty:5
ApproachRate:7
SliderMultiplier:1.4
SliderTickRate:1

[Events]
//Background and Video events
0,0,"Dance_Dance_Revolution_by_flexyjerkov.jpg"
//Break Periods
//Storyboard Layer 0 (Background)
//Storyboard Layer 1 (Fail)
//Storyboard Layer 2 (Pass)
//Storyboard Layer 3 (Foreground)
//Storyboard Sound Samples
//Background Colour Transformations
3,100,255,255,0

[TimingPoints]
3051,375,4,1,0,75,1,0
9426,-100,4,1,0,50,0,0
15051,-90.9090909090909,4,1,0,75,0,0
27051,-100,4,1,0,50,0,0
50676,-100,4,2,0,5,0,0
51051,-100,4,1,0,50,0,0
52176,-100,4,2,0,5,0,0
52551,-90.9090909090909,4,1,0,75,0,1
69801,-90.9090909090909,4,1,0,50,0,1
69988,-90.9090909090909,4,1,0,70,0,1
70176,-90.9090909090909,4,1,0,90,0,1
70551,-90.9090909090909,4,1,0,75,0,1
74863,-90.9090909090909,4,1,0,30,0,1
76176,-90.9090909090909,4,1,0,50,0,1
76551,-90.9090909090909,4,1,0,75,0,0
89301,-90.9090909090909,4,1,0,65,0,0
89488,-90.9090909090909,4,1,0,55,0,0
89676,-90.9090909090909,4,1,0,45,0,0
89863,-90.9090909090909,4,1,0,35,0,0
90051,-90.9090909090909,4,1,0,55,0,0
90144,-90.9090909090909,4,1,0,75,0,0
90801,-90.9090909090909,4,1,0,55,0,0
91551,-90.9090909090909,4,1,0,35,0,0
92301,-90.9090909090909,4,1,0,15,0,0
93051,-90.9090909090909,4,2,0,5,0,0

[Colours]
Combo1 : 79,141,217
Combo2 : 0,64,128
Combo3 : 0,128,192

[HitObjects]
256,192,8676,1,4
400,56,9051,6,0,B|432:120|400:192,1,140
392,336,9801,2,0,B|328:304|256:336,1,140
112,328,10551,2,0,B|80:264|112:192,1,140
120,48,11301,2,0,B|184:80|256:48,1,140
256,216,12051,5,0
408,288,12426,1,0
240,288,12801,1,0
392,216,13176,1,0
256,192,13551,12,0,14676
216,144,15051,5,4
144,264,15332,2,0,B|144:312,1,38.4999988526106
216,360,15613,2,2,B|304:360|264:320|392:320|352:360|448:360,1,230.999993115664,0|8
296,240,16551,5,0
368,120,16832,2,0,B|368:72,1,38.4999988526106
296,24,17113,2,2,B|208:24|248:64|120:64|160:24|64:24,1,230.999993115664,0|8
80,208,18051,6,0,B|80:152|168:152,1,115.499996557832,4|0
208,152,18426,2,8,B|240:152|240:112|272:112,1,76.9999977052212,8|0
352,72,18801,1,2
496,192,19176,1,8
496,376,19551,5,0
336,280,19926,1,8
176,376,20301,1,2
176,192,20676,1,8
16,280,21051,5,4
16,280,21426,2,0,B|88:304|168:296,2,153.999995410442,8|0|8
16,96,22551,1,4
16,96,22926,2,0,B|88:72|168:80,2,153.999995410442,8|0|8
176,192,24051,6,0,B|224:208|280:176|328:192,1,153.999995410442,4|8
160,120,24801,1,0
104,192,24988,1,0
160,264,25176,1,8
344,264,25551,6,0,B|400:264|400:208|456:208,1,115.499996557832,2|0
440,120,26019,2,0,B|416:120|416:96|392:96,1,38.4999988526106,0|0
312,104,26301,1,6
64,328,27051,6,0,B|96:264|176:256,1,140,4|0
344,256,27801,1,0
344,256,27988,1,0
344,256,28176,2,2,B|422:235|443:167,1,140,4|0
416,88,28738,2,0,B|344:88,1,70,2|0
344,16,29113,2,0,B|272:16,1,70,2|0
272,88,29488,2,0,B|200:88,2,70,2|0|2
346,88,30051,1,6
280,256,30426,6,0,B|280:296|192:296|192:360,1,140,0|8
368,355,31176,2,0,B|368:294|280:294|280:254,1,140,0|8
128,192,31926,1,0
296,192,32301,1,8
296,24,32676,1,0
128,24,33051,6,0,B|72:88|136:152,1,140,4|0
296,192,33801,2,0,B|336:176|368:192,2,70
296,272,34363,2,0,B|256:288|224:272,2,70
376,264,34926,2,0,B|392:304|376:336,2,70
216,200,35488,2,0,B|200:160|216:128,2,70
296,232,36051,6,0,B|400:128,3,140,0|8|0|8
256,32,37551,1,0
196,91,37738,1,0
136,150,37926,1,8
76,209,38113,1,0
76,209,38301,2,0,B|72:256|160:256|160:312,2,140,0|8|0
159,311,39426,5,8
328,312,39801,2,0,B|368:312|392:288,1,70
456,232,40176,1,8
288,200,40551,1,0
456,168,40926,1,8
288,136,41301,1,0
456,96,41676,2,0,B|439:58|408:45,1,70,8|2
409,45,42051,5,0
328,64,42238,2,2,B|356:92|356:126,2,70,2|10|2
240,64,42801,2,0,B|200:64|176:40,1,70,2|0
112,96,43176,2,0,B|72:96|48:72,2,70,8|2|0
176,152,43738,1,2
176,152,43926,2,2,B|176:224,1,70,10|2
152,304,44301,2,0,B|224:312|296:304,1,140,2|8
376,320,44863,5,0
464,304,45051,2,0,B|512:240|464:176,2,140,0|8|0
408,240,45988,1,0
352,176,46176,1,8
328,256,46363,2,0,B|336:296|368:312,1,70
272,200,46738,2,0,B|241:226|243:262,1,70,0|8
288,128,47113,2,0,B|249:114|219:134,1,70
360,104,47488,2,0,B|352:64|320:48,2,70,0|8|0
424,152,48051,5,0
320,48,48426,1,0
320,48,48613,1,2
152,48,48988,1,2
152,48,49176,2,0,B|112:40|88:72,1,70,0|2
256,192,49551,12,0,50676
256,192,51051,12,0,52176
144,120,52551,6,0,B|88:192|144:264,2,153.999995410442,4|8|0
320,192,53676,2,0,B|240:192,2,76.9999977052212,8|0|0
384,120,54238,1,0
448,192,54426,1,8
384,256,54613,1,0
320,192,54801,1,4
256,32,55176,5,8
256,32,55363,1,0
256,32,55551,2,2,B|176:40|128:112,1,153.999995410442,0|8
128,200,56113,1,0
216,232,56301,2,2,B|296:224|344:152,1,153.999995410442,0|8
344,64,56863,1,0
424,24,57051,6,0,B|448:32|448:32|456:56|456:56|480:64,1,76.9999977052212
400,104,57426,2,0,B|416:122|416:122|411:147|411:147|429:167,1,76.9999977052212,8|0
360,232,57801,1,0
328,320,57988,1,0
328,320,58082,1,0
328,320,58176,1,12
144,320,58551,5,4
112,88,58926,1,8
368,64,59301,1,0
400,296,59676,1,8
256,192,60051,1,0
144,48,60426,2,0,B|112:80|112:120,1,76.9999977052212,8|0
160,192,60801,2,0,B|192:160|192:120,1,76.9999977052212
240,48,61176,5,8
240,48,61363,1,0
240,48,61551,2,2,B|304:56|296:128|368:136,1,153.999995410442,2|10
432,192,62113,1,0
361,248,62301,2,2,B|296:256|304:328|240:336,1,153.999995410442,2|10
216,248,62863,1,0
256,192,63051,12,4,64176
216,272,64551,6,0,B|156:196|232:137,2,153.999995410442,0|8|0
328,128,65676,1,8
280,208,65863,2,0,B|312:232|352:216,1,76.9999977052212
328,128,66238,1,0
372,48,66426,2,0,B|340:24|300:40,1,76.9999977052212,8|0
328,128,66801,1,0
504,184,67176,5,8
488,272,67363,1,0
416,328,67551,2,2,B|376:352|312:352|264:328,1,153.999995410442,0|8
336,272,68113,1,0
264,216,68301,2,2,B|224:240|160:240|112:216,1,153.999995410442,0|8
184,160,68863,1,0
112,104,69051,5,0
336,40,69426,1,8
280,264,69801,1,0
392,232,69988,1,0
504,200,70176,1,12
416,312,70551,6,0,B|368:160,2,153.999995410442,0|8|0
280,264,71676,2,0,B|264:224|264:224|240:200,1,76.9999977052212,8|0
160,160,72051,1,0
352,160,72426,1,8
160,160,72801,1,0
352,160,73176,5,8
376,72,73363,1,0
288,96,73551,2,2,B|232:152|216:80|176:48|88:72|88:136,1,230.999993115664
93,197,74301,2,2,B|90:245|178:269|218:237|234:165|290:221,1,230.999993115664
256,192,75051,12,0,76176
344,320,76551,6,0,B|376:304|400:264|400:224,1,115.499996557832,4|0
400,176,76926,2,0,B|400:136|376:104,1,76.9999977052212,8|0
304,40,77301,1,2
264,216,77676,1,10
168,64,78051,6,0,B|136:80|112:120|112:160,1,115.499996557832,0|0
112,208,78426,2,0,B|112:248|136:280,1,76.9999977052212,8|0
208,344,78801,1,2
248,168,79176,1,10
440,152,79551,6,0,B|440:216|400:256,1,115.499996557832
368,288,79926,2,0,B|312:344|224:344,2,153.999995410442,8|2|10
352,112,81051,5,0
160,112,81426,1,8
328,216,81801,2,0,B|320:256|280:272,1,76.9999977052212,2|0
184,216,82176,2,0,B|192:256|232:272,1,76.9999977052212,10|0
256,184,82551,6,0,B|256:32,1,153.999995410442,0|8
72,24,83301,2,0,B|40:56|40:56|40:88,1,76.9999977052212,2|0
104,152,83676,2,0,B|136:120|136:120|136:88,1,76.9999977052212,10|0
72,24,84051,2,0,B|16:80|16:80|16:160,1,153.999995410442,0|8
24,336,84801,1,2
24,336,84988,2,0,B|64:352|104:336,2,76.9999977052212,0|10|0
24,240,85551,6,0,B|80:216|136:240,1,115.499996557832
176,264,85926,1,8
360,264,86301,1,2
360,168,86488,1,0
360,72,86676,1,10
176,104,87051,6,0,B|146:75|98:123|66:91,2,115.499996557832
175,200,87801,2,0,B|145:171|97:219|65:187,2,115.499996557832
176,296,88551,2,0,B|146:267|98:314|66:283,2,115.499996557832
272,296,89301,6,0,B|312:296|344:264,1,76.9999977052212,2|0
352,176,89676,2,0,B|332:141|288:129,1,76.9999977052212,2|0
240,208,90051,1,4
256,192,90144,12,0,93051
