osu file format v9

[General]
AudioFilename: J-Mi & Midi-D feat. Hanna Stockzell - Top The Charts.mp3
AudioLeadIn: 0
PreviewTime: 52363
Countdown: 0
SampleSet: Normal
StackLeniency: 0.5
Mode: 0
LetterboxInBreaks: 1

[Editor]
DistanceSpacing: 1
BeatDivisor: 2
GridSize: 8

[Metadata]
Title:Top The Charts
Artist:J-Mi & Midi-D feat. Hanna Stockzell
Creator:Tshemmp
Version:Easy
Source:Dance Dance Revolution
Tags:DDR 2010 phaZ

[Difficulty]
HPDrainRate:0
CircleSize:3
OverallDifficulty:0
ApproachRate:3
SliderMultiplier:0.6
SliderTickRate:1

[Events]
//Background and Video events
0,0,"Dance_Dance_Revolution_by_flexyjerkov.jpg"
//Break Periods
//Storyboard Layer 0 (Background)
//Storyboard Layer 1 (Fail)
//Storyboard Layer 2 (Pass)
//Storyboard Layer 3 (Foreground)
//Storyboard Sound Samples
//Background Colour Transformations
3,100,255,255,0

[TimingPoints]
3051,375,4,1,0,75,1,0
8676,-100,4,1,0,30,0,0
9051,-100,4,1,0,50,0,0
15051,-90.9090909090909,4,1,0,75,0,0
27051,-100,4,1,0,60,0,0
37551,-100,4,1,0,30,0,0
37926,-100,4,1,0,40,0,0
38301,-100,4,1,0,50,0,0
51801,-100,4,1,0,5,0,0
52551,-90.9090909090909,4,1,0,75,0,1
76551,-90.9090909090909,4,1,0,75,0,0
81051,-90.9090909090909,4,1,0,50,0,0
82551,-90.9090909090909,4,1,0,75,0,0
90801,-90.9090909090909,4,1,0,55,0,0
91551,-90.9090909090909,4,1,0,35,0,0
92301,-90.9090909090909,4,1,0,20,0,0
93051,-90.9090909090909,4,2,0,5,0,0

[Colours]
Combo1 : 79,141,217
Combo2 : 0,64,128
Combo3 : 0,128,192

[HitObjects]
48,248,8676,5,2
88,296,9051,1,4
208,328,9801,6,0,B|328:296,1,120,8|0
320,176,11301,2,0,B|200:144,1,120,8|0
88,176,12801,1,8
256,192,13551,12,4,15051
232,64,15801,6,0,B|280:48|328:72|336:120,1,131.999996066094,8|0
336,184,16926,1,0
280,224,17301,2,0,B|232:240|184:216|176:168,1,131.999996066094,8|0
176,104,18426,1,0
112,96,18801,5,8
80,224,19551,2,0,B|128:272|200:272,2,131.999996066094,0|8|0
24,104,21801,5,8
152,72,22551,2,0,B|197:26|231:117|276:72,1,131.999996066094,0|8
400,40,24051,1,0
488,136,24801,6,0,B|504:168|504:200,1,65.9999980330468,8|0
504,264,25551,1,0
408,360,26301,1,12
288,352,27051,6,0,B|255:351|224:336,1,60,4|0
192,296,27801,2,0,B|172:269|176:236,1,60
168,176,28551,2,0,B|172:143|198:123,1,60
240,88,29301,2,0,B|267:57|292:78|292:78|318:99|345:68,1,120
392,32,30426,6,0,B|423:32|423:32|450:47,3,60
464,104,31926,1,0
440,160,32301,1,0
392,192,32676,1,0
336,192,33051,5,4
400,296,33801,1,0
288,336,34551,2,0,B|256:352|224:352,1,60
168,344,35301,2,0,B|142:344|110:328,1,60
56,296,36051,5,0
168,264,36801,1,0
56,216,37551,1,8
48,160,37926,1,0
40,104,38301,1,4
144,48,39051,6,0,B|200:32|264:48,1,120,4|8
200,152,40551,2,0,B|200:272,1,120,0|8
320,264,42051,6,0,B|360:264|384:240,2,60,0|0|8
352,152,43551,2,0,B|312:152|288:176,2,60,0|0|8
472,128,45051,5,0
384,40,45801,2,0,B|360:24|328:16|296:24|272:40,2,120,8|0|8
472,128,48051,5,0
448,184,48426,1,0
416,232,48801,2,0,B|399:256|367:264,2,60,8|0|0
256,192,50301,12,0,51801
144,128,52551,6,0,B|168:120|192:128|216:120,2,65.9999980330468,4|8|0
16,160,54051,2,0,B|-24:224|32:280,1,131.999996066094,0|8
160,272,55551,6,0,B|168:296|160:320|168:344,2,65.9999980330468,0|0|8
288,240,57051,2,0,B|328:176|272:120,1,131.999996066094,0|8
400,72,58551,5,0
496,168,59301,1,8
368,120,60051,1,0
464,216,60801,1,8
424,272,61176,5,0
376,312,61551,2,0,B|329:343|278:350|234:325|203:278,1,197.99999409914,0|8
168,224,63051,2,0,B|143:175|143:124|175:83|225:58,1,197.99999409914,0|8
288,48,64551,5,4
352,40,64926,1,0
416,32,65301,1,8
456,160,66051,1,0
392,168,66426,1,0
328,176,66801,1,8
456,160,67551,6,0,B|485:189|473:279|383:290|354:262,1,197.99999409914
376,184,69051,2,0,B|349:156|258:168|247:258|275:287,1,197.99999409914
216,320,70551,5,0
160,288,70926,1,0
176,224,71301,1,8
304,232,72051,2,0,B|368:200,2,65.9999980330468,0|0|8
248,120,73551,6,2,B|208:96|208:96|152:120|96:96|96:96|56:120,1,197.99999409914,0|0
64,184,75051,2,2,B|104:208|104:208|160:184|216:208|216:208|247:189,1,197.99999409914,4|0
256,192,76551,12,4,81051
224,336,82551,6,0,B|160:344,1,65.9999980330468
96,352,83301,1,8
8,256,84051,2,0,B|59:217,1,65.9999980330468
110,178,84801,1,8
152,56,85551,6,0,B|168:120,1,65.9999980330468
232,120,86301,2,0,B|248:55,1,65.9999980330468,8|0
312,56,87051,6,0,B|328:120,1,65.9999980330468,4|8
344,184,87801,2,0,B|360:248,1,65.9999980330468,4|8
376,312,88551,2,0,B|392:376,2,65.9999980330468,0|0|2
256,192,90051,12,0,93051
