osu file format v9

[General]
AudioFilename: Septet for Sakuya.mp3
AudioLeadIn: 0
PreviewTime: 79453
Countdown: 2
SampleSet: Soft
StackLeniency: 0.7
Mode: 0
LetterboxInBreaks: 0
StoryFireInFront: 0
SkinPreference:Default

[Editor]
Bookmarks: 63,39575,40307,43965,67742,127014,131766,203112,229453,230551,275551,281404
DistanceSpacing: 0.9
BeatDivisor: 2
GridSize: 8

[Metadata]
Title:Septet for Sakuya
Artist:J&B
Creator:pete2528
Version:Normal
Source:Touhou
Tags:Septette the Dead Princess Naki oujo no tame no Remilia Scarlet

[Difficulty]
HPDrainRate:7
CircleSize:5
OverallDifficulty:6
ApproachRate:6
SliderMultiplier:0.6
SliderTickRate:1

[Events]
//Background and Video events
0,0,"BG.jpg"
//Break Periods
2,127210,130716
2,174039,177911
2,226722,228399
2,258917,263521
//Storyboard Layer 0 (Background)
//Storyboard Layer 1 (Fail)
//Storyboard Layer 2 (Pass)
//Storyboard Layer 3 (Foreground)
//Storyboard Sound Samples
//Background Colour Transformations
3,100,163,162,255

[TimingPoints]
1157,365.853658536585,4,2,0,32,1,0
8474,-100,4,2,0,70,0,0
17803,-100,4,2,1,61,0,0
18169,-100,4,2,0,70,0,0
22925,-100,4,2,0,51,0,0
23291,-100,4,2,0,70,0,0
38291,-100,4,2,1,56,0,0
38656,-100,4,2,0,80,0,0
41217,-100,4,2,1,56,0,0
41583,-100,4,2,0,72,0,0
51461,-100,4,2,1,51,0,0
51827,-100,4,2,0,69,0,0
53656,-100,4,2,2,59,0,0
54754,-100,4,2,0,59,0,0
55120,-100,4,2,2,59,0,0
55852,-100,4,2,0,70,0,0
74876,-100,4,2,1,50,0,0
75608,-100,4,2,0,71,0,0
77071,-100,4,2,2,60,0,0
77803,-100,4,2,1,59,0,0
78535,-100,4,2,2,81,0,0
79449,-100,4,2,0,80,0,1
80181,-200,4,2,0,80,0,1
80730,-200,4,2,1,59,0,1
82742,-100,4,2,0,40,0,1
85669,-100,4,2,0,80,0,1
89510,-100,4,2,1,52,0,1
89876,-100,4,2,2,77,0,1
93535,-100,4,2,0,80,0,1
95364,-100,4,2,1,80,0,1
95730,-100,4,2,0,80,0,1
97193,-100,4,2,1,49,0,1
97559,-100,4,2,0,80,0,1
102681,-100,4,2,0,49,0,1
103047,-100,4,2,0,69,0,1
109266,-100,4,1,0,61,0,1
109632,-100,4,2,0,80,0,1
109998,-100,4,2,1,57,0,1
110364,-100,4,2,0,65,0,1
115120,-100,4,1,0,55,0,1
115486,-100,4,2,0,71,0,1
120242,-100,4,2,2,71,0,1
121065,-100,4,1,2,73,0,0
121111,-100,4,1,2,72,0,1
121339,-100,4,2,0,71,0,1
121705,-100,4,2,1,70,0,1
122071,-100,4,2,0,73,0,1
127010,-100,4,2,0,71,0,0
133413,-100,4,2,1,71,0,0
133778,-100,4,2,0,71,0,0
137803,-100,4,2,2,71,0,0
138169,-100,4,2,0,71,0,0
139266,-100,4,2,2,72,0,0
139632,-100,4,2,2,72,0,0
140730,-100,4,2,0,72,0,0
141096,-100,4,2,0,72,0,0
146583,-100,4,2,2,72,0,0
148596,-100,4,2,0,72,0,0
153352,-200,4,2,0,67,0,0
154815,-100,4,2,0,69,0,0
158291,-58.8235294117647,4,2,0,72,0,0
161035,-50,4,2,0,71,0,0
162132,-100,4,2,0,70,0,0
178961,-100,4,2,0,80,0,1
183352,-100,4,2,1,80,0,1
183535,-100,4,2,0,80,0,1
197071,-100,4,1,2,80,0,1
197437,-100,4,1,0,80,0,1
197803,-100,4,2,2,61,0,1
198535,-100,4,2,0,76,0,1
201461,-100,4,2,0,22,0,1
201827,-100,4,2,0,79,0,1
214815,-100,4,2,0,80,0,1
219754,-100,4,2,0,80,0,1
224144,-100,4,2,1,80,0,1
224510,-100,4,2,0,80,0,1
226522,-100,4,2,0,80,0,0
232925,-100,4,2,1,80,0,0
233291,-100,4,2,0,80,0,0
234388,-100,4,2,1,61,0,0
244083,-100,4,2,0,31,0,0
244632,-100,4,2,1,61,0,0
245181,-100,4,2,0,71,0,0
258535,-100,4,2,0,51,0,0
258900,-100,4,2,0,78,0,0
270425,-100,4,2,0,37,0,0
274815,-200,4,2,0,14,0,0
274906,-100,4,2,0,39,0,0
274906,-100,4,2,0,39,0,0
279937,-100,4,2,1,39,0,0
280037,-100,4,2,1,39,0,0
281400,-100,4,2,0,57,0,0
285791,-100,4,2,1,31,0,0
285974,-100,4,2,0,57,0,0
292193,-100,4,2,1,52,0,0
292925,-100,4,2,0,52,0,0
296400,-100,4,2,0,17,0,0
296492,-100,4,2,0,51,0,0
298961,-100,4,2,0,52,0,1
304632,-100,4,2,1,52,0,1
305730,-100,4,2,0,52,0,1
306096,-100,4,2,1,52,0,1
306461,-100,4,2,0,52,0,1
313961,-200,4,2,0,52,0,1
315791,-100,4,2,0,52,0,1
323656,-100,4,2,1,52,0,1
324022,-100,4,2,0,52,0,1
335364,-100,4,2,1,52,0,1
335730,-100,4,2,0,52,0,1
336827,-100,4,2,1,52,0,1
341583,-100,4,2,0,52,0,1
342864,-100,4,2,0,52,0,1
345791,-100,4,2,0,52,0,1
355120,-100,4,2,0,5,0,0

[Colours]
Combo1 : 157,79,0
Combo2 : 215,107,0
Combo3 : 182,158,67

[HitObjects]
368,296,8839,1,0
420,283,9205,1,0
441,233,9571,1,0
450,179,9937,2,0,B|458:123|370:67,1,120,2|8
344,104,11035,1,0
328,56,11400,2,0,B|264:48|184:88,1,120,2|8
224,128,12498,2,0,B|272:104|368:112,1,120,0|2
352,168,13596,2,0,B|288:152|224:192,1,120,0|2
112,296,14693,5,2
88,248,15059,1,0
64,200,15425,1,0
64,144,15791,2,0,B|104:88|192:80,1,120,2|8
164,83,16888,1,0
164,83,17254,2,0,L|216:48|256:104|296:64,1,180,2|0
344,72,18717,6,0,L|424:72,1,60,0|0
408,128,19449,2,0,L|336:128,1,60,0|0
336,184,20181,2,0,L|272:184,1,60,0|0
224,184,20913,1,2
224,240,21278,1,0
224,296,21644,6,0,L|352:296,2,120,4|8|8
168,296,23474,6,0,L|96:296,2,60,0|0|2
40,200,24571,6,0,B|72:112|192:88,1,180,4|2
224,120,26035,2,0,B|168:184|168:304,1,180,8|2
208,320,27498,1,4
368,288,28596,6,0,B|400:328,2,30,0|0|2
368,216,29327,6,0,B|400:192,2,30,0|0|8
296,200,30059,6,0,B|272:168,2,30,0|0|2
239,262,30791,5,0
190,193,31156,1,8
145,264,31522,1,0
96,195,31888,1,2
156,105,32254,6,0,B|212:67,1,60,2|0
313,67,32986,2,0,B|379:97,1,60,0|4
192,216,34083,5,8
192,216,34449,2,0,B|240:280,1,60,2|0
272,232,35181,2,0,B|328:192,3,60,0|8|2|0
328,144,36644,1,0
383,131,37010,2,0,B|431:171,1,60,8|0
467,207,37742,2,0,B|419:295|291:279,1,180,2|0
264,259,39205,5,4
210,261,39571,1,0
208,206,39937,1,8
158,183,40303,1,2
158,183,40669,2,0,B|153:150|200:128|227:200|217:226|200:242|177:254|150:246|111:275|74:221|79:140|115:116|186:80,1,360,0|0
267,55,43596,1,0
312,83,43961,1,0
360,109,44327,1,8
201,195,45059,6,0,B|201:47,1,120,4|8
97,137,46156,1,2
202,195,46522,2,0,B|326:195,1,120,0|8
258,298,47620,1,2
199,194,47986,2,0,B|56:194,1,120,4|8
137,90,49083,1,2
197,194,49449,2,0,B|196:323,1,120,0|8
220,54,50913,6,0,B|284:87|344:151|347:254,1,240,4|0
342,298,52742,1,0
294,272,53108,2,0,B|284:154|149:73,2,240,8|8|8
272,321,56400,1,0
240,281,56766,6,0,L|214:211,1,60,4|0
195,176,57498,2,0,L|151:111,1,60,8|0
113,101,58230,1,0
104,154,58596,2,0,L|143:225,1,60,0|8
163,250,59327,1,0
197,291,59693,6,0,L|242:346,1,60,4|0
273,298,60425,1,8
273,298,60791,1,0
273,298,61156,2,0,L|398:247,1,120,0|8
392,200,62254,1,0
392,144,62620,1,4
192,96,63352,5,0
136,104,63717,1,0
136,104,63900,1,0
136,104,64083,2,0,B|120:168|200:216,1,120
183,205,65181,1,0
256,192,65547,12,0,67010
124,300,67742,5,8
174,279,68108,1,0
156,227,68474,2,0,B|212:192,1,60,4|0
182,146,69205,2,0,B|237:115,2,60,8|0|0
134,171,70303,1,0
118,222,70669,1,8
154,261,71035,1,0
279,242,71400,6,0,B|337:199,1,60,4|0
327,206,72132,2,0,B|281:145,1,60,8|0
291,158,72864,2,0,B|348:108,2,60,0|0|0
119,72,74327,6,0,B|203:32|376:43,1,240,4|2
403,138,76522,2,0,B|263:241|226:230|234:158|236:131|257:110|297:105|350:108|373:193|361:236|330:273|308:280|227:267,1,480,0|8
250,270,79815,1,2
152,248,80181,6,0,L|128:232,1,30,4|0
69,162,80913,2,0,L|101:146,1,30,8|0
152,72,81644,2,0,L|184:96,1,30
240,160,82376,2,0,L|240:88,1,60,8|0
304,48,83474,2,0,L|368:96,2,60,0|8|0
209,173,84571,5,2
373,144,85303,5,0
373,144,85669,2,0,L|389:109,2,30,0|0|4
265,140,86400,1,0
343,213,86766,1,8
240,248,87132,1,0
324,315,87498,1,0
272,320,87864,5,0
216,320,88230,1,8
160,320,88596,2,0,B|63:272|24:192|40:128,1,240,0|0
64,88,90425,1,8
287,169,91156,6,0,B|332:121,3,60,2|0|4|0
328,125,92620,2,0,B|382:72,1,60,8|0
415,116,93352,2,0,B|462:236,1,120,2|8
458,227,94449,1,0
458,227,94815,2,0,L|376:318|313:214,1,240,4|2
315,217,96644,1,0
315,217,97010,2,0,L|222:310,1,120,8|4
94,132,98474,5,8
250,280,99205,1,2
413,138,99937,1,8
414,138,100303,1,8
306,144,100669,2,0,B|284:181|249:191,1,60
254,77,101400,1,8
146,69,101766,2,0,B|108:99|108:138,1,60
218,99,102498,6,0,B|192:139,4,30,0|0|8|0|0
261,131,103596,2,0,L|187:238,1,120,4|8
144,208,104693,1,0
96,180,105059,6,0,L|135:122,1,60,2|0
174,100,105791,1,8
227,100,106156,1,0
235,207,106522,6,0,L|166:253,1,60,2|0
274,178,107254,2,0,L|330:137,1,60,8|0
406,210,107986,2,0,L|465:164,1,60,8|0
364,111,108717,1,2
260,143,109083,1,0
221,42,109449,6,0,L|100:56|80:178,1,240,4|2
84,280,111278,1,0
191,283,111644,1,8
194,175,112010,1,0
282,236,112376,2,0,L|412:236,1,120,0|8
319,165,113474,1,0
211,165,113839,2,0,L|83:165,1,120,0|8
178,100,114937,1,0
286,101,115303,1,4
58,285,116035,5,8
273,298,116766,1,0
412,132,117498,1,8
319,78,117864,2,0,L|282:132,2,60
214,106,118961,5,8
175,152,119327,1,0
202,200,119693,2,0,B|297:218|323:63|225:-7|149:-7|58:31|47:122|45:172|112:202,1,480,0|2
125,224,122986,1,0
162,262,123352,1,8
256,192,124083,12,2,127010
100,163,131766,5,0
100,163,132132,1,8
100,163,132498,1,0
102,218,132864,2,0,B|182:211|242:96,1,180,4|2
268,67,134327,1,0
268,67,134693,1,0
293,114,135059,2,0,B|308:235|391:284,1,180,8|0
371,270,136522,1,8
371,270,136888,2,0,B|324:318|225:343|132:334,1,240,2|2
122,286,138717,6,0,B|252:290|362:213,1,240,0|2
400,192,140547,1,0
400,192,140913,1,8
312,106,141278,6,0,B|260:106,2,30,2|0|8
230,177,142010,2,0,L|181:176,2,30
147,106,142742,2,0,B|116:106,2,30,2|0|8
130,213,143474,1,2
130,213,143839,1,0
232,178,144205,1,0
232,178,144571,1,4
335,221,145303,6,0,B|334:290,1,60,2|0
281,293,146035,1,0
227,298,146400,2,0,B|179:281|128:209,1,120,0|2
87,197,147498,1,0
122,157,147864,2,0,B|132:75|188:38,1,120,0|2
224,37,148961,1,0
362,278,149693,5,8
362,278,150059,1,2
362,278,150242,1,0
363,278,150425,1,0
309,281,150791,1,0
255,281,151156,1,8
203,264,151522,5,2
203,264,151888,1,0
238,161,152254,1,0
132,182,152620,1,8
90,88,153352,6,2,B|161:72,2,60
311,293,155547,5,2
257,302,155913,1,0
203,293,156278,1,4
351,135,157010,5,8
257,81,157376,1,0
166,140,157742,1,0
357,243,158291,6,0,B|432:201|412:99,1,152.999993616343,0|2
365,87,159205,1,4
290,254,159571,1,0
243,174,159937,1,8
201,255,160303,1,0
163,75,160669,1,0
112,95,161035,2,0,B|57:137|121:247,1,120,0|8
194,299,162132,6,0,B|257:338|327:286,1,120,4|0
311,190,163596,2,0,B|259:217|193:189,1,120,4|0
227,86,165059,2,0,B|265:101|287:81,4,60,4|0|8|0|8
256,131,166888,1,0
256,184,167254,5,2
256,208,167437,1,0
256,232,167620,1,0
256,256,167803,1,0
256,280,167986,1,4
195,45,168717,6,0,B|330:44,1,120,8|0
373,135,169815,1,0
481,134,170181,2,0,B|482:261,1,120,2|4
373,256,171278,1,0
317,348,171644,2,0,B|183:348,1,120,8|0
143,253,172742,1,0
35,249,173108,2,0,B|35:122,1,120,0|4
256,192,178961,5,8
288,88,179327,1,0
184,120,179693,2,0,B|125:64,2,60,4|0|8
128,216,180791,1,0
232,216,181156,1,2
176,312,181522,2,0,B|240:336,2,60,0|8|0
112,224,182620,6,0,B|208:168|296:168|392:240,1,300
416,136,184815,5,8
352,64,185181,1,0
416,136,185547,1,4
320,136,185913,2,0,B|320:216,1,60,0|8
224,200,186644,2,0,B|150:200,1,60,0|2
96,128,187376,1,0
192,128,187742,1,8
256,192,188108,12,2,189937
70,271,190669,5,8
128,194,191035,1,0
161,160,191217,1,0
206,145,191400,1,4
302,145,191766,1,0
347,160,191949,1,0
385,188,192132,2,0,B|439:232|397:300,1,120,8|2
134,294,193596,6,0,B|105:270|102:228,2,60,8|0|2
173,331,194693,1,0
132,295,195059,2,0,B|72:208|100:112,1,180,8|0
71,76,196522,1,8
118,49,196888,2,0,B|198:31|335:42|398:152,1,300,8|2
356,180,199083,1,0
311,149,199449,1,8
235,225,200181,6,0,B|195:183|190:103,2,120,0|8|0
451,260,202376,5,2
451,260,202742,1,0
451,187,203108,2,0,B|383:188,1,60,4|0
388,115,203839,1,8
388,115,204205,1,0
315,115,204571,2,0,B|235:115,1,60,2|0
253,187,205303,2,0,B|294:187,2,30,8|0|0
250,259,206035,5,2
250,259,206400,1,0
178,262,206766,2,0,B|178:316,2,30,8|0|0
116,223,207498,2,0,B|116:261,2,30,2|0|0
116,150,208230,2,0,B|40:186,2,60,8|0|4
194,75,209327,5,0
194,75,209693,2,0,B|252:121|249:204,1,120,8|2
283,219,210791,1,0
309,171,211156,2,0,B|290:95|355:47,1,120,8|2
388,81,212254,2,0,B|429:120|418:158,1,60,0|8
397,180,212986,2,0,B|373:209|408:236,1,60,0|2
407,286,213717,1,0
355,270,214083,1,8
184,136,214815,6,0,B|312:137,1,120,4|8
144,281,216278,2,0,B|280:281,1,120,2|8
376,281,217376,1,0
376,169,217742,2,0,B|240:169,2,120,2|8|8
304,248,219571,1,8
200,256,219937,5,2
160,224,220120,1,0
144,176,220303,1,0
152,72,220669,1,4
299,286,221400,5,8
299,286,221766,1,0
244,192,222132,1,2
188,284,222498,1,0
188,284,222864,2,0,B|84:245|86:123,2,180,8|0|0
336,128,225791,5,8
336,232,226156,1,0
336,176,226339,1,0
280,176,226522,1,4
288,55,229449,6,0,B|324:80,2,30,2|0|0
263,103,230181,2,0,B|308:120,2,30,8|0|0
235,149,230913,1,2
235,149,231278,1,0
181,151,231644,1,8
181,152,232010,1,0
142,190,232376,2,0,B|180:252|315:247,1,180,2|0
357,237,233839,2,0,B|427:176|364:66,1,180,2|0
367,72,235303,1,4
172,70,236035,5,8
110,158,236766,1,2
167,249,237498,1,8
221,249,237864,1,0
248,249,238047,1,0
275,249,238230,1,4
374,208,238961,5,8
375,99,239693,1,0
374,207,240425,1,8
419,304,241156,1,2
419,304,241339,1,0
419,304,241522,1,0
419,304,241888,5,8
365,305,242254,1,0
310,306,242620,1,0
310,306,242986,1,0
255,306,243352,1,8
201,306,243717,1,0
147,301,244083,2,0,L|148:228|227:229|268:191,1,180,4|0
275,163,245547,1,0
390,233,246278,5,8
350,270,246644,1,0
309,305,247010,2,0,C|249:337|186:335,2,120,4|8|2
255,211,249205,5,8
160,158,249937,6,0,C|194:114|255:90,1,120,2|8
335,160,251035,1,0
392,251,251400,1,0
316,328,251766,1,0
216,286,252132,1,8
216,286,252864,6,0,C|117:210,1,120,4|8
314,117,254327,2,0,C|411:188,2,120,0|8|4
135,280,256522,6,0,C|136:319,2,30,8|0|0
208,200,257254,6,0,C|208:146,2,30
282,278,257986,6,0,C|284:315,2,30,8|0|0
357,200,258717,5,4
106,254,264571,6,2,C|84:237,4,15
120,184,265303,1,8
189,166,265669,1,0
249,123,266035,6,2,C|238:100,4,15
316,148,266766,1,8
268,202,267132,1,8
200,232,267498,5,2
144,184,267864,1,0
88,232,268230,1,8
56,168,268596,2,0,B|48:128|96:96,1,60
136,72,269327,1,0
208,72,269693,1,8
99,220,270425,6,0,C|136:274,2,60,0|0|8
255,107,271888,2,0,C|255:172,2,60,0|0|8
435,262,273352,2,2,L|437:325|369:325,2,120,2|10|2
254,329,275547,5,0
254,329,275913,1,0
254,330,276278,2,0,C|192:320|128:288,1,120,2|8
104,256,277376,1,0
104,256,277742,2,0,B|88:192|128:136,1,120,0|2
168,112,278839,2,0,B|232:160|288:104,3,120
336,112,281400,5,2
336,112,281766,1,0
392,112,282132,2,0,B|432:160|384:248,1,120,0|8
344,224,283230,1,0
288,224,283596,2,0,B|216:224,1,60
224,280,284327,5,8
168,282,284693,2,0,B|32:282,2,120
174,228,286522,1,8
174,228,286888,1,8
92,150,287254,6,0,B|110:112|62:58|92:25,2,120,0|0|8
153,239,289083,1,0
200,151,289449,2,0,B|194:69|319:67|283:82,1,120,0|8
288,182,290547,1,0
290,290,290913,2,0,B|367:289,1,60,8|2
356,235,291462,2,0,B|434:235,1,60,8|8
420,180,292011,2,0,B|477:173|505:235|464:303|419:290,1,180,0|4
422,290,293474,1,0
359,204,293839,6,0,B|307:170,1,60,0|2
301,279,294571,1,8
193,285,294937,2,0,B|53:252|67:77,1,240
256,192,296766,12,0,298230
100,85,298961,5,0
187,148,299327,1,0
79,161,299693,2,0,B|35:221|87:277,1,120,4|8
189,243,300791,6,0,B|173:213|196:182,2,60,0|0|0
242,240,301705,2,8,B|259:208|301:200,1,60
322,244,302254,2,0,B|430:318|454:177,1,180
351,150,303717,1,0
452,113,304083,2,0,B|388:41|269:59,1,180,0|8
234,57,305364,1,8
180,59,305547,2,0,B|79:80|65:210,1,180,4|0
164,134,307010,6,0,B|130:152|132:200,1,60,0|2
234,145,307742,2,0,B|199:174|206:217,1,60,8|0
255,218,308291,1,0
255,218,308474,2,0,B|266:166|313:169,1,60,4|0
280,280,309205,2,0,B|291:241|322:227,1,60
417,200,309937,2,0,B|381:222|384:268,1,60
367,141,310669,5,8
367,141,310852,1,0
367,141,311035,1,8
367,141,311217,1,0
367,141,311400,2,0,B|354:222|287:237,1,120,4|2
250,255,312498,1,0
252,254,312864,2,0,B|189:289|127:266,1,120
88,248,313961,1,0
88,192,314327,6,0,B|117:136|173:112,1,120,4|0
305,96,316522,5,8
329,109,316705,1,0
351,122,316888,1,8
370,141,317071,1,0
390,160,317254,2,0,B|429:186|433:227,1,60,4|0
396,249,317986,1,0
358,210,318352,1,0
323,169,318717,2,0,B|297:141|258:126,3,60
122,94,320181,5,4
75,191,320913,1,0
126,285,321644,1,8
126,285,321827,1,8
126,285,322193,1,8
126,285,322376,1,8
126,285,322742,1,2
230,310,323108,6,0,B|347:338|461:257,1,240,4|0
354,226,324937,1,0
255,181,325303,2,0,B|123:181,1,120,2|4
109,76,326400,1,0
110,76,326766,2,0,B|234:76,1,120
337,65,327864,5,8
337,65,328047,1,8
377,166,328413,1,8
376,167,328596,1,8
301,244,328961,2,0,B|242:281,2,60,4|0|8
212,182,330059,1,0
212,182,330425,2,0,C|191:171|166:132,1,60
249,57,331156,2,0,B|312:64|360:120,1,120,8|4
425,192,332254,1,0
425,192,332620,1,8
332,147,332986,6,0,B|312:119|252:120,3,60,0|0|0|8
175,94,334449,1,0
175,94,334632,1,0
175,94,334815,2,0,C|135:114|139:208|180:224,1,180
250,148,336278,2,0,C|284:169|284:265|239:291,1,180
256,192,337742,12,8,339205
351,74,339937,5,8
242,73,340303,1,0
147,125,340669,1,4
128,231,341035,1,0
188,320,341400,2,0,C|249:336|320:318,1,120
428,144,342864,5,8
336,86,343230,1,8
228,82,343596,2,0,B|159:82,1,60
124,180,344327,2,0,B|187:180,1,60
278,233,345059,2,0,B|241:280,1,60
132,281,345791,6,0,C|214:182,1,120,0|4
415,296,347254,5,0
305,246,347620,1,0
225,156,347986,1,4
256,192,349449,12,0,355303
