osu file format v9

[General]
AudioFilename: Septet for Sakuya.mp3
AudioLeadIn: 0
PreviewTime: 79453
Countdown: 0
SampleSet: Soft
StackLeniency: 0.7
Mode: 0
LetterboxInBreaks: 0
SkinPreference:Default

[Editor]
Bookmarks: 8839,114571,187193,232376,243535,298961,316522
DistanceSpacing: 0.7
BeatDivisor: 2
GridSize: 8

[Metadata]
Title:Septet for Sakuya
Artist:J&B
Creator:pete2528
Version:Insane
Source:Touhou
Tags:Septette the Dead Princess Naki oujo no tame no Remilia Scarlet

[Difficulty]
HPDrainRate:7
CircleSize:4
OverallDifficulty:5
ApproachRate:8
SliderMultiplier:1.5
SliderTickRate:1

[Events]
//Background and Video events
0,0,"BG.jpg"
//Break Periods
2,74892,77967
2,127210,131016
2,250137,252114
2,296234,298943
//Storyboard Layer 0 (Background)
//Storyboard Layer 1 (Fail)
//Storyboard Layer 2 (Pass)
//Storyboard Layer 3 (Foreground)
//Storyboard Sound Samples
//Background Colour Transformations
3,100,163,162,255

[TimingPoints]
1157,365.853658536585,4,2,0,81,1,0
2254,-100,4,2,0,21,0,0
4815,-100,4,2,0,31,0,0
5547,-100,4,2,0,40,0,0
6278,-100,4,2,0,51,0,0
7010,-100,4,2,0,66,0,0
7559,-100,4,2,0,89,0,0
8474,-100,4,2,0,95,0,0
8656,-100,4,2,0,71,0,0
45059,-100,4,2,0,81,0,0
46157,-100,4,2,0,81,0,0
47986,-200,4,2,0,81,0,0
49083,-100,4,2,0,81,0,0
53839,-100,4,1,0,56,0,0
55303,-100,4,1,0,66,0,0
55669,-100,4,2,0,81,0,0
56035,-100,4,1,0,53,0,0
62620,-100,4,1,0,81,0,0
63535,-200,4,1,0,71,0,0
63717,-200,4,1,0,36,0,0
63900,-200,4,1,0,41,0,0
64083,-100,4,1,0,49,0,0
64632,-200,4,1,0,31,0,0
64815,-200,4,1,0,38,0,0
64998,-200,4,1,0,45,0,0
65181,-200,4,1,0,57,0,0
65364,-100,4,1,0,64,0,0
67742,-100,4,1,0,52,0,0
68108,-100,4,1,0,68,0,0
71400,-100,4,1,0,80,0,0
73961,-100,4,1,0,80,0,0
74693,-100,4,1,0,0,0,0
78717,-100,4,1,0,56,0,0
79083,-100,4,1,0,63,0,0
79266,-100,4,1,0,72,0,0
80181,-50,4,2,0,81,0,1
80913,-200,4,1,0,48,0,1
81096,-200,4,2,0,81,0,1
81644,-50,4,2,0,81,0,1
82376,-100,4,2,0,81,0,1
83108,-100,4,2,0,81,0,1
83839,-100,4,1,0,39,0,1
84022,-100,4,2,0,68,0,1
86035,-100,4,1,0,62,0,1
87864,-100,4,1,0,54,0,1
88047,-100,4,1,0,61,0,1
90425,-100,4,1,0,50,0,1
90791,-100,4,1,0,65,0,1
93352,-100,4,1,0,69,0,1
93535,-100,4,1,0,45,0,1
94083,-100,4,1,0,68,0,1
94449,-100,4,1,0,43,0,1
99205,-100,4,1,0,31,0,1
99388,-100,4,1,0,54,0,1
102132,-100,4,1,0,29,0,1
102315,-100,4,1,0,38,0,1
102498,-100,4,1,0,46,0,1
102681,-100,4,1,0,53,0,1
102864,-100,4,1,0,59,0,1
103047,-100,4,1,0,65,0,1
103230,-100,4,1,0,71,0,1
103596,-100,4,1,0,71,0,1
108717,-100,4,1,0,45,0,1
108900,-100,4,1,0,71,0,1
109632,-100,4,1,0,50,0,1
109815,-100,4,1,0,71,0,1
110730,-100,4,1,0,49,0,1
110913,-100,4,1,0,71,0,1
113108,-100,4,2,2,67,0,1
113291,-100,4,1,0,67,0,1
113839,-100,4,1,0,55,0,1
114571,-100,4,1,0,48,0,1
114937,-100,4,1,0,77,0,1
115120,-100,4,1,0,56,0,1
116766,-100,4,1,0,45,0,1
118413,-100,4,1,0,45,0,1
120425,-100,4,1,0,61,0,1
123352,-100,4,1,0,52,0,1
123535,-100,4,1,0,52,0,1
126827,-100,4,2,0,9,0,1
127193,-100,4,2,0,72,0,0
143656,-100,4,2,1,72,0,0
150059,-100,4,1,0,72,0,0
150608,-100,4,2,0,72,0,0
151522,-100,4,1,0,72,0,0
151888,-100,4,1,0,72,0,0
153352,-100,4,2,0,81,0,0
154449,-100,4,2,0,48,0,0
154632,-100,4,2,0,71,0,0
155547,-100,4,1,0,66,0,0
156096,-100,4,1,0,81,0,0
157010,-100,4,1,0,81,0,0
158108,-100,4,1,0,62,0,0
158656,-100,4,2,0,81,0,0
159205,-50,4,1,0,72,0,0
161035,-100,4,1,0,55,0,0
162864,-100,4,1,0,56,0,0
164693,-100,4,2,0,45,0,0
164876,-100,4,2,0,58,0,0
165059,-100,4,2,0,71,0,0
165242,-100,4,1,0,61,0,0
167254,-100,4,1,0,34,0,0
167437,-100,4,1,0,46,0,0
167620,-100,4,1,0,54,0,0
167803,-100,4,1,0,63,0,0
167986,-100,4,1,0,74,0,0
170913,-100,4,1,0,60,0,0
173839,-100,4,1,0,60,0,0
175852,-100,4,1,0,59,0,0
176766,-100,4,2,0,64,0,0
177498,-100,4,1,0,59,0,0
177681,-100,4,1,0,70,0,0
179693,-100,4,2,0,68,0,1
188108,-100,4,2,0,58,0,1
188382,-100,4,1,2,81,0,1
188565,-100,4,2,0,81,0,1
191035,-100,4,2,0,81,0,1
196522,-100,4,2,0,64,0,1
201278,-100,4,2,0,31,0,1
201461,-100,4,2,0,41,0,1
201644,-100,4,1,0,49,0,1
201827,-100,4,1,0,55,0,1
202010,-100,4,1,0,59,0,1
202193,-100,4,1,0,63,0,1
202376,-100,4,1,0,69,0,1
203108,-100,4,2,0,74,0,1
203656,-100,4,1,0,70,0,1
208230,-100,4,1,0,69,0,1
215913,-100,4,1,0,48,0,1
216278,-100,4,2,0,68,0,1
216827,-100,4,1,0,53,0,1
221309,-100,4,2,1,58,0,1
221492,-100,4,2,0,81,0,1
221766,-100,4,2,0,62,0,1
229083,-100,4,2,0,65,0,0
230913,-100,4,2,0,71,0,0
233291,-100,4,2,0,63,0,0
236217,-100,4,2,0,53,0,0
239419,-100,4,2,0,0,0,0
239602,-100,4,2,0,74,0,0
241156,-100,4,2,0,31,0,0
241522,-100,4,2,0,73,0,0
243352,-100,4,2,0,73,0,0
249114,-200,4,2,0,60,0,0
249846,-200,4,2,0,77,0,0
252681,-100,4,2,0,81,0,0
258717,-200,4,1,0,42,0,0
260181,-200,4,1,0,60,0,0
261644,-100,4,1,0,60,0,0
264571,-50,4,1,0,80,0,0
266035,-50,4,1,0,67,0,0
267498,-50,4,1,0,63,0,0
268230,-100,4,1,0,63,0,0
270425,-125,4,2,0,47,0,0
271888,-142.857142857143,4,2,0,64,0,0
273352,-166.666666666667,4,2,0,72,0,0
274815,-200,4,2,0,80,0,0
275364,-200,4,2,0,64,0,0
275913,-200,4,2,0,48,0,0
276278,-200,4,2,0,22,0,0
277742,-200,4,2,1,14,0,0
277925,-200,4,2,0,22,0,0
288535,-200,4,2,1,22,0,0
288900,-200,4,2,0,22,0,0
295303,-100,4,2,1,22,0,0
295669,-100,4,2,1,22,0,0
296035,-100,4,2,0,15,0,0
296400,-100,4,2,0,30,0,0
296766,-200,4,2,0,5,0,0
297864,-100,4,2,0,5,0,0
298047,-100,4,2,0,71,0,0
299693,-100,4,2,0,71,0,1
299876,-100,4,1,0,71,0,1
308474,-100,4,1,2,71,0,1
315608,-100,4,1,0,46,0,1
316522,-100,4,1,0,32,0,1
316705,-100,4,1,0,42,0,1
316888,-100,4,1,0,53,0,1
317071,-100,4,1,0,63,0,1
317254,-100,4,1,0,71,0,1
321644,-100,4,1,0,35,0,1
321827,-100,4,1,0,46,0,1
322010,-100,4,1,0,53,0,1
322193,-100,4,1,0,60,0,1
322376,-100,4,1,0,69,0,1
345425,-100,4,1,0,0,0,1
345608,-100,4,1,0,64,0,1
346888,-100,4,1,0,44,0,1
347986,-200,4,2,0,39,0,0
348717,-200,4,2,0,0,0,0
349449,-200,4,2,0,61,0,0
350181,-200,4,2,0,41,0,0
350913,-200,4,2,0,22,0,0
351644,-200,4,2,0,16,0,0
351644,-200,4,2,0,16,0,0
352376,-200,4,2,0,3,0,0

[Colours]
Combo1 : 157,79,0
Combo2 : 206,169,19
Combo3 : 255,128,0

[HitObjects]
259,79,4083,2,0,B|183:66|96:87,1,150
104,192,4815,1,2
160,280,5181,1,0
216,192,5547,1,0
272,280,5913,2,0,B|320:328|424:320,1,150,0|2
368,224,6644,1,0
352,120,7010,5,0
352,120,7376,1,0
280,192,7742,2,0,B|200:232|112:240,2,150,2|0|8
184,152,8839,1,0
152,112,9022,1,0
120,72,9205,1,8
216,56,9571,5,8
272,56,9754,1,0
328,56,9937,2,0,B|408:88|432:168,2,150,4|0|8
256,128,11035,1,0
184,48,11400,6,0,C|120:100|64:184,2,150,2|0|8
288,48,12498,1,0
392,56,12864,5,2
360,96,13047,1,0
320,128,13230,1,0
272,144,13413,1,0
216,144,13596,5,8
160,144,13778,1,0
104,144,13961,2,0,C|112:216|200:224,1,150,0|0
288,296,14693,5,0
288,240,14876,1,0
288,184,15059,1,8
288,128,15242,1,0
288,72,15425,1,0
184,72,15791,6,0,L|141:72|120:110|37:111,2,150,2|0|8
288,72,16888,5,0
288,72,17254,2,2,B|288:136|392:136|392:48,2,150,2|0|8
200,120,18352,5,0
230,220,18717,1,2
277,243,18900,1,0
328,253,19083,1,0
367,218,19266,1,0
351,167,19449,5,8
256,120,19815,1,0
240,168,19998,1,0
256,216,20181,1,0
96,72,20547,5,8
136,280,20913,1,8
288,136,21278,1,8
136,160,21644,5,4
80,160,21827,1,0
48,202,22010,1,0
85,238,22193,1,0
137,242,22376,1,8
137,347,22742,2,8,C|289:347,1,150,8|2
304,248,23474,6,0,C|305:159,2,75,0|0|8
408,248,24205,1,0
408,248,24571,2,0,B|424:128|400:64|320:56|232:56,1,300,4|8
144,56,25669,2,0,C|43:57,2,75,0|0|2
224,128,26400,5,0
272,144,26583,1,0
320,168,26766,1,8
392,248,27132,1,8
371,296,27315,1,0
345,341,27498,2,0,B|321:293|281:229|201:205|145:197|81:197,1,300,4|8
96,96,28596,5,8
200,96,28961,1,0
248,112,29144,1,0
288,144,29327,1,0
368,208,29693,1,8
272,256,30059,6,0,C|176:256,1,75,2|0
144,256,30425,2,4,L|144:296|104:296,2,75,8|0|0
160,104,31156,6,0,B|240:88|216:192|336:160,1,150,8|0
288,168,31888,1,2
288,272,32254,6,8,C|208:232,2,75,8|0|8
384,320,32986,1,0
384,320,33352,2,0,B|460:283|468:187,1,150,4|2
464,152,33900,2,0,L|464:103|412:103,1,75,0|8
336,104,34449,5,2
256,176,34815,1,0
184,104,35181,1,0
80,104,35547,2,0,C|79:258,1,150,8|8
168,312,36278,2,0,C|236:340|323:311,1,150,0|2
288,216,37010,2,0,L|357:253|449:192,2,150,8|0|0
134,216,38108,5,0
134,216,38291,1,0
133,216,38474,1,8
72,128,38839,2,0,C|144:48|216:48,1,150,8|2
192,96,39388,1,0
248,96,39571,1,0
304,96,39754,2,0,C|400:96,1,75,0|8
384,200,40303,5,2
280,200,40669,2,0,C|192:200,2,75
281,147,41217,1,0
280,96,41400,1,8
176,96,41766,6,0,C|176:176,1,75,2|0
232,176,42132,1,0
288,176,42315,2,0,C|288:275,1,75,2|8
344,248,42681,1,2
400,248,42864,2,0,L|399:200|419:176|399:140|400:94,2,150,8|0|8
112,224,43961,5,2
160,200,44144,1,0
200,168,44327,1,8
280,96,44693,1,0
384,72,45059,6,0,B|416:104|416:200|384:224,2,150,0|0|8
328,160,46156,1,0
304,208,46339,1,0
264,240,46522,1,2
96,136,46888,6,0,B|131:158|181:131,1,75
200,96,47254,1,8
256,96,47437,1,2
312,96,47620,1,8
340,215,47986,6,0,C|252:215,3,75,4|0|8|2
266,320,49449,1,0
440,168,49815,6,0,B|437:90|330:39,2,150,8|0|2
416,272,50913,1,4
336,200,51278,6,0,B|328:120|224:88,1,150,0|2
136,96,52010,2,0,B|64:48,2,75
216,168,52742,2,0,B|151:256|30:217,1,150,0|8
104,320,53474,6,0,B|167:262|285:319,3,150,2|4|0|8
320,232,54937,1,0
416,200,55303,2,0,B|416:104|280:96,1,150,0|2
208,80,56035,5,0
168,112,56217,1,0
128,144,56400,1,8
80,240,56766,2,0,B|131:254|181:227|243:240,1,150,4|0
272,208,57315,1,0
304,168,57498,2,0,B|362:144|400:186|485:149,2,150,8|0|8
304,272,58596,5,0
360,272,58778,2,0,C|396:270|425:248,2,75,0|0|0
304,272,59327,2,8,B|207:272,1,75,8|0
176,272,59693,1,4
128,256,59876,1,0
96,216,60059,1,0
96,112,60425,5,8
136,80,60608,1,0
186,66,60791,2,0,B|272:58|286:111|252:169,1,150,0|0
260,258,61522,1,0
304,229,61705,1,0
335,187,61888,1,8
324,135,62071,1,0
361,98,62254,5,8
409,117,62437,1,8
446,153,62620,2,0,C|422:217|345:276,1,150,4|0
358,266,63352,1,0
264,312,63717,5,8
216,304,63900,1,8
168,288,64083,2,0,C|120:264|88:224,3,75,0|0|8|0
80,200,64815,5,0
96,152,64998,1,0
120,104,65181,1,8
160,72,65364,1,8
208,56,65547,2,0,C|280:80|360:136,1,150
328,176,66096,1,0
296,216,66278,2,0,B|240:152|160:144,1,150
80,200,67010,6,0,B|24:280|96:336,1,150
168,264,67742,6,0,C|208:264|248:264,2,75,8|0|8
109,63,68474,6,0,C|221:165,1,150,4|0
391,50,69205,6,0,C|291:167,1,150,8|0
413,337,69937,6,0,C|282:214,1,150,0|0
304,184,70486,5,0
304,128,70669,2,0,L|255:69|195:140,1,150,8|0
107,203,71400,5,0
295,109,71766,1,0
107,203,72132,1,8
317,200,72498,1,0
107,203,72864,2,0,L|107:299|222:299,1,150,0|0
380,303,73596,5,8
272,304,73961,1,0
232,264,74144,1,0
272,224,74327,2,0,B|231:194|311:135|272:47,1,150,4|0
226,48,78717,6,8,L|114:48,1,75
68,113,79083,2,8,L|68:198,1,75,8|0
104,286,79449,6,0,L|209:286,1,75,8|8
284,287,79815,2,8,L|370:287,1,75,8|0
362,181,80181,6,0,L|351:160|348:197|340:161|334:197|324:162|318:197|311:163|304:196|298:164|291:197|286:164|280:196|272:164|266:196|261:182|119:182,1,600,4|0
148,76,81278,1,0
144,276,81644,6,0,L|155:255|158:292|166:256|172:292|182:257|188:292|195:258|202:291|208:259|215:292|220:259|226:291|234:259|240:291|245:277|387:277,1,600,2|8
360,168,82742,1,0
256,336,83108,6,0,L|88:336,1,150,4|0
256,192,83839,2,0,L|464:192,1,150
256,40,84571,2,0,L|96:40,1,150
256,192,85303,5,0
256,192,85669,1,0
256,192,85852,2,0,B|256:88,1,75,0|4
152,88,86400,5,0
112,128,86583,1,0
112,184,86766,1,0
152,280,87132,1,0
256,296,87498,1,0
304,288,87681,1,0
352,264,87864,2,0,B|344:176|440:128,1,150,0|8
256,192,88596,12,0,89693
360,96,90425,5,0
408,192,90791,1,0
360,288,91156,1,8
96,240,91522,5,0
88,192,91705,1,0
96,144,91888,1,4
238,167,92254,5,0
360,192,92620,5,8
360,192,92803,2,0,B|392:256|320:288,2,75
360,136,93352,2,0,B|292:77|216:56,1,150
264,160,94083,2,0,B|192:112|80:80,1,150
160,192,94815,6,0,B|248:216|296:304,1,150
368,336,95547,2,0,B|472:304|480:208,1,150
368,248,96278,2,0,B|280:280|208:160,1,150
168,88,97010,6,8,B|102:160,2,75
208,120,97559,1,8
248,152,97742,2,8,B|320:80|384:160,1,150,4|0
320,240,98474,2,0,B|256:304|168:232,1,150
136,152,99205,6,0,B|159:63|294:75,1,150,0|0
304,80,99754,1,0
352,88,99937,2,8,B|440:144|424:280,1,150,8|8
352,288,100669,6,0,B|208:328|136:216,2,225
256,192,102132,5,0
202,151,102315,1,0
258,113,102498,1,8
318,145,102681,5,0
331,211,102864,1,0
292,266,103047,1,0
224,267,103230,5,8
185,212,103413,1,8
256,192,103596,1,4
128,144,103961,5,0
104,192,104144,1,0
128,240,104327,1,8
320,336,104693,6,0,B|418:185|299:43,1,300,0|0
256,56,105608,1,0
203,58,105791,2,0,B|179:237|58:85|72:335,2,300,8|0|8
256,144,107620,5,0
256,200,107803,1,0
256,256,107986,1,8
152,256,108352,1,0
80,176,108717,6,0,B|160:136|192:48,1,150,0|8
232,96,109266,2,0,B|224:176|120:232,1,150,0|0
152,264,109815,1,0
371,326,110181,6,0,B|444:278|433:177,1,150,8|0
384,192,110730,2,0,B|351:278|223:269,1,150,8|0
216,272,111278,1,0
107,139,111644,6,0,B|179:39|332:31|434:63|458:156|460:293|373:346|240:356|119:309|129:171|204:127|286:116|329:188|333:201,1,750,8|0
280,161,113839,1,8
411,324,114571,5,0
359,315,114754,1,0
310,294,114937,1,8
263,269,115120,1,8
223,234,115303,1,4
184,200,115486,1,0
160,152,115669,1,0
160,96,115852,1,0
192,56,116035,6,0,B|273:100,1,75,8|0
248,144,116400,2,0,B|332:189,1,75,8|0
360,208,116766,1,0
360,264,116949,2,0,B|320:328|176:304,1,150
176,312,117498,2,0,B|104:312|32:240,1,150
40,200,118047,1,0
72,160,118230,2,0,B|224:232|376:152,1,300,4|8
416,72,119327,6,0,B|318:63|241:129,1,150,0|0
352,176,120059,2,0,B|276:176|278:214,1,75
240,224,120425,1,8
85,147,120791,6,0,L|142:95|195:152,1,150,8|4
296,144,121522,1,0
344,240,121888,2,0,L|293:292|241:233,1,150
344,240,122620,1,0
344,136,122986,5,0
304,104,123169,1,0
264,72,123352,2,8,B|87:72,1,150,8|8
256,192,124083,12,0,127010
95,102,131766,5,8
147,100,131949,1,0
200,102,132132,1,8
305,101,132498,1,0
410,98,132864,1,4
439,293,133230,6,0,B|376:232|286:306,1,150,0|8
198,308,133961,1,0
114,244,134327,1,2
198,308,134693,1,0
303,310,135059,2,0,B|370:251|453:313,1,150,8|0
446,199,135791,2,0,B|371:157|277:217,1,150,2|0
306,97,136522,1,0
44,223,136888,6,0,B|100:159|139:239|192:157,1,150,2|0
247,254,137620,5,8
288,286,137803,1,0
333,312,137986,1,8
415,247,138352,1,0
439,145,138717,1,4
369,66,139083,2,0,B|476:67,2,75,0|0|8
263,62,139815,1,0
327,144,140181,6,0,B|270:243|216:139,2,150,2|0|8
221,145,141278,1,0
269,238,141644,1,0
175,285,142010,1,0
144,241,142193,1,0
113,197,142376,1,8
176,112,142742,2,0,B|192:72|264:80,2,75,0|0|2
450,262,143474,6,0,L|401:208|352:272|184:272,1,300,0|8
104,272,144571,5,4
176,200,144754,1,0
104,128,144937,1,0
208,128,145120,1,0
312,128,145303,1,8
312,232,145486,1,0
400,184,145669,1,0
232,64,146035,1,2
352,67,146400,6,0,B|487:68|380:164,1,150,8|0
208,48,147132,1,0
160,136,147315,1,0
208,232,147498,1,4
330,201,147864,6,0,B|391:173|374:115,2,75,0|0|8
224,196,148596,2,0,L|232:124|320:100,1,150,0|2
292,211,149327,5,0
229,298,149693,1,8
166,213,150059,1,0
166,160,150242,1,0
166,107,150425,1,4
270,101,150791,1,0
374,101,151156,1,8
165,74,151522,5,0
113,165,151705,1,0
183,243,151888,1,0
393,243,152254,1,0
287,243,152437,1,0
216,165,152620,1,8
408,160,152986,5,0
408,160,153352,2,0,B|408:248|272:248,1,150,4|0
200,248,154083,1,8
199,247,154266,1,0
199,247,154449,1,8
112,192,154815,6,0,B|104:104|216:64,1,150
200,184,155547,1,8
248,176,155730,1,0
288,144,155913,1,0
414,61,156278,6,0,B|430:106|388:169|414:226,1,150,4|0
320,272,157010,2,0,B|285:201|352:148|293:77,1,150,8|0
224,168,157742,1,0
160,88,158108,5,0
104,88,158291,2,0,B|60:160|121:226,1,150,0|8
120,280,158839,1,0
423,302,159205,5,0
424,196,159388,1,0
423,90,159571,2,0,C|380:81|384:120|344:72|344:128|320:104|218:132,1,300,0|8
56,88,160303,2,0,C|104:88|64:120|120:112|88:152|120:144|176:200,1,300
208,280,161035,5,0
155,279,161217,1,0
104,280,161400,1,0
104,227,161583,1,0
105,174,161766,1,8
148,144,161949,1,8
194,119,162132,6,0,C|274:143|370:103,1,150
384,138,162681,1,0
431,160,162864,1,0
434,212,163047,1,0
431,264,163230,5,8
378,266,163413,1,0
325,267,163596,2,0,C|69:267,1,225,4|0
72,224,164327,1,8
165,109,164693,5,8
270,108,164876,1,8
375,110,165059,1,4
254,281,165425,1,0
199,191,165608,1,0
144,280,165791,1,8
75,82,166156,2,0,B|171:51|238:102,1,150
256,328,167254,5,8
176,264,167437,1,8
272,224,167620,1,0
192,152,167803,1,8
256,72,167986,1,4
344,264,168352,2,0,B|398:168|314:96,1,150,0|8
176,256,169083,2,0,B|107:190|208:82,1,150,0|0
257,65,169815,5,0
257,65,169998,1,0
257,65,170181,2,0,B|256:266,1,150,8|0
309,217,170730,1,0
362,218,170913,2,0,C|492:108,1,150,4|0
439,83,171461,2,8,C|378:109|360:120,1,75
320,128,171827,1,0
272,144,172010,2,0,C|223:149|202:210|127:210,2,150
256,248,173108,5,8
256,352,173474,5,0
256,352,173656,1,0
256,352,173839,2,0,B|309:304|375:334|393:293,2,150,4|0|8
152,344,174937,2,0,B|80:280|96:144,1,150
200,208,175669,1,0
304,192,176035,6,0,B|352:176|352:128|346:73|288:64,1,150,8|0
216,128,176766,2,0,B|160:56|48:144,1,150
88,232,177498,2,0,B|152:160|216:232,2,150,8|0|0
104,280,178413,2,0,B|168:320,3,75,0|0|0|8
256,256,179327,1,0
288,152,179693,5,4
216,72,180059,1,0
97,92,180425,1,8
132,191,180791,1,0
220,248,181156,1,2
318,286,181522,1,0
318,286,181888,1,8
392,216,182254,6,0,B|352:144|224:112,1,150,0|6
224,224,182986,2,0,B|144:184|120:112,2,150,0|8|0
86,206,184083,6,0,L|184:325,1,150,2|0
288,296,184815,2,8,C|365:267|429:203,1,150
312,200,185547,1,4
88,120,185913,5,0
144,120,186096,1,0
200,120,186278,2,0,B|288:120,1,75,8|0
280,176,186644,2,0,L|218:239,2,75,0|0|2
320,80,187376,2,0,L|376:136|376:208,1,150,0|8
316,280,188108,6,0,C|224:320|140:306|92:256|80:192|116:132|192:88,1,450,2|8
216,192,189571,1,0
320,200,189937,2,0,L|332:120|229:87,1,150,8|2
216,192,190669,1,0
182,64,191035,5,8
182,64,191217,1,0
182,64,191400,2,0,L|17:64,1,150,4|0
28,117,191949,1,0
77,135,192132,2,0,L|260:136,1,150,8|0
231,188,192681,1,0
231,188,192864,2,0,C|283:204|318:177|391:172,1,150,2|0
370,67,193596,5,8
370,67,193778,1,0
370,67,193961,2,0,B|215:66,1,150,0|4
126,113,194693,5,0
126,113,195059,2,0,B|230:250,3,150,8|0|2|0
69,249,196522,6,0,L|100:174,1,75,8|0
141,83,196888,2,0,L|214:136,1,75,8|0
240,232,197254,6,0,L|320:282|370:197|435:290,1,300,4|8
472,184,198352,2,0,L|408:96|336:128,1,150,0|0
304,192,199083,2,0,C|248:120|301:64|269:58,1,150,0|8
184,56,199815,6,0,L|139:115|84:48,1,150,0|4
88,160,200547,2,0,L|132:222|186:144,1,150,0|8
346,39,201278,5,0
398,43,201461,1,0
434,80,201644,2,8,L|357:144,1,75
411,167,202010,2,0,L|354:223,1,75
318,184,202376,2,8,L|251:244,1,75
222,268,202742,2,8,L|156:227,1,75
126,272,203108,2,0,C|257:336|394:260,1,300,4|8
305,199,204205,1,0
402,159,204571,2,0,C|277:256|137:192,1,300,0|8
150,199,205669,5,0
150,199,205852,1,0
150,199,206035,2,0,L|52:114|109:63,1,150,4|0
165,64,206766,5,8
235,143,207132,1,0
304,64,207498,1,8
371,145,207864,1,0
372,250,208230,6,8,L|299:331,1,75
321,305,208596,2,8,L|259:257,1,75,8|8
262,259,208961,2,0,B|215:230|173:255|134:244|107:216,2,150,4|0|8
343,192,210059,2,0,L|346:37|244:35,1,225
223,36,210791,1,0
219,140,211156,2,0,L|158:183|92:139,3,150,8|0|0|0
90,246,212620,2,0,B|146:298|233:256,1,150,8|0
310,326,213352,2,0,L|410:328|458:265,2,150,0|0|8
105,279,214449,6,8,L|171:225,1,75
237,156,214815,1,4
393,296,215181,2,0,L|336:241,1,75
271,162,215547,1,8
88,72,215913,5,0
88,176,216278,2,0,L|264:176,1,150,2|0
288,307,217010,5,8
288,307,217193,1,0
288,307,217376,2,0,C|363:283|444:212,2,150,0|4|0
331,211,218474,2,0,C|256:237|140:230,2,150,8|0|8
239,160,219571,2,0,C|304:137|383:79,1,150,0|8
335,50,220120,5,0
282,50,220303,1,8
230,47,220486,2,0,C|187:41|165:71,1,75,8|4
64,72,221035,2,0,L|100:107|33:150|70:181|72:320,1,300,0|2
72,304,222132,1,0
280,296,222498,5,0
424,144,222864,1,8
240,48,223230,1,0
256,96,223413,1,0
272,144,223596,6,0,L|352:136|409:208,2,150,4|0|8
288,248,224693,5,0
232,248,224876,1,0
176,248,225059,2,0,L|176:312|296:312,2,150,2|0|8
171,106,226156,5,0
142,150,226339,1,0
156,200,226522,1,4
216,288,226888,1,0
280,200,227254,1,0
336,288,227620,5,0
368,248,227803,1,0
400,208,227986,1,4
344,120,228352,1,0
433,65,228717,1,0
433,65,229083,5,0
433,65,229449,1,8
437,117,229632,1,0
421,167,229815,1,2
387,126,229998,1,0
374,177,230181,1,8
342,218,230364,1,2
297,246,230547,1,2
108,232,230913,5,2
108,232,231278,1,0
88,183,231461,1,0
101,132,231644,1,10
143,163,231827,1,0
168,117,232010,1,2
208,83,232193,1,0
251,112,232376,2,0,C|207:188|180:273,2,150,10|2|0
301,128,233291,6,0,C|423:129,3,75,0|2|0|2
387,233,234205,1,2
282,229,234571,1,10
229,228,234754,1,0
176,227,234937,1,2
371,76,235303,6,0,L|264:55|208:95|147:55|65:124,1,300,4|8
130,135,236217,2,0,L|213:179|283:131|384:159,2,225,0|0|0
92,172,237498,1,8
70,220,237681,1,2
60,272,237864,1,8
61,325,238047,1,2
113,332,238230,6,0,C|131:254|179:164,1,150,8|0
215,199,238778,1,2
209,251,238961,1,2
208,304,239144,1,2
259,318,239327,2,8,L|271:234,1,75,8|0
279,191,239693,2,0,L|356:191|357:273,1,150,0|0
356,263,240242,1,0
356,264,240425,2,0,L|444:265,2,75,8|8|2
432,192,241156,6,0,L|432:136|320:136,1,150,4|0
336,80,241705,1,0
280,80,241888,2,0,L|104:80,3,150,8|2|0|0
80,80,243169,1,0
80,80,243352,2,0,B|80:168,3,75,8|0|0|2
136,160,244083,6,0,B|240:160,3,75,4|0|0|0
216,216,244815,2,0,L|304:216,1,75,8|0
344,216,245181,1,0
344,272,245364,2,0,B|88:272,1,225,2|0
88,184,246278,6,0,B|192:96|296:120,1,225,8|0
296,64,247010,1,4
352,64,247193,1,0
400,64,247376,1,4
400,120,247559,1,0
400,168,247742,1,6
252,200,248108,5,0
252,199,248291,1,4
387,194,248656,1,0
387,194,248839,1,4
318,77,249205,5,4
272,168,249571,1,0
176,120,249937,1,4
112,64,252864,5,4
216,64,253230,2,0,B|248:144|344:168,1,150,0|8
168,304,253961,5,0
88,232,254144,1,0
192,232,254327,1,2
120,160,254510,1,0
224,160,254693,5,0
152,88,254876,1,0
256,88,255059,1,8
256,88,255425,1,0
456,152,255791,5,4
328,320,256156,1,0
160,192,256522,1,8
328,72,256888,5,0
296,112,257071,1,0
256,144,257254,2,0,B|152:144,1,75,2|0
152,192,257620,6,0,B|272:224|352:160,1,150,0|8
264,56,258352,5,0
320,56,258535,1,0
376,56,258717,2,0,L|431:56|467:56,2,75,4|0|8
224,56,259815,1,0
127,192,260181,6,0,L|51:192,2,75,0|0|8
277,192,261278,1,0
381,299,261644,6,0,L|431:227|409:147,2,150,4|0|8
230,299,262742,5,0
128,264,262925,1,0
72,176,263108,1,8
280,224,263474,1,0
200,160,263656,1,0
136,80,263839,1,8
344,88,264205,1,0
432,152,264388,1,0
368,232,264571,6,0,L|338:183|301:249|272:185|136:184,1,300,2|0
72,184,265120,1,0
120,96,265303,1,8
224,56,265486,1,0
328,72,265669,1,8
408,144,265852,1,0
408,144,266035,1,0
216,280,266400,6,0,B|288:216|368:296,1,150
416,200,266766,1,8
320,168,266949,1,0
216,192,267132,1,8
128,248,267315,2,0,B|48:248,2,75
168,152,267681,2,0,B|120:96|32:72,2,150
248,216,268230,5,0
408,104,268596,1,0
336,280,268961,6,2,L|488:280,2,150
144,280,270059,1,8
240,280,270242,1,0
237,181,270425,6,0,L|177:179|178:116|323:115,1,240,2|8
297,115,271522,5,2
297,115,271705,1,0
297,115,271888,2,0,L|259:144|326:184|297:214|298:284,1,209.99999499321,8|8
297,256,272986,5,2
297,256,273169,1,0
298,256,273352,2,8,B|236:271|183:261|154:232|133:184,1,180.000004291535
142,201,274449,5,2
141,201,274632,1,0
142,201,274815,2,0,B|145:103|236:72|308:82,1,225,8|0
299,81,276278,1,0
421,137,277010,5,0
420,138,277376,2,0,B|469:217|391:285,1,150,2|0
352,228,278291,2,2,B|321:252|276:256,1,75
276,188,278839,2,0,B|244:185|209:225,3,75,2|0|0|10
146,239,280120,2,0,B|135:186|157:153,2,75
146,240,281035,1,8
212,321,281400,5,2
272,232,281766,1,0
376,232,282132,2,0,B|459:184|467:83,2,150,0|8|2
272,232,283961,5,0
184,288,284327,2,0,B|120:240|128:128,1,150,8|0
144,48,285425,1,0
208,136,285791,2,0,B|232:208|288:264,1,150,8|0
360,184,286888,1,0
80,168,287254,6,0,B|112:113|162:116,1,75,8|0
224,64,287986,2,0,L|321:38|411:77|440:125,1,225,2|0
328,144,289449,2,0,B|400:192,1,75
392,240,289998,1,0
392,296,290181,1,8
280,288,290547,5,0
280,288,290913,2,0,L|186:288,1,75,2|0
101,268,291644,1,8
152,176,292010,1,0
152,176,292376,2,0,L|215:212|289:176,2,150,0|8|0
155,71,294205,1,0
260,76,294571,1,8
365,79,294937,2,0,L|316:150|379:192|321:237,1,225,0|4
300,288,299693,5,4
300,288,300059,1,0
300,288,300242,1,0
300,288,300425,2,0,C|421:264|454:247,1,150,8|0
463,150,301156,1,0
463,150,301522,1,0
463,150,301705,1,0
463,150,301888,2,0,L|397:62|355:112|290:50|247:92,1,300,8|0
160,66,302986,6,0,L|54:66,2,75,0|0|8
319,203,303717,2,0,L|319:119,2,75
119,136,304449,5,0
119,136,304632,2,0,L|118:230|172:249,1,150,8|0
189,199,305181,2,0,L|261:234|351:192,1,150,8|4
392,285,305913,2,0,L|459:246|461:171|461:140,1,150,0|8
458,69,306644,1,0
248,84,307010,1,0
119,249,307376,1,0
248,287,307742,5,8
352,312,308108,2,0,B|448:248|464:96|400:32,1,300
291,49,309205,1,8
185,50,309571,1,0
159,95,309754,1,0
148,199,310120,1,0
120,243,310303,1,0
324,295,310669,6,0,C|369:230,2,75,8|0|0
280,320,311217,1,0
229,339,311400,1,4
230,248,311766,1,0
267,211,311949,1,0
302,172,312132,1,8
333,72,312498,1,0
282,59,312681,1,0
230,67,312864,1,0
138,118,313230,2,0,C|62:81,2,75,0|0|8
222,181,313961,1,0
387,51,314327,6,0,B|436:129|387:211,1,150
185,195,315059,2,0,B|118:144|177:47,1,150,8|0
359,151,315791,2,0,B|359:236|273:292,1,150
96,310,316522,5,8
121,264,316705,1,0
150,220,316888,2,8,C|213:126,1,75,0|8
224,116,317254,1,4
329,123,317620,6,0,L|401:89|490:149,2,150,0|8|0
330,228,318717,1,0
330,281,318900,1,0
331,334,319083,1,0
226,333,319449,2,0,L|225:172,1,150,8|0
46,156,320181,6,0,C|257:83|470:156,1,450,4|0
434,254,321644,5,8
414,150,321827,1,0
326,208,322010,1,0
315,103,322193,1,8
231,166,322376,2,0,C|114:167,1,75,0|0
100,76,322742,2,0,C|47:131,1,75,0|8
90,226,323108,1,4
90,226,323474,1,0
286,296,323839,5,8
403,122,324205,1,0
200,67,324571,2,0,C|114:83|30:172,2,150,0|0|8
366,197,325669,2,0,C|366:268|299:331,1,150,0|4
101,297,326400,1,0
217,122,326766,1,8
426,104,327132,1,0
426,104,327315,1,0
426,104,327498,1,8
426,104,327864,1,8
391,303,328230,5,0
288,312,328596,1,0
182,317,328961,2,0,B|112:249|80:209|59:147|65:32,1,300,4|8
120,48,329876,1,0
168,56,330059,2,0,B|133:105|136:144|184:208,1,150,0|0
280,192,330791,1,0
191,40,331156,6,0,B|146:125,1,75,8|0
253,66,331522,2,0,B|208:161,1,75,0|0
317,90,331888,2,0,B|282:173,1,75,0|0
366,329,332254,6,0,B|400:257,1,75,0|0
301,302,332620,2,0,B|345:214,1,75,8|0
236,272,332986,2,0,B|282:183,1,75,8|0
210,119,333352,6,0,B|273:63,1,75
210,119,333717,2,0,B|153:42,1,75
210,119,334083,2,0,B|117:196,1,75,8|0
210,119,334449,2,0,B|266:188,2,75,8|0|4
53,259,335181,5,0
129,331,335547,1,8
233,320,335913,1,0
129,331,336278,2,0,B|171:245|101:194,1,150
73,154,336827,1,0
66,102,337010,2,0,B|120:55|207:62,1,150,8|0
256,64,337559,1,0
311,75,337742,1,4
390,144,338108,1,0
405,194,338291,1,0
415,246,338474,1,8
342,322,338839,2,0,B|256:334|182:296,2,150
303,122,339937,5,8
303,122,340120,1,8
204,87,340486,1,8
204,87,340669,2,0,B|42:86,1,150,4|0
59,191,341400,2,0,B|151:157|202:218,1,150
169,257,341949,2,0,B|238:323|340:239,1,150,8|8
276,220,342498,2,0,B|329:162|419:186,1,150,0|0
415,79,343230,1,0
108,57,343596,5,4
316,80,343961,1,8
128,175,344327,1,0
330,232,344693,1,8
130,296,345059,1,8
258,129,345425,1,0
257,129,345791,5,0
257,129,346156,1,8
259,181,346339,1,0
259,234,346522,1,4
327,314,346888,2,0,B|381:241|385:161,1,150,0|0
200,104,347620,5,0
200,104,347803,1,0
200,104,347986,2,0,B|272:96|344:48|464:104,1,225,4|0
256,192,349449,12,0,353108
