osu file format v9

[General]
AudioFilename: Septet for Sakuya.mp3
AudioLeadIn: 0
PreviewTime: 79453
Countdown: 0
SampleSet: Soft
StackLeniency: 0.7
Mode: 0
LetterboxInBreaks: 0
SkinPreference:Default

[Editor]
Bookmarks: 63,39575,40307,43965,127014,203112,229453,230551,275551,281404
DistanceSpacing: 1.4
BeatDivisor: 4
GridSize: 8

[Metadata]
Title:Septet for Sakuya
Artist:J&B
Creator:pete2528
Version:Easy
Source:Touhou
Tags:Septette the Dead Princess Naki oujo no tame no Remilia Scarlet

[Difficulty]
HPDrainRate:3
CircleSize:3
OverallDifficulty:2
ApproachRate:2
SliderMultiplier:0.8
SliderTickRate:1

[Events]
//Background and Video events
0,0,"BG.jpg"
//Break Periods
2,127209,130206
2,226722,227157
2,264770,268865
//Storyboard Layer 0 (Background)
//Storyboard Layer 1 (Fail)
//Storyboard Layer 2 (Pass)
//Storyboard Layer 3 (Foreground)
//Storyboard Sound Samples
//Background Colour Transformations
3,100,163,162,255

[TimingPoints]
1157,731.707317073171,4,2,0,32,1,0
8474,-100,4,2,0,70,0,0
10486,-100,4,2,1,71,0,0
40303,-100,4,2,0,71,0,0
79449,-100,4,2,0,81,0,1
89510,-100,4,2,1,80,0,1
89876,-100,4,2,0,80,0,1
93900,-100,4,2,1,80,0,1
94266,-100,4,2,0,80,0,1
127010,-100,4,2,0,80,0,0
179693,-100,4,2,0,80,0,1
226522,-100,4,2,0,80,0,0
258535,-100,4,2,0,51,0,0
258900,-100,4,2,0,73,0,0
275547,-100,4,2,0,32,0,0
279754,-100,4,2,1,31,0,0
280120,-100,4,2,0,38,0,0
284327,-100,4,2,1,38,0,0
284693,-100,4,2,0,38,0,0
298961,-100,4,2,0,80,0,1
347986,-200,4,2,0,80,0,1
349266,-100,4,2,0,48,0,1
355120,-100,4,2,0,9,0,0

[Colours]
Combo1 : 0,128,128
Combo2 : 255,128,0
Combo3 : 179,0,0

[HitObjects]
457,231,4815,1,0
383,315,5547,1,0
306,233,6278,1,0
224,320,7010,6,0,B|128:320,1,80
88,216,8474,1,0
88,216,9205,1,0
88,96,9937,6,0,B|145:72|216:96,1,120,2|0
206,156,11400,2,0,B|172:141|117:160,1,80,2|8
126,216,12498,1,0
127,276,12864,2,0,B|186:346,1,80,2|8
238,342,13961,1,0
352,320,14693,6,0,B|353:267,2,40,2|0|0
408,320,15791,2,2,B|480:232|408:176,1,160,2|2
328,248,17986,1,8
272,248,18352,1,0
272,192,18717,2,2,B|201:228|104:192,1,160,2|0
120,144,20547,5,0
120,88,20913,2,0,B|168:88,1,40,8|0
216,88,21644,1,2
328,88,22376,2,8,B|384:88,1,40,8|8
328,192,23474,5,0
288,232,23839,2,0,B|288:288,1,40,2|0
332,313,24571,2,0,B|413:275|429:178,1,160,2|0
432,128,26400,2,0,B|480:128,2,40,0|8|0
432,64,27498,2,0,B|336:64,3,80,2|8|2|8
296,40,30059,5,0
248,80,30425,2,0,B|177:52|72:80,1,160,2|0
88,136,32254,1,0
112,192,32620,1,0
63,220,32986,1,0
56,280,33352,6,8,B|144:280,2,80,2|8|2
56,344,35181,1,0
112,344,35547,2,0,B|208:344,3,80,0|2|8|2
200,288,38108,1,0
264,288,38474,1,0
320,288,38839,1,0
376,288,39205,6,0,L|457:286|457:206|372:204,1,240,2|8
375,148,41766,2,0,L|376:56|254:57,1,200,0|8
216,56,43961,6,0,B|216:100,2,40,0|0|8
160,56,45059,2,0,L|160:173|112:173,1,160,4|2
138,261,46888,6,0,B|186:261,2,40,8|0|0
140,321,47986,2,0,B|218:356|308:321,1,160,4|8
393,255,50181,1,0
391,134,50913,1,4
292,203,51644,5,2
248,168,52010,2,0,C|220:148|268:100,1,80,0|2
256,56,53108,1,8
200,56,53474,2,0,B|152:56,1,40,0|6
82,155,54571,1,0
112,272,55303,1,2
224,240,56035,5,8
240,296,56400,2,0,B|297:290,5,40,0|4|0|8|0|2
368,280,58778,6,0,L|392:224,1,60
416,168,59693,2,0,B|464:152,4,40,8|0|2|0|8
352,64,61888,5,0
320,176,62620,2,0,B|281:161|215:200|152:176,1,160,12|2
240,272,64815,2,0,B|156:265|81:318,1,160,0|8
80,192,67010,1,8
80,72,67742,6,0,B|136:72,1,40,8|0
184,72,68474,2,0,L|241:72,1,40
288,72,69205,1,8
352,72,69571,2,0,L|351:124,1,40
440,136,70486,6,0,B|442:202,1,60
440,256,71400,2,0,B|384:256,4,40,2|0|8|0|0
320,280,73413,6,0,B|320:222|259:200,1,100,2|4
160,224,75059,1,0
160,224,75425,1,0
160,224,75791,1,0
64,168,76522,2,0,B|92:75,1,80,2|4
198,100,77986,1,8
309,98,78717,1,8
384,176,79449,5,0
334,210,79815,1,0
283,243,80181,1,4
200,152,80913,6,0,B|242:141|288:152,1,80,8|0
200,240,82376,2,0,B|238:224|288:240,1,80,2|0
224,344,83839,2,0,B|256:312,2,40,8|0|8
120,280,85303,5,0
80,232,85669,1,0
96,176,86035,1,6
208,208,86766,1,8
96,176,87498,1,0
208,208,88230,2,0,B|248:88|448:304|432:80,1,320,2|2
384,56,91522,5,0
328,80,91888,2,0,B|240:80,1,80,4|8
248,80,92986,1,0
248,80,93352,2,0,L|297:145|255:224,1,160,2|0
144,216,95547,2,0,L|97:215,2,40,0|0|2
184,104,97010,5,2
232,136,97376,1,0
280,168,97742,1,4
360,80,98474,5,0
440,168,99205,1,0
360,256,99937,1,8
256,192,100669,12,4,103596
154,274,104327,6,0,B|210:274,1,40,8|0
221,220,105059,2,0,B|269:220,1,40,2|0
298,173,105791,2,0,B|394:173,3,80,8|0|8|0
423,283,108717,5,2
362,281,109083,1,0
301,281,109449,1,4
182,262,110181,2,0,B|141:176,1,80,8|0
259,187,111644,1,8
256,192,112010,12,0,113839
289,120,114571,6,0,B|253:146|193:128,2,80,2|4|8
408,96,116766,2,0,B|429:133|408:192,2,80,2|0|6
304,160,118961,1,8
200,224,119693,1,8
100,157,120425,5,2
133,206,120791,1,0
174,249,121157,1,4
224,281,121522,1,0
279,303,121888,1,2
337,317,122254,1,0
397,318,122620,1,0
441,206,123352,5,8
322,225,124083,2,2,B|133:286|61:85,1,320
76,248,131766,6,0,B|116:232,2,40
100,298,132864,2,0,L|190:260,1,80,6|8
232,253,133961,1,0
288,252,134327,1,2
415,262,135059,5,8
416,200,135425,1,0
416,141,135791,1,2
304,104,136522,2,0,C|224:72,1,80,0|2
168,72,137620,2,0,B|168:120,3,40,0|0|0|2
176,232,139449,5,0
232,232,139815,1,0
232,288,140181,2,0,B|136:288,1,80,2|0
92,289,141278,2,0,L|92:154|167:154,1,200,0|2
160,94,143474,6,0,L|294:94,1,120,0|6
279,214,145303,2,0,C|332:214,1,40,0|2
359,100,146400,5,0
410,131,146766,1,0
443,181,147132,1,0
447,240,147498,1,6
352,313,148230,1,0
291,313,148596,1,2
179,309,149327,6,2,B|69:286|93:152,1,200
48,120,151522,1,0
92,85,151888,2,0,B|136:63|185:83,1,80,2|0
225,75,152986,2,0,L|276:74,1,40,0|4
377,73,154083,1,8
380,184,154815,1,8
325,303,155547,6,0,B|373:303,2,40,2|0|4
275,269,156644,2,0,C|218:269,1,40,0|2
185,303,157376,2,0,B|128:304,1,40
174,218,158291,6,0,B|231:181,1,60
216,125,159205,2,0,B|264:95,1,40,2|0
303,131,159937,2,0,B|401:73|444:169,1,160,2|0
441,213,161766,1,8
443,268,162132,6,0,B|347:268,1,80,4|2
257,340,163596,2,0,B|257:254,1,80,4|2
137,255,165059,2,0,C|137:157,1,80,0|2
85,66,166522,1,2
85,66,167254,6,0,B|136:66,3,40,2|0|4|0
184,70,168717,2,0,C|236:70,1,40,2|0
284,73,169449,2,0,C|333:73,3,40,2|0|0|0
324,133,170913,5,6
291,183,171278,2,0,B|240:183,1,40,0|2
214,230,172010,2,0,B|158:230,1,40,0|2
83,229,172925,6,0,B|83:158,1,60
83,108,173839,2,0,B|168:71,2,80,4|0|2
153,205,176035,5,0
115,318,176766,2,0,B|213:320,1,80,8|0
312,292,178230,2,0,L|312:339,4,40,8|8|8|0|4
415,230,180425,5,8
322,153,181156,1,2
231,231,181888,1,8
256,192,182620,12,8,184815
397,276,185547,5,4
376,157,186278,1,0
290,72,187010,2,2,B|122:72,1,160
65,173,189205,2,0,B|65:269,1,80,0|2
165,318,190669,5,0
208,288,191035,1,0
264,288,191400,1,4
368,240,192132,1,0
416,136,192864,1,2
318,72,193596,5,0
276,115,193961,1,0
233,157,194327,1,4
152,248,195059,1,0
152,248,195791,1,8
152,248,196522,6,0,B|240:264|304:184,2,160,2|0|8
256,192,200181,12,0,203108
164,53,203839,6,0,B|252:53,2,80,8|0|2
103,156,206035,2,0,B|202:156,2,80,4|0|8
57,267,208230,6,0,B|145:267,1,80,2|4
251,231,209693,1,2
156,156,210425,1,8
72,70,211156,2,0,B|144:112|224:48|320:70,1,240,0|2
384,160,214083,5,2
383,160,214449,1,0
384,160,214815,2,0,B|288:160,1,80,4|0
264,272,216278,2,0,B|176:272,1,80,2|0
104,184,217742,1,4
104,64,218474,6,8,B|48:50,4,40
160,80,220303,2,0,L|187:112,1,40,2|4
224,160,221035,2,0,B|253:199,1,40
272,248,221766,2,0,B|206:247|157:307,1,120,0|8
256,192,223596,12,0,226522
272,296,228717,5,0
216,304,229083,1,0
160,312,229449,1,2
120,264,229815,2,0,B|152:224,3,40,0|2|0|2
120,176,231278,2,0,B|88:136,2,40,0|2|0
176,160,232376,6,0,B|256:152|304:56,1,160,0|0
394,138,234571,2,0,C|396:178|362:210|362:210,1,80,0|4
272,278,236035,2,0,C|231:288|176:278,2,80,2|0|2
360,197,238230,2,0,C|393:178|414:132,1,80,4|0
305,82,239693,5,0
424,69,240425,1,2
423,188,241156,2,0,B|491:261|423:338,1,160
308,331,243352,1,2
188,337,244083,6,0,B|104:328|170:254|115:210,1,160
106,92,246278,2,0,B|194:92,2,80,2|4|0
99,151,248108,2,0,L|99:209|134:209,1,80,2|0
178,227,249205,5,0
256,135,249937,1,4
329,229,250669,2,0,B|329:285,2,40,2|0|0
426,156,252132,6,0,B|385:136|366:86,1,80,2|4
258,138,253596,1,0
162,210,254327,1,2
272,216,255059,5,0
272,160,255425,1,0
272,104,255791,1,4
160,104,256522,2,0,B|117:94|64:104,1,80,2|0
76,224,257986,2,0,B|62:266|92:304,1,80,2|4
211,305,259449,5,8
319,253,260181,2,0,B|319:208,2,40,2|0|0
428,302,261644,2,0,B|388:246|452:206|412:134,2,160,6|0|4
392,80,270425,6,0,B|224:80,1,160
144,152,272620,1,8
80,248,273352,2,0,B|248:248,1,160,0|2
440,72,275547,6,0,B|392:72,1,40,0|0
339,72,276278,2,0,B|300:84|251:72,1,80,2|0
192,72,277376,2,0,B|144:80,1,40,0|0
96,184,278474,5,0
96,240,278839,1,0
96,296,279205,2,0,B|175:307|264:296,1,160,0|0
255,184,281400,6,0,B|199:184,2,40,0|0|0
365,136,282864,1,8
404,181,283230,1,0
360,224,283596,2,0,L|237:222|156:244|105:233,1,240,0|2
192,136,286522,1,0
96,56,287254,6,0,B|96:104,1,40
96,160,287986,2,0,L|95:199|136:200,1,80,0|8
199,200,289083,1,0
258,197,289449,2,0,B|258:109,2,80,2|0|0
168,120,291644,1,8
168,240,292376,1,8
88,336,293108,6,0,B|136:336,1,40,2|0
184,336,293839,2,0,B|232:336,1,40,0|0
288,336,294571,1,0
352,336,294937,2,0,B|411:305|426:227,1,120,2|0
416,120,296766,6,0,L|368:96|312:96|256:72,1,160,2|0
256,192,298961,5,0
208,160,299327,1,0
160,128,299693,2,0,B|91:75,2,80,4|8|0
160,248,301888,2,0,B|72:248,1,80,8|0
80,128,303352,2,8,B|128:128,2,40,8|0|8
184,64,304815,6,0,B|232:64,1,40,8|0
224,128,305547,1,4
304,216,306278,1,8
368,216,306644,2,0,B|368:168,1,40,0|2
256,192,307742,12,0,309937
258,59,310669,6,0,B|257:148,1,80,2|4
255,259,312132,1,8
255,138,312864,1,2
255,258,313596,1,8
255,138,314327,1,4
356,193,315059,1,8
356,193,315425,1,0
356,193,315791,1,0
437,105,316522,6,0,B|464:64,2,40,8|0|4
398,145,317620,1,0
360,186,317986,1,2
314,218,318352,2,0,B|226:258|154:210,1,160
224,64,320181,6,0,B|272:56|320:80,3,80,0|8|0|8
352,104,322742,1,0
400,136,323108,2,0,B|432:168|448:216,2,80,4|8|2
360,248,325303,2,0,B|320:256|272:248,1,80,0|4
160,248,326766,1,8
240,160,327498,1,0
120,160,328230,5,10
120,104,328596,1,0
120,48,328961,2,0,B|208:48,1,80,4|8
252,70,330059,2,0,B|289:94,1,40,0|2
256,192,331156,12,0,334083
116,245,334815,6,0,B|116:293,2,40,4|0|10
171,138,336278,6,0,B|172:79,2,40,2|0|8
291,134,337742,2,0,B|336:112|384:128,2,80,4|8|2
464,248,339937,6,0,B|464:304,1,40,2|0
403,288,340669,1,4
342,287,341035,1,0
282,288,341400,2,0,B|234:288,2,40,8|0|2
281,167,342864,1,8
277,47,343596,2,0,B|188:14|145:112,1,160,0|2
112,220,345791,5,2
141,167,346157,1,0
187,129,346522,1,4
240,102,346888,1,2
300,102,347254,1,0
351,133,347620,1,0
393,175,347986,6,0,B|440:256,1,80,4|0
256,192,349632,12,0,355120
