osu file format v13

[General]
AudioFilename: Izzy Bizu - White Tiger (FlicFlac Remix).mp3
AudioLeadIn: 0
PreviewTime: -1
Countdown: 0
SampleSet: Soft
StackLeniency: 0.7
Mode: 0
LetterboxInBreaks: 1
SkinPreference:White Tiger officiel
WidescreenStoryboard: 0

[Editor]
DistanceSpacing: 1
BeatDivisor: 4
GridSize: 4
TimelineZoom: 1

[Metadata]
Title:White Tiger
TitleUnicode:White Tiger
Artist:Izzu Bizu (FlicFlac Remix)
ArtistUnicode:Izzu Bizu (FlicFlac Remix)
Creator:kiva98
Version:Normal
Source:
Tags:
BeatmapID:422130
BeatmapSetID:174935

[Difficulty]
HPDrainRate:5
CircleSize:4
OverallDifficulty:5
ApproachRate:5
SliderMultiplier:1.4
SliderTickRate:1

[Events]
//Background and Video events
0,0,"Steel_Angel_by_SukiAkemi.jpg",0,0
//Break Periods
2,152300,166900
//Storyboard Layer 0 (Background)
//Storyboard Layer 1 (Fail)
//Storyboard Layer 2 (Pass)
//Storyboard Layer 3 (Foreground)
//Storyboard Sound Samples
//Background Colour Transformations
3,100,163,162,255

[TimingPoints]
100,500,4,2,0,100,1,0
49715,-100,4,2,0,100,0,0
64152,-100,4,2,0,100,0,1
87715,-100,4,2,0,100,0,0
112526,-100,4,2,0,100,0,1
128527,-100,4,2,0,100,0,0
140527,-100,4,2,0,100,0,0
167725,-100,4,2,0,100,0,1
192131,-100,4,2,0,100,0,0
214475,-142.857142857143,4,2,0,100,0,0
217248,-100,4,2,0,100,0,0

[Colours]
Combo1 : 181,199,204
Combo2 : 72,130,126
Combo3 : 159,142,196
Combo4 : 145,49,47

[HitObjects]
380,216,49600,6,0,P|328:108|180:108,2,280
256,196,52090,5,0,0:0:0:0:
336,264,52590,1,0,0:0:0:0:
356,180,53090,2,0,L|368:104,2,70
336,264,54090,5,0,0:0:0:0:
232,264,54590,1,0,0:0:0:0:
232,176,55090,2,0,B|280:140|280:140|364:140,1,140
396,64,56090,5,0,0:0:0:0:
284,64,56590,1,0,0:0:0:0:
196,68,57090,2,0,L|120:68,2,70
192,160,58090,6,0,L|192:304,1,140
264,300,58840,2,0,L|264:160,1,140
336,160,59590,2,0,L|336:308,1,140
404,276,60590,5,0,0:0:0:0:
296,276,61090,1,0,0:0:0:0:
256,192,61590,12,0,63590,0:0:0:0:
256,192,64090,5,0,0:0:0:0:
328,192,64590,2,0,L|472:192,1,140
324,120,65590,2,0,L|464:120,1,140
324,48,66590,2,0,L|468:48,3,140
464,136,68590,6,0,P|364:180|340:168,1,140
396,104,69590,2,0,P|284:108|272:128,2,140
400,180,71090,5,0,0:0:0:0:
400,288,71590,1,0,0:0:0:0:
308,284,72100,5,0,0:0:0:0:
308,284,72350,1,0,0:0:0:0:
308,284,72590,1,0,0:0:0:0:
308,212,72840,2,0,L|308:132,2,70
164,288,73840,5,0,0:0:0:0:
72,224,74340,2,0,P|60:156|80:80,2,140
264,312,75840,5,0,0:0:0:0:
264,312,76090,1,0,0:0:0:0:
400,312,76590,5,0,0:0:0:0:
400,312,76902,1,0,0:0:0:0:
480,248,77340,6,0,P|504:184|480:104,2,140
360,320,78840,5,0,0:0:0:0:
288,308,79090,1,0,0:0:0:0:
216,272,79340,1,0,0:0:0:0:
168,208,79590,1,0,0:0:0:0:
232,72,80590,5,0,0:0:0:0:
320,72,80840,1,0,0:0:0:0:
328,208,81340,2,0,L|328:288,2,70
256,264,82590,5,0,0:0:0:0:
256,264,83090,1,0,0:0:0:0:
256,264,83590,2,0,L|404:264,1,140
464,184,84590,6,0,P|468:92|428:56,3,140
256,192,88090,5,0,0:0:0:0:
328,160,88340,2,0,L|328:84,2,70
328,228,89090,2,0,L|328:304,2,70
364,192,89840,2,0,L|440:192,2,70
296,192,90590,2,0,L|220:192,2,70
476,208,91590,6,0,P|488:332|356:344,1,280
176,276,93090,1,0,0:0:0:0:
124,208,93465,1,0,0:0:0:0:
192,160,93840,2,0,L|320:84,1,140
432,80,94840,5,0,0:0:0:0:
472,144,95090,1,0,0:0:0:0:
464,224,95340,1,0,0:0:0:0:
424,288,95590,1,0,0:0:0:0:
304,308,96090,6,0,L|148:308,1,140
136,224,97090,2,0,B|140:120|140:120|240:84,1,210
284,72,98090,1,0,0:0:0:0:
372,72,98590,6,0,L|372:152,1,70
372,192,99090,2,0,L|372:268,1,70
324,288,99590,2,0,L|244:288,1,70
84,248,100340,6,0,P|76:168|100:104,3,140
256,192,102340,12,0,103340,0:0:0:0:
144,152,103840,5,0,0:0:0:0:
208,96,104090,1,0,0:0:0:0:
288,92,104340,1,0,0:0:0:0:
368,116,104590,1,0,0:0:0:0:
400,184,104850,6,0,L|388:264,1,70
328,304,105340,2,0,L|244:304,1,70
188,276,105840,2,0,L|136:208,1,70
112,152,106340,2,0,L|176:100,1,70
236,92,106840,2,0,L|312:92,1,70
368,124,107340,6,0,P|436:208|436:244,3,140
368,256,109090,6,0,L|216:256,1,140
228,184,109840,2,0,L|376:184,1,140
436,176,110590,5,0,0:0:0:0:
456,104,110840,1,0,0:0:0:0:
404,40,111090,1,0,0:0:0:0:
316,36,111350,1,0,0:0:0:0:
236,40,111600,2,0,B|192:40|192:40|168:88,1,70
148,140,112090,5,0,0:0:0:0:
148,140,112340,1,0,0:0:0:0:
224,188,112590,1,0,0:0:0:0:
224,188,112840,1,0,0:0:0:0:
300,240,113090,2,0,L|364:280,2,70
240,232,113850,5,0,0:0:0:0:
196,280,114090,2,0,P|132:292|132:228,1,140
168,204,114850,5,0,0:0:0:0:
208,176,115090,2,0,P|192:104|208:88,2,105
276,244,116100,1,0,0:0:0:0:
276,244,116340,1,0,0:0:0:0:
276,244,116590,1,0,0:0:0:0:
280,52,117090,6,0,L|424:52,1,140
424,124,117840,2,0,L|284:124,1,140
264,260,118840,5,0,0:0:0:0:
320,260,119090,1,0,0:0:0:0:
372,260,119340,2,0,L|456:260,2,70
216,280,120340,5,0,0:0:0:0:
176,240,120590,1,0,0:0:0:0:
160,188,120840,1,0,0:0:0:0:
156,120,121090,6,0,L|296:120,1,140
296,48,121840,2,0,L|156:48,1,140
128,168,122840,5,0,0:0:0:0:
128,168,123090,1,0,0:0:0:0:
128,168,123340,1,0,0:0:0:0:
256,192,123840,12,0,126090,0:0:0:0:
260,192,126840,5,0,0:0:0:0:
324,144,127090,1,0,0:0:0:0:
308,56,127340,1,0,0:0:0:0:
224,44,127590,1,0,0:0:0:0:
96,192,128590,6,0,P|104:264|168:288,1,140
192,216,129590,2,0,P|240:260|232:336,2,140
192,216,131090,1,0,0:0:0:0:
192,216,131590,1,0,0:0:0:0:
192,216,132090,2,0,L|344:216,1,140
192,120,133090,6,0,P|292:40|388:132,1,280
408,244,134850,6,0,L|408:392,1,140
336,380,135590,2,0,L|336:232,1,140
264,244,136340,2,0,L|264:392,1,140
256,192,136912,12,0,138100,0:0:0:0:
256,188,140100,5,0,0:0:0:0:
344,188,140600,1,0,0:0:0:0:
348,272,141100,2,0,L|348:372,2,70
248,268,142100,5,0,0:0:0:0:
160,268,142600,1,0,0:0:0:0:
156,176,143100,2,0,L|156:96,2,70
168,288,144100,6,0,B|308:288|308:288|400:164,2,280
96,236,146600,5,0,0:0:0:0:
164,176,147100,1,0,0:0:0:0:
248,176,147600,1,0,0:0:0:0:
260,92,148100,2,0,B|280:64|280:64|348:68,2,70
312,164,149100,5,0,0:0:0:0:
316,240,149600,1,0,0:0:0:0:
316,312,150100,2,0,L|316:384,2,70
256,192,151100,12,0,152100,0:0:0:0:
252,64,168100,6,0,L|424:64,1,140
448,136,169100,2,0,L|296:136,1,140
252,212,170100,2,0,L|392:212,1,140
436,288,171100,2,0,L|292:288,2,140
424,212,172600,6,0,P|424:176|380:72,1,140
312,84,173600,2,0,P|308:148|264:216,1,140
144,224,174600,5,0,0:0:0:0:
144,224,174850,1,0,0:0:0:0:
144,152,175100,2,0,L|144:56,2,70
156,276,175850,5,0,0:0:0:0:
200,308,176100,1,0,0:0:0:0:
252,312,176350,1,0,0:0:0:0:
304,312,176600,2,0,L|448:312,1,140
444,244,177350,6,0,B|444:152|444:152|388:100,4,140
348,92,179850,6,0,L|184:92,1,140
164,92,180600,2,0,L|24:92,2,140
216,104,181850,2,0,P|272:156|272:172,2,70
60,100,182850,5,0,0:0:0:0:
64,160,183100,1,0,0:0:0:0:
92,208,183350,1,0,0:0:0:0:
136,240,183600,1,0,0:0:0:0:
256,304,184100,6,0,L|412:304,1,140
424,232,185100,2,0,L|280:232,1,140
256,160,186100,2,0,L|412:160,3,140
408,88,188100,2,0,P|364:24|296:32,2,140
256,192,189600,12,0,191600,0:0:0:0:
256,192,192600,5,0,0:0:0:0:
312,192,192850,1,0,0:0:0:0:
368,192,193100,1,0,0:0:0:0:
472,264,193600,5,0,0:0:0:0:
416,264,193850,1,0,0:0:0:0:
360,264,194100,1,0,0:0:0:0:
272,332,194600,6,0,L|344:332,2,70
188,328,195600,6,0,L|188:180,1,140
192,104,196600,1,0,0:0:0:0:
192,104,197100,1,0,0:0:0:0:
192,104,197600,2,0,L|352:104,1,140,0|0,0:0|0:0,0:0:0:0:
412,148,198600,5,0,0:0:0:0:
412,148,199100,1,0,0:0:0:0:
412,148,199600,2,0,L|412:300,1,140
364,312,200350,6,0,L|276:356,1,70
88,184,201100,6,0,P|88:80|208:136,1,280
136,132,202350,1,0,0:0:0:0:
312,136,203100,6,0,P|428:92|404:216,1,280
384,148,204350,1,0,0:0:0:0:
264,288,207850,5,0,0:0:0:0:
208,288,208100,1,0,0:0:0:0:
156,288,208350,1,0,0:0:0:0:
112,260,208600,6,0,P|100:196|104:192,1,70
132,172,209100,2,0,L|200:144,1,70
252,136,209600,1,0,0:0:0:0:
308,136,209850,1,0,0:0:0:0:
356,136,210100,1,0,0:0:0:0:
412,160,210350,6,0,L|464:216,1,70
456,264,210850,2,0,L|416:332,1,70
380,344,211350,2,0,L|296:344,1,70
256,344,211850,2,0,P|172:316|156:252,2,140
264,276,213100,6,0,L|264:112,1,140
264,80,213850,1,0,0:0:0:0:
256,192,214600,12,0,218100,0:0:0:0:
