osu file format v14

[General]
AudioFilename: Responsibility Response.mp3
AudioLeadIn: 1500
PreviewTime: 46938
Countdown: 0
SampleSet: Normal
StackLeniency: 0.7
Mode: 0
LetterboxInBreaks: 0
WidescreenStoryboard: 1

[Editor]
Bookmarks: 528,5280,14785,24290,33795,38547,43300,48052,69438,78943,83696,88448,97953,102706,107458,111097,112211,133597,143102,157359,162112,166864,171617,179933,183498,204884,216468
DistanceSpacing: 0.9
BeatDivisor: 4
GridSize: 4
TimelineZoom: 0.8999999

[Metadata]
Title:Responsibility Response
TitleUnicode:Responsibility Response
Artist:Izumi Akazawa (CV. Madoka Yonezawa)
ArtistUnicode:赤沢泉美(CV.米澤 円)
Creator:Natsu
Version:Collab Advanced
Source:Another
Tags:Salsa tropical bakari P_A_N apaffy Euny gero Adoriano Spinesi Yohei Matsui Songs Party
BeatmapID:910030
BeatmapSetID:420677

[Difficulty]
HPDrainRate:5
CircleSize:3.5
OverallDifficulty:5
ApproachRate:6.5
SliderMultiplier:1.1
SliderTickRate:1

[Events]
//Background and Video events
0,0,"wallpaper-1935015 (1).jpg",0,0
//Break Periods
2,33995,37572
2,69638,77968
2,98153,101731
2,157559,161137
2,171817,178958
//Storyboard Layer 0 (Background)
//Storyboard Layer 1 (Fail)
//Storyboard Layer 2 (Pass)
//Storyboard Layer 3 (Foreground)
//Storyboard Sound Samples

[TimingPoints]
528,297.029702970297,4,1,1,40,1,0
1419,-100,4,1,2,40,0,0
1716,-100,4,1,1,40,0,0
2607,-100,4,1,2,40,0,0
2904,-100,4,1,1,40,0,0
3795,-100,4,1,2,40,0,0
4092,-100,4,1,1,40,0,0
5280,-100,4,1,1,50,0,0
7359,-100,4,1,2,50,0,0
7656,-100,4,1,1,50,0,0
8844,-100,4,1,2,60,0,0
10032,-100,4,1,1,50,0,0
23547,-100,4,1,2,40,0,0
24290,-100,4,1,1,50,0,0
33052,-100,4,1,2,35,0,0
33795,-100,4,1,1,50,0,0
45676,-100,4,1,1,60,0,0
48052,-100,4,1,1,60,0,1
57483,-100,4,1,1,60,0,0
57557,-100,4,1,1,60,0,1
68102,-100,4,1,2,50,0,1
69438,-100,4,1,1,50,0,0
87706,-100,4,1,2,30,0,0
88300,-100,4,1,1,50,0,0
97211,-100,4,1,2,30,0,0
97953,-100,4,1,1,50,0,0
109834,-100,4,1,1,60,0,0
112211,-100,4,1,1,60,0,1
120527,-100,4,1,1,60,0,1
121641,-100,4,1,1,60,0,0
121716,-100,4,1,1,60,0,1
132260,-100,4,1,2,50,0,1
133597,-100,4,1,1,50,0,0
141914,-100,4,1,1,60,0,0
143102,-100,4,1,1,50,0,0
147112,-100,4,1,2,30,0,0
147409,-100,4,1,1,50,0,0
156023,-100,4,1,1,50,0,0
156171,-100,4,1,1,10,0,0
157359,-100,4,1,1,50,0,0
162112,-100,4,1,1,50,0,0
169239,-100,4,1,1,60,0,0
170576,-100,4,1,2,30,0,0
171617,-100,4,1,2,40,0,0
179933,-100,4,1,1,50,0,0
183498,-100,4,1,1,60,0,1
191815,-100,4,1,1,60,0,1
192928,-100,4,1,1,60,0,0
193003,-100,4,1,1,60,0,1
203547,-100,4,1,2,50,0,1
203844,-100,4,1,2,50,0,1
204884,-100,4,1,1,50,0,0
208894,-100,4,1,2,30,0,0
209488,-100,4,1,1,50,0,0
210973,-100,4,1,2,30,0,0
211270,-100,4,1,1,50,0,0
215503,-100,4,1,1,10,0,0

[Colours]
Combo1 : 83,166,166
Combo2 : 182,182,109
Combo3 : 0,80,159
Combo4 : 147,0,0

[HitObjects]
56,344,528,6,0,P|40:288|64:232,1,110,2|2,0:0|0:0,0:0:0:0:
93,207,973,1,2,0:0:0:0:
168,271,1270,1,2,0:0:0:0:
235,198,1567,1,2,0:0:0:0:
318,251,1864,1,2,0:0:0:0:
387,180,2161,2,0,P|410:112|379:20,1,165,2|2,0:0|0:0,0:0:0:0:
298,76,2904,6,0,L|302:132,2,55,2|2|2,0:0|0:0|0:0,0:0:0:0:
250,64,3349,1,2,0:0:0:0:
164,114,3646,1,2,0:0:0:0:
96,40,3943,1,2,0:0:0:0:
18,101,4240,1,2,0:0:0:0:
18,101,4389,2,0,L|14:169,1,55,10|10,0:0|0:0,0:0:0:0:
16,205,4686,1,10,0:0:0:0:
205,262,5280,5,4,0:0:0:0:
353,256,5726,1,4,0:0:0:0:
274,378,6171,1,4,0:0:0:0:
186,332,6468,2,0,P|225:291|278:279,1,110,4|0,0:0|2:0,0:0:0:0:
286,230,6914,2,0,P|250:206|170:198,1,110,4|0,0:0|2:0,0:0:0:0:
136,206,7359,1,0,0:0:0:0:
90,118,7656,6,0,L|74:58,1,55,4|0,0:0|0:0,0:0:0:0:
166,23,8102,2,0,L|182:83,1,55,4|0,0:0|0:0,0:0:0:0:
256,139,8547,1,4,0:0:0:0:
340,87,8844,2,0,P|364:83|412:87,1,55,14|8,0:0|0:0,0:0:0:0:
448,167,9290,2,0,P|408:175|388:175,1,55,14|8,0:0|0:0,0:0:0:0:
233,59,10032,6,0,L|225:183,1,110,4|0,0:0|2:0,0:0:0:0:
179,185,10478,2,0,L|171:65,1,110,4|0,0:0|2:0,0:0:0:0:
170,25,10924,1,4,0:0:0:0:
267,41,11221,2,0,L|391:57,1,110,4|0,0:0|2:0,0:0:0:0:
400,97,11666,2,0,L|276:101,1,110,4|0,0:0|2:0,0:0:0:0:
240,104,12112,1,4,0:0:0:0:
144,128,12409,6,0,P|116:164|104:232,1,110,4|0,0:0|2:0,0:0:0:0:
135,263,12854,2,0,P|71:251|19:267,1,110,4|0,0:0|2:0,0:0:0:0:
12,309,13300,1,4,0:0:0:0:
292,328,14785,6,0,L|280:212,1,110,12|2,0:0|0:0,0:0:0:0:
311,179,15230,2,0,P|315:139|283:67,1,110,8|2,0:0|0:0,0:0:0:0:
196,42,15825,1,2,0:0:0:0:
196,42,15973,2,0,P|168:39|141:33,2,55,8|0|2,0:0|0:0|0:0,0:0:0:0:
179,139,16567,2,0,P|147:159|107:175,2,55,2|0|2,0:0|0:0|0:0,0:0:0:0:
271,174,17161,6,0,P|291:206|303:246,1,55,8|0,0:0|0:0,0:0:0:0:
329,316,17607,1,8,0:0:0:0:
230,309,17904,1,2,0:0:0:0:
138,347,18201,1,2,0:0:0:0:
138,347,18349,2,0,P|110:295|106:275,1,55,8|0,0:0|0:0,0:0:0:0:
78,262,18646,2,0,P|86:226|102:194,1,55,8|0,0:0|0:0,0:0:0:0:
116,165,18943,1,8,0:0:0:0:
60,82,19240,1,2,0:0:0:0:
148,37,19537,6,0,L|268:33,1,110,8|2,0:0|0:0,0:0:0:0:
339,89,20131,2,0,L|405:88,2,55,0|2|0,0:0|0:0|0:0,0:0:0:0:
271,161,20726,1,8,0:0:0:0:
255,258,21023,2,0,P|227:274|191:286,1,55,2|8,0:0|0:0,0:0:0:0:
126,223,21468,2,0,L|111:164,1,55,0|2,0:0|0:0,0:0:0:0:
210,162,21914,6,0,P|243:200|254:260,1,110,8|2,0:0|0:0,0:0:0:0:
225,297,22359,2,0,L|348:296,1,110,8|2,0:0|0:0,0:0:0:0:
428,328,22953,1,2,0:0:0:0:
428,328,23102,2,0,L|496:320,1,55,8|0,0:0|0:0,0:0:0:0:
495,273,23399,2,0,P|487:244|489:218,1,55,8|0,0:0|0:0,0:0:0:0:
498,170,23696,2,0,P|498:119|458:66,1,110,10|8,0:0|0:0,0:0:0:0:
375,112,24290,6,0,L|359:-12,1,110,12|2,0:0|0:0,0:0:0:0:
316,25,24735,2,0,L|308:145,1,110,8|2,0:0|0:0,0:0:0:0:
307,233,25329,1,2,0:0:0:0:
307,233,25478,2,0,P|275:241|231:245,1,55,8|0,0:0|0:0,0:0:0:0:
154,256,25924,1,8,0:0:0:0:
85,327,26221,1,0,0:0:0:0:
85,327,26369,2,0,L|142:356,1,55,2|0,0:0|0:0,0:0:0:0:
179,371,26666,5,8,0:0:0:0:
277,363,26963,1,2,0:0:0:0:
277,363,27112,2,0,L|341:362,1,55,8|0,0:0|0:0,0:0:0:0:
381,360,27409,2,0,P|370:309|386:255,1,110,2|2,0:0|0:0,0:0:0:0:
423,222,27854,1,8,0:0:0:0:
341,165,28151,1,8,0:0:0:0:
390,79,28448,1,8,0:0:0:0:
390,79,28597,2,0,L|370:15,2,55,0|2|0,0:0|0:0|0:0,0:0:0:0:
410,123,29042,6,0,P|442:151|512:160,1,110,8|2,0:0|0:0,0:0:0:0:
499,210,29488,2,0,P|471:242|451:318,1,110,8|2,0:0|0:0,0:0:0:0:
463,353,29933,1,0,0:0:0:0:
364,350,30230,2,0,L|232:342,1,110,8|2,0:0|0:0,0:0:0:0:
219,307,30676,2,0,L|343:291,1,110,8|0,0:0|0:0,0:0:0:0:
376,283,31122,1,2,0:0:0:0:
321,200,31419,6,0,P|313:160|329:88,1,110,8|2,0:0|0:0,0:0:0:0:
359,56,31864,1,8,0:0:0:0:
435,118,32161,1,2,0:0:0:0:
435,118,32310,2,0,P|431:154|439:182,1,55,0|2,0:0|0:0,0:0:0:0:
447,220,32607,1,8,0:0:0:0:
397,305,32904,1,8,0:0:0:0:
298,291,33201,1,2,0:0:0:0:
209,334,33498,2,0,P|181:342|149:346,1,55,2|0,0:0|0:0,0:0:0:0:
105,343,33795,5,6,0:0:0:0:
356,180,38547,6,0,L|352:308,1,110,6|0,0:0|0:0,0:0:0:0:
308,312,38993,2,0,P|300:332|292:372,1,55,6|0,0:0|0:0,0:0:0:0:
194,374,39438,2,0,P|178:350|150:326,1,55,8|0,0:0|0:0,0:0:0:0:
114,310,39735,2,0,L|118:190,1,110,6|0,0:0|0:0,0:0:0:0:
140,156,40181,2,0,P|180:168|256:152,1,110,6|0,0:0|0:0,0:0:0:0:
283,124,40627,1,8,0:0:0:0:
378,148,40924,6,0,P|398:176|410:212,1,55,6|0,0:0|0:0,0:0:0:0:
342,270,41369,2,0,L|319:218,1,55,6|0,0:0|0:0,0:0:0:0:
228,181,41815,2,0,P|224:206|236:249,1,55,8|0,0:0|0:0,0:0:0:0:
242,283,42112,1,2,0:0:0:0:
143,284,42409,2,0,P|115:316|95:380,2,110,2|2|2,0:0|0:0|0:0,0:0:0:0:
138,185,43300,6,0,P|118:165|102:137,1,55,12|0,0:0|0:0,0:0:0:0:
109,92,43597,2,0,L|176:93,1,55,2|8,0:0|0:0,0:0:0:0:
213,94,43894,1,2,0:0:0:0:
299,142,44191,1,2,0:0:0:0:
232,215,44488,2,0,P|224:247|220:275,1,55,10|0,0:0|0:0,0:0:0:0:
185,303,44785,2,0,P|157:283|125:275,1,55,2|8,0:0|0:0,0:0:0:0:
88,279,45082,1,2,0:0:0:0:
97,180,45379,1,2,0:0:0:0:
44,95,45676,5,14,0:0:0:0:
142,83,45973,1,12,0:0:0:0:
240,73,46270,1,12,0:0:0:0:
338,66,46567,1,12,0:0:0:0:
472,200,48052,6,0,P|448:232|328:280,1,165,6|8,0:0|0:0,0:0:0:0:
245,238,48795,2,0,L|211:293,1,55,2|8,0:0|0:0,0:0:0:0:
126,326,49240,1,2,0:0:0:0:
126,326,49389,2,0,P|86:326|18:378,2,110,2|8|0,0:0|0:0|0:0,0:0:0:0:
129,276,50131,2,0,L|130:209,1,55,8|0,0:0|0:0,0:0:0:0:
124,171,50428,6,0,P|160:195|240:207,1,110,6|0,0:0|0:0,0:0:0:0:
271,190,50874,1,8,0:0:0:0:
350,249,51171,2,0,L|346:317,2,55,0|8|0,0:0|0:0|0:0,0:0:0:0:
382,211,51617,2,0,L|374:91,1,110,2|8,0:0|0:0,0:0:0:0:
418,77,52062,2,0,L|450:127,1,55,0|8,0:0|0:0,0:0:0:0:
479,217,52508,1,8,0:0:0:0:
486,315,52805,6,0,P|442:319|370:359,1,110,6|0,0:0|0:0,0:0:0:0:
334,342,53250,2,0,P|298:330|222:342,1,110,8|2,0:0|0:0,0:0:0:0:
185,366,53696,1,8,0:0:0:0:
101,313,53993,2,0,P|97:285|105:241,1,55,8|2,0:0|0:0,0:0:0:0:
148,172,54438,1,8,0:0:0:0:
148,172,54587,2,0,L|220:160,1,55,2|0,0:0|0:0,0:0:0:0:
249,179,54884,2,0,L|313:187,1,55,8|0,0:0|0:0,0:0:0:0:
353,183,55181,6,0,P|377:139|377:59,1,110,6|0,0:0|0:0,0:0:0:0:
388,30,55627,2,0,P|344:42|280:30,1,110,8|0,0:0|0:0,0:0:0:0:
234,16,56072,1,8,0:0:0:0:
152,72,56369,1,6,0:0:0:0:
234,126,56666,1,6,0:0:0:0:
152,182,56963,1,6,0:0:0:0:
234,236,57260,1,6,0:0:0:0:
316,180,57557,6,0,P|360:168|428:172,1,110,6|2,0:0|0:0,0:0:0:0:
454,210,58003,1,8,0:0:0:0:
504,124,58300,1,2,0:0:0:0:
504,124,58448,2,0,P|504:96|508:60,1,55,8|2,0:0|0:0,0:0:0:0:
464,42,58745,2,0,L|344:43,1,110,8|0,0:0|0:0,0:0:0:0:
306,58,59191,2,0,P|317:107|306:171,1,110,8|0,0:0|0:0,0:0:0:0:
279,205,59636,1,8,0:0:0:0:
184,235,59933,6,0,P|144:247|80:307,1,110,6|0,0:0|0:0,0:0:0:0:
115,333,60379,2,0,L|243:325,1,110,8|0,0:0|0:0,0:0:0:0:
274,321,60825,1,8,0:0:0:0:
363,362,61122,2,0,P|407:350|459:306,1,110,8|8,0:0|0:0,0:0:0:0:
481,267,61567,1,2,0:0:0:0:
481,267,61716,2,0,P|473:243|473:199,1,55,8|2,0:0|0:0,0:0:0:0:
480,164,62013,1,8,0:0:0:0:
424,81,62310,6,0,P|396:101|308:105,1,110,6|0,0:0|0:0,0:0:0:0:
281,82,62755,2,0,L|293:210,1,110,8|2,0:0|0:0,0:0:0:0:
291,241,63201,1,8,0:0:0:0:
204,198,63498,2,0,L|128:182,1,55,6|2,0:0|0:0,0:0:0:0:
60,229,63943,2,0,L|-13:219,2,55,8|0|0,0:0|0:0|0:0,0:0:0:0:
71,277,64389,1,8,0:0:0:0:
132,354,64686,6,0,P|160:346|216:286,1,110,12|0,0:0|0:0,0:0:0:0:
251,256,65131,2,0,P|279:284|303:364,1,110,8|2,0:0|0:0,0:0:0:0:
351,360,65577,2,0,P|375:340|407:320,1,55,8|2,0:0|0:0,0:0:0:0:
444,329,65874,1,12,0:0:0:0:
428,231,66171,2,0,L|436:159,1,55,12|2,0:0|0:0,0:0:0:0:
395,145,66468,2,0,L|383:77,1,55,12|2,0:0|0:0,0:0:0:0:
369,43,66765,1,12,0:0:0:0:
272,66,67062,6,0,L|255:7,2,55,6|8|8,0:0|0:0|0:0,0:0:0:0:
264,115,67508,1,12,0:0:0:0:
325,192,67805,1,12,0:0:0:0:
232,227,68102,2,0,P|288:286|412:241,1,220,0|0,0:0|0:0,0:0:0:0:
425,202,68844,2,0,L|425:126,2,73.3333333333333,0|0|0,0:0|0:0|0:0,0:0:0:0:
468,252,69438,5,6,0:0:0:0:
80,304,78943,6,0,P|60:248|68:180,1,110,6|0,0:0|0:0,0:0:0:0:
100,164,79389,1,0,0:0:0:0:
188,208,79686,2,0,P|220:208|280:156,1,110
268,112,80131,1,6,0:0:0:0:
268,112,80428,1,6,0:0:0:0:
268,112,80726,1,6,0:0:0:0:
268,112,81023,1,6,0:0:0:0:
364,84,81320,6,0,L|380:212,1,110,6|0,0:0|0:0,0:0:0:0:
410,229,81765,1,0,0:0:0:0:
389,327,82062,2,0,P|357:303|285:287,1,110,0|0,0:0|0:0,0:0:0:0:
241,299,82508,1,6,0:0:0:0:
241,299,82805,1,6,0:0:0:0:
241,299,83102,1,6,0:0:0:0:
241,299,83399,1,6,0:0:0:0:
168,231,83696,6,0,P|148:263|150:338,1,110,12|2,0:0|0:0,0:0:0:0:
101,349,84141,2,0,P|69:341|29:257,1,110,8|2,0:0|0:0,0:0:0:0:
26,230,84587,2,0,P|46:198|58:166,1,55,0|2,0:0|0:0,0:0:0:0:
80,140,84884,1,8,0:0:0:0:
116,48,85181,1,2,0:0:0:0:
116,48,85329,2,0,L|248:36,1,110,8|0,0:0|0:0,0:0:0:0:
274,54,85775,1,2,0:0:0:0:
369,29,86072,5,8,0:0:0:0:
435,102,86369,2,0,L|437:172,1,55,2|8,0:0|0:0,0:0:0:0:
443,256,86815,1,2,0:0:0:0:
344,244,87112,1,2,0:0:0:0:
344,244,87260,2,0,L|289:261,1,55,8|2,0:0|0:0,0:0:0:0:
244,275,87557,2,0,P|189:288|139:267,2,110,8|8|8,0:0|0:0|0:0,0:0:0:0:
197,187,88448,6,0,P|197:155|205:119,1,55,8|0,0:0|0:0,0:0:0:0:
291,90,88894,1,8,0:0:0:0:
362,158,89191,1,2,0:0:0:0:
455,124,89488,1,2,0:0:0:0:
455,124,89636,2,0,L|456:191,1,55,8|0,0:0|0:0,0:0:0:0:
455,228,89933,2,0,P|451:272|495:340,2,110,2|2|2,0:0|0:0|0:0,0:0:0:0:
370,279,90825,6,0,P|334:291|298:295,1,55,8|0,0:0|0:0,0:0:0:0:
268,300,91122,1,2,0:0:0:0:
268,300,91270,2,0,L|144:300,2,110,8|2|2,0:0|0:0|0:0,0:0:0:0:
301,263,92013,1,8,0:0:0:0:
330,168,92310,1,8,0:0:0:0:
398,239,92607,1,8,0:0:0:0:
427,144,92904,1,2,0:0:0:0:
495,72,93201,6,0,P|440:47|375:64,1,110,8|2,0:0|0:0,0:0:0:0:
355,86,93646,1,8,0:0:0:0:
308,102,93795,2,0,P|264:70|236:10,1,110,2|2,0:0|0:0,0:0:0:0:
150,67,94389,2,0,P|122:63|86:51,1,55,8|0,0:0|0:0,0:0:0:0:
33,131,94834,2,0,P|37:155|33:247,1,110,8|2,0:0|0:0,0:0:0:0:
21,288,95280,1,2,0:0:0:0:
102,344,95577,6,0,L|162:336,1,55,8|0,0:0|0:0,0:0:0:0:
204,323,95874,2,0,P|192:294|191:266,1,55,2|8,0:0|0:0,0:0:0:0:
211,225,96171,1,2,0:0:0:0:
309,230,96468,1,2,0:0:0:0:
400,192,96765,2,0,P|408:164|412:132,1,55,8|0,0:0|0:0,0:0:0:0:
405,89,97062,2,0,P|381:97|333:101,1,55,8|0,0:0|0:0,0:0:0:0:
309,74,97359,2,0,P|313:50|309:14,2,55,8|0|2,0:0|0:0|0:0,0:0:0:0:
274,166,97953,5,6,0:0:0:0:
100,280,102706,6,0,P|88:252|88:216,1,55,6|0,0:0|0:0,0:0:0:0:
156,157,103151,2,0,L|164:89,1,55,6|0,0:0|0:0,0:0:0:0:
257,73,103597,1,8,0:0:0:0:
341,125,103894,1,6,0:0:0:0:
307,218,104191,1,2,0:0:0:0:
307,218,104339,2,0,P|303:246|311:282,1,55,6|0,0:0|0:0,0:0:0:0:
406,261,104785,1,8,0:0:0:0:
422,166,105082,6,0,L|298:174,1,110,6|0,0:0|0:0,0:0:0:0:
276,139,105527,2,0,L|152:127,1,110,6|0,0:0|0:0,0:0:0:0:
117,121,105973,1,8,0:0:0:0:
162,209,106270,2,0,P|178:237|190:317,1,110,2|2,0:0|0:0,0:0:0:0:
167,357,106716,1,8,0:0:0:0:
117,358,106864,2,0,L|82:245,1,110,2|2,0:0|0:0,0:0:0:0:
54,158,107458,6,0,P|82:138|170:134,1,110,6|2,0:0|0:0,0:0:0:0:
202,145,107904,2,0,L|322:129,1,110,8|0,0:0|0:0,0:0:0:0:
360,124,108349,1,2,0:0:0:0:
455,151,108646,2,0,P|459:183|431:267,1,110,12|2,0:0|0:0,0:0:0:0:
397,285,109092,2,0,L|277:277,1,110,8|0,0:0|0:0,0:0:0:0:
238,271,109537,1,2,0:0:0:0:
147,230,109834,5,12,0:0:0:0:
147,230,110131,1,12,0:0:0:0:
147,230,110428,1,12,0:0:0:0:
147,230,110726,1,12,0:0:0:0:
475,48,112211,6,0,L|475:215,1,165,6|8,0:0|0:0,0:0:0:0:
402,281,112954,2,0,P|375:274|348:279,1,55,2|8,0:0|0:0,0:0:0:0:
256,316,113399,1,8,0:0:0:0:
256,316,113548,2,0,P|201:331|143:311,2,110,2|8|0,0:0|0:0|0:0,0:0:0:0:
268,268,114290,2,0,L|268:202,1,55,12|0,0:0|0:0,0:0:0:0:
268,163,114587,6,0,P|319:178|373:162,1,110,12|0,0:0|0:0,0:0:0:0:
414,137,115033,1,8,0:0:0:0:
453,227,115330,2,0,L|509:226,2,55,0|8|2,0:0|0:0|0:0,0:0:0:0:
422,264,115776,2,0,P|371:283|319:269,1,110,8|8,0:0|0:0,0:0:0:0:
282,235,116221,2,0,L|226:235,1,55,2|8,0:0|0:0,0:0:0:0:
146,292,116667,1,8,0:0:0:0:
141,193,116964,6,0,P|152:139|134:88,1,110,12|0,0:0|0:0,0:0:0:0:
104,49,117409,2,0,L|222:48,1,110,8|2,0:0|0:0,0:0:0:0:
263,48,117855,1,8,0:0:0:0:
340,110,118152,2,0,P|337:137|341:164,1,55,8|2,0:0|0:0,0:0:0:0:
372,258,118597,1,8,0:0:0:0:
372,258,118746,2,0,L|305:258,1,55,2|0,0:0|0:0,0:0:0:0:
295,302,119043,2,0,L|239:302,1,55,12|0,0:0|0:0,0:0:0:0:
190,295,119340,6,0,P|207:244|190:193,1,110,12|0,0:0|0:0,0:0:0:0:
139,193,119786,2,0,P|82:209|31:193,1,110,8|0,0:0|0:0,0:0:0:0:
8,153,120231,1,8,0:0:0:0:
84,90,120528,1,6,0:0:0:0:
177,121,120825,1,6,0:0:0:0:
156,24,121122,1,6,0:0:0:0:
84,90,121419,1,6,0:0:0:0:
108,185,121716,6,0,L|108:296,1,110,6|2,0:0|0:0,0:0:0:0:
108,344,122162,1,8,0:0:0:0:
203,317,122459,1,2,0:0:0:0:
203,317,122607,2,0,P|225:313|262:317,1,55,8|2,0:0|0:0,0:0:0:0:
297,345,122904,2,0,L|406:344,1,110,8|0,0:0|0:0,0:0:0:0:
456,345,123350,2,0,P|446:291|458:237,1,110,8|0,0:0|0:0,0:0:0:0:
483,195,123795,1,6,0:0:0:0:
384,191,124092,6,0,L|266:191,1,110,12|0,0:0|0:0,0:0:0:0:
228,211,124538,2,0,P|240:263|223:315,1,110,8|0,0:0|0:0,0:0:0:0:
188,350,124984,1,8,0:0:0:0:
284,372,125281,2,0,L|399:371,1,110,8|0,0:0|0:0,0:0:0:0:
435,344,125726,1,2,0:0:0:0:
435,344,125875,2,0,P|431:317|436:290,1,55,8|0,0:0|0:0,0:0:0:0:
461,247,126172,1,8,0:0:0:0:
435,151,126469,6,0,P|386:177|327:167,1,110,12|0,0:0|0:0,0:0:0:0:
293,142,126914,2,0,L|293:265,1,110,8|2,0:0|0:0,0:0:0:0:
294,301,127360,1,8,0:0:0:0:
211,356,127657,2,0,P|181:359|151:355,1,55,12|2,0:0|0:0,0:0:0:0:
78,295,128102,2,0,L|5:295,2,55,8|0|2,0:0|0:0|0:0,0:0:0:0:
116,263,128548,1,8,0:0:0:0:
183,191,128845,6,0,P|200:139|189:86,1,110,12|0,0:0|0:0,0:0:0:0:
155,50,129290,2,0,L|34:38,1,110,8|2,0:0|0:0,0:0:0:0:
17,79,129736,2,0,P|20:109|12:138,1,55,8|0,0:0|0:0,0:0:0:0:
6,181,130033,1,12,0:0:0:0:
56,266,130330,2,0,L|113:267,1,55,12|2,0:0|0:0,0:0:0:0:
142,305,130627,2,0,L|197:305,1,55,12|2,0:0|0:0,0:0:0:0:
246,305,130924,1,12,0:0:0:0:
330,252,131221,6,0,P|325:225|330:195,2,55,6|8|8,0:0|0:0|0:0,0:0:0:0:
357,293,131667,1,8,0:0:0:0:
433,230,131964,1,8,0:0:0:0:
405,135,132260,2,0,P|355:103|231:188,1,220,0|0,0:0|0:0,0:0:0:0:
231,225,133003,2,0,P|241:279|218:327,1,110,0|0,0:0|0:0,0:0:0:0:
119,326,133597,6,0,L|91:378,2,55,6|2|2,0:0|0:0|0:0,0:0:0:0:
96,281,134042,1,8,0:0:0:0:
73,236,134191,2,0,P|64:183|89:135,1,110,2|8,0:0|0:0,0:0:0:0:
184,106,134785,2,0,L|301:106,1,110,8|2,0:0|0:0,0:0:0:0:
377,159,135379,2,0,P|365:219|401:274,1,110,2|8,0:0|0:0,0:0:0:0:
414,355,135973,6,0,L|300:356,1,110,12|2,0:0|0:0,0:0:0:0:
266,323,136419,1,12,0:0:0:0:
176,365,136716,2,0,L|119:365,1,55,2|12,0:0|0:0,0:0:0:0:
71,365,137013,1,2,0:0:0:0:
125,282,137310,1,2,0:0:0:0:
41,229,137607,2,0,P|37:201|42:175,1,55,2|8,0:0|0:0,0:0:0:0:
112,105,138052,1,2,0:0:0:0:
187,169,138349,6,0,P|236:189|287:170,1,110,12|2,0:0|0:0,0:0:0:0:
329,143,138795,2,0,L|329:262,1,110,12|2,0:0|0:0,0:0:0:0:
329,302,139240,1,8,0:0:0:0:
230,307,139537,2,0,P|174:293|121:312,1,110,8|2,0:0|0:0,0:0:0:0:
76,314,139983,2,0,L|76:377,2,55,8|0|2,0:0|0:0|0:0,0:0:0:0:
76,264,140428,1,8,0:0:0:0:
91,165,140726,6,0,P|142:180|198:162,1,110,12|2,0:0|0:0,0:0:0:0:
233,132,141171,2,0,P|284:116|337:131,1,110,8|2,0:0|0:0,0:0:0:0:
367,170,141617,1,8,0:0:0:0:
442,105,141914,1,14,0:0:0:0:
463,201,142211,1,12,0:0:0:0:
367,170,142508,1,12,0:0:0:0:
442,105,142805,1,12,0:0:0:0:
463,201,143102,6,0,L|519:201,2,55,6|2|2,0:0|0:0|0:0,0:0:0:0:
451,248,143547,2,0,L|391:247,1,55,8|2,0:0|0:0,0:0:0:0:
329,320,143993,1,8,0:0:0:0:
256,252,144290,1,12,0:0:0:0:
235,348,144587,1,2,0:0:0:0:
235,348,144735,1,12,0:0:0:0:
329,320,145032,1,2,0:0:0:0:
256,252,145329,6,0,L|256:191,1,55,2|12,0:0|0:0,0:0:0:0:
256,97,145775,1,2,0:0:0:0:
173,152,146072,1,2,0:0:0:0:
171,53,146369,1,8,0:0:0:0:
256,97,146666,2,0,L|370:97,1,110,12|8,0:0|0:0,0:0:0:0:
429,172,147260,2,0,P|423:198|425:226,1,55,8|2,0:0|0:0,0:0:0:0:
398,267,147557,2,0,L|339:267,1,55,8|2,0:0|0:0,0:0:0:0:
293,267,147854,5,12,0:0:0:0:
214,206,148151,1,2,0:0:0:0:
293,146,148448,1,2,0:0:0:0:
214,85,148745,1,8,0:0:0:0:
293,26,149042,2,0,P|346:15|403:25,1,110,12|2,0:0|0:0,0:0:0:0:
475,89,149636,2,0,L|475:147,1,55,2|0,0:0|0:0,0:0:0:0:
434,172,149933,2,0,L|434:233,1,55,8|0,0:0|0:0,0:0:0:0:
434,276,150230,5,12,0:0:0:0:
369,351,150528,1,2,0:0:0:0:
306,276,150825,1,2,0:0:0:0:
241,351,151122,1,8,0:0:0:0:
176,275,151419,2,0,P|162:221|183:174,1,110,12|8,0:0|0:0,0:0:0:0:
256,107,152013,1,8,0:0:0:0:
256,107,152310,1,8,0:0:0:0:
329,174,152607,6,0,P|350:223|335:275,1,110,12|2,0:0|0:0,0:0:0:0:
256,336,153201,1,2,0:0:0:0:
256,336,153498,1,8,0:0:0:0:
176,275,153795,2,0,L|60:275,1,110,12|8,0:0|0:0,0:0:0:0:
37,234,154240,1,2,0:0:0:0:
37,234,154389,2,0,L|19:177,2,55,8|2|8,0:0|0:0|0:0,0:0:0:0:
17,331,154983,5,12,0:0:0:0:
108,369,155280,2,0,L|172:368,1,55,2|12,0:0|0:0,0:0:0:0:
247,315,155726,1,12,0:0:0:0:
165,263,156023,1,6,0:0:0:0:
256,192,156097,12,6,157359,0:0:0:0:
36,35,162112,6,0,P|63:86|52:135,1,110,6|0,0:0|0:0,0:0:0:0:
40,182,162557,2,0,L|155:182,1,110,6|0,0:0|0:0,0:0:0:0:
199,183,163003,1,8,0:0:0:0:
293,212,163300,2,0,P|320:263|309:312,1,110,6|0,0:0|0:0,0:0:0:0:
297,359,163745,2,0,L|412:359,1,110,6|0,0:0|0:0,0:0:0:0:
456,360,164191,1,8,0:0:0:0:
483,264,164488,6,0,P|456:213|467:164,1,110,6|0,0:0|0:0,0:0:0:0:
506,134,164933,2,0,L|395:134,1,110,6|0,0:0|0:0,0:0:0:0:
346,132,165379,1,8,0:0:0:0:
284,209,165676,1,8,0:0:0:0:
248,116,165973,1,2,0:0:0:0:
346,132,166270,1,2,0:0:0:0:
284,209,166567,1,8,0:0:0:0:
248,116,166864,6,0,P|229:57|245:9,1,110,6|2,0:0|0:0,0:0:0:0:
332,60,167458,2,0,L|447:60,1,110,2|2,0:0|0:0,0:0:0:0:
488,148,168052,1,8,0:0:0:0:
410,213,168349,2,0,P|395:264|416:322,2,110,2|2|2,0:0|0:0|0:0,0:0:0:0:
488,148,169240,5,14,0:0:0:0:
392,116,169537,1,12,0:0:0:0:
410,213,169834,1,12,0:0:0:0:
488,148,170131,1,12,0:0:0:0:
396,32,170576,5,8,0:0:0:0:
396,32,170726,2,0,L|339:33,2,55,8|8|8,0:0|0:0|0:0,0:0:0:0:
376,128,171320,2,0,P|358:182|377:238,1,110,8|2,0:0|0:0,0:0:0:0:
256,191,179933,6,0,P|237:242|253:294,1,110,6|6,0:0|0:0,0:0:0:0:
333,352,180528,1,6,0:0:0:0:
429,330,180825,1,6,0:0:0:0:
496,257,181122,2,0,P|514:206|498:154,1,110,6|6,0:0|0:0,0:0:0:0:
419,97,181717,1,6,0:0:0:0:
323,119,182014,1,6,0:0:0:0:
59,337,183498,6,0,L|59:172,1,165,6|8,0:0|0:0,0:0:0:0:
158,176,184241,2,0,P|185:183|212:178,1,55,2|8,0:0|0:0,0:0:0:0:
296,127,184686,1,8,0:0:0:0:
296,127,184834,2,0,P|351:112|409:132,2,110,2|8|0,0:0|0:0|0:0,0:0:0:0:
294,176,185577,2,0,L|294:231,1,55,8|0,0:0|0:0,0:0:0:0:
297,280,185874,6,0,P|348:295|402:279,1,110,12|0,0:0|0:0,0:0:0:0:
433,241,186320,1,8,0:0:0:0:
454,144,186617,2,0,L|521:144,2,55,0|8|2,0:0|0:0|0:0,0:0:0:0:
422,105,187063,2,0,L|305:105,1,110,8|0,0:0|0:0,0:0:0:0:
264,118,187508,2,0,P|270:145|267:172,1,55,2|8,0:0|0:0,0:0:0:0:
210,254,187954,1,8,0:0:0:0:
137,321,188251,6,0,L|22:321,1,110,12|0,0:0|0:0,0:0:0:0:
48,276,188696,2,0,P|61:220|45:171,1,110,8|2,0:0|0:0,0:0:0:0:
14,132,189141,1,8,0:0:0:0:
88,66,189439,2,0,L|147:66,1,55,8|2,0:0|0:0,0:0:0:0:
207,140,189884,1,8,0:0:0:0:
207,140,190033,2,0,L|274:140,1,55,2|0,0:0|0:0,0:0:0:0:
288,181,190330,2,0,L|360:180,1,55,8|0,0:0|0:0,0:0:0:0:
392,180,190627,6,0,P|374:231|391:282,1,110,12|0,0:0|0:0,0:0:0:0:
417,324,191073,2,0,L|304:325,1,110,8|0,0:0|0:0,0:0:0:0:
257,325,191518,1,8,0:0:0:0:
190,251,191815,1,6,0:0:0:0:
257,178,192112,1,6,0:0:0:0:
190,104,192409,1,6,0:0:0:0:
257,31,192706,1,6,0:0:0:0:
318,108,193003,6,0,P|368:124|428:104,1,110,6|2,0:0|0:0,0:0:0:0:
459,76,193449,1,8,0:0:0:0:
502,164,193746,1,2,0:0:0:0:
502,164,193894,2,0,L|501:221,1,55,8|2,0:0|0:0,0:0:0:0:
486,266,194191,2,0,P|430:255|377:267,1,110,8|0,0:0|0:0,0:0:0:0:
338,294,194636,2,0,P|284:305|231:294,1,110,8|0,0:0|0:0,0:0:0:0:
188,269,195082,1,8,0:0:0:0:
180,170,195379,6,0,L|180:59,1,110,12|0,0:0|0:0,0:0:0:0:
228,68,195825,2,0,P|280:80|332:63,1,110,8|0,0:0|0:0,0:0:0:0:
378,42,196271,1,8,0:0:0:0:
442,116,196568,2,0,L|442:231,1,110,8|0,0:0|0:0,0:0:0:0:
440,275,197013,1,2,0:0:0:0:
440,275,197162,2,0,P|413:271|386:276,1,55,8|0,0:0|0:0,0:0:0:0:
341,298,197459,1,8,0:0:0:0:
258,354,197756,6,0,P|209:372|153:354,1,110,12|0,0:0|0:0,0:0:0:0:
128,314,198201,2,0,L|128:204,1,110,8|2,0:0|0:0,0:0:0:0:
130,154,198647,1,8,0:0:0:0:
199,84,198944,2,0,P|229:87|259:83,1,55,12|2,0:0|0:0,0:0:0:0:
350,64,199389,2,0,L|350:4,2,55,8|0|2,0:0|0:0|0:0,0:0:0:0:
350,113,199834,1,8,0:0:0:0:
341,211,200132,6,0,P|289:194|237:213,1,110,12|0,0:0|0:0,0:0:0:0:
206,249,200577,2,0,L|205:360,1,110,8|2,0:0|0:0,0:0:0:0:
155,362,201023,2,0,P|126:357|97:362,1,55,8|2,0:0|0:0,0:0:0:0:
52,371,201320,1,6,0:0:0:0:
20,277,201617,2,0,L|21:216,1,55,6|2,0:0|0:0,0:0:0:0:
68,206,201914,2,0,L|67:149,1,55,6|2,0:0|0:0,0:0:0:0:
68,101,202211,1,6,0:0:0:0:
161,68,202508,6,0,L|160:2,2,55,12|8|8,0:0|0:0|0:0,0:0:0:0:
161,117,202954,1,8,0:0:0:0:
242,172,203251,1,8,0:0:0:0:
276,79,203547,2,0,P|374:34|471:77,1,220,0|0,0:0|0:0,0:0:0:0:
477,126,204290,2,0,L|478:253,1,110,8|8,0:0|0:0,0:0:0:0:
400,298,204884,6,0,L|400:367,2,55,6|2|0,0:0|0:0|0:0,0:0:0:0:
373,256,205328,1,12,0:0:0:0:
373,256,205478,2,0,P|347:260|313:256,1,55,2|2,0:0|0:0,0:0:0:0:
243,191,205924,2,0,P|214:184|182:191,1,55,2|12,0:0|0:0,0:0:0:0:
142,204,206221,1,2,0:0:0:0:
57,254,206517,2,0,L|56:136,1,110,12|2,0:0|0:0,0:0:0:0:
131,80,207111,5,2,0:0:0:0:
131,80,207260,2,0,P|161:87|193:78,1,55,12|0,0:0|0:0,0:0:0:0:
223,52,207557,2,0,L|286:52,1,55,2|12,0:0|0:0,0:0:0:0:
319,79,207854,2,0,P|314:112|321:138,1,55,2|2,0:0|0:0,0:0:0:0:
360,222,208300,2,0,L|292:222,1,55,2|12,0:0|0:0,0:0:0:0:
261,246,208597,2,0,P|264:278|256:306,1,55,2|12,0:0|0:0,0:0:0:0:
225,336,208894,1,0,0:0:0:0:
225,336,209042,2,0,L|114:337,1,110,12|12,0:0|0:0,0:0:0:0:
82,300,209487,5,2,0:0:0:0:
82,300,209636,2,0,L|35:262,2,55,12|2|2,0:0|0:0|0:0,0:0:0:0:
103,255,210082,2,0,L|85:190,2,55,12|2|2,0:0|0:0|0:0,0:0:0:0:
167,179,210676,2,0,L|152:118,1,55,2|12,0:0|0:0,0:0:0:0:
141,77,210973,1,0,0:0:0:0:
229,32,211270,1,12,0:0:0:0:
318,74,211567,2,0,L|376:74,2,55,8|8|8,3:0|3:0|3:0,0:0:0:0:
298,119,212013,6,0,L|237:119,2,55,6|6|8,0:0|0:0|0:0,0:0:0:0:
328,157,212458,1,6,0:0:0:0:
400,224,212755,2,0,L|461:224,1,55,6|8,0:0|0:0,0:0:0:0:
399,306,213201,2,0,L|288:304,1,110,6|8,0:0|0:0,0:0:0:0:
260,344,213646,1,6,0:0:0:0:
177,288,213943,2,0,P|171:263|177:230,1,55,6|8,0:0|0:0,0:0:0:0:
268,201,214389,6,0,P|274:176|268:143,1,55,6|6,0:0|0:0,0:0:0:0:
220,61,214834,1,6,0:0:0:0:
168,145,215131,1,6,0:0:0:0:
269,147,215428,1,6,0:0:0:0:
256,192,215503,12,0,216468,0:0:0:0:
