osu file format v14

[General]
AudioFilename: My Treasure(osu cut).mp3
AudioLeadIn: 0
PreviewTime: 95038
Countdown: 0
SampleSet: Soft
StackLeniency: 0.7
Mode: 0
LetterboxInBreaks: 0
WidescreenStoryboard: 0

[Editor]
Bookmarks: 73673
DistanceSpacing: 1.8
BeatDivisor: 4
GridSize: 8
TimelineZoom: 1.78

[Metadata]
Title:My Treasure
TitleUnicode:My Treasure
Artist:Izayoi Miku (CV:Chihara Minori)
ArtistUnicode:誘宵 美九 (CV:茅原実里)
Creator:In April
Version:Concerto
Source:Date A Live 2
Tags:DAL Izayoi Miku Seirei Stage Piano Instrumental Concert
BeatmapID:646209
BeatmapSetID:286196

[Difficulty]
HPDrainRate:7
CircleSize:4
OverallDifficulty:8
ApproachRate:7
SliderMultiplier:2.00000000596046
SliderTickRate:2

[Events]
//Background and Video events
0,0,"Izayoi.Miku.full.1739883.jpg",0,0
//Break Periods
//Storyboard Layer 0 (Background)
//Storyboard Layer 1 (Fail)
//Storyboard Layer 2 (Pass)
//Storyboard Layer 3 (Foreground)
//Storyboard Sound Samples

[TimingPoints]
548,750,4,2,1,70,1,0
96548,-100,3,2,1,70,0,1
131798,-100,3,2,1,70,0,0

[Colours]
Combo1 : 171,100,219
Combo2 : 240,120,0
Combo3 : 17,7,129
Combo4 : 57,183,183

[HitObjects]
56,40,6548,21,0,0:0:0:0:
176,120,6923,1,2,0:0:0:0:
64,208,7298,2,0,B|96:264|144:256,1,100.000000298023,0|2,0:0|0:0,0:0:0:0:
320,240,8048,5,0,0:0:0:0:
416,112,8423,1,2,0:0:0:0:
272,80,8798,2,0,B|208:64|184:120,1,100.000000298023,0|2,0:0|0:0,0:0:0:0:
256,304,9548,5,0,0:0:0:0:
96,336,9923,1,2,0:0:0:0:
96,184,10298,2,0,B|152:224|208:160,1,100.000000298023,2|0,0:0|0:0,0:0:0:0:
344,64,11798,1,0,0:0:0:0:
315,250,12548,6,0,B|288:264|288:264|248:248|248:248|216:248,1,100.000000298023,0|2,0:0|0:0,0:0:0:0:
320,136,13298,1,2,0:0:0:0:
408,16,13673,2,0,B|381:2|381:2|341:18|341:18|314:18,1,100.000000298023,0|2,0:0|0:0,0:0:0:0:
184,128,14423,1,0,0:0:0:0:
192,208,14610,1,0,0:0:0:0:
120,168,14798,1,0,0:0:0:0:
24,48,15173,5,0,0:0:0:0:
88,168,15548,1,2,0:0:0:0:
144,56,15923,1,0,0:0:0:0:
16,120,16298,1,2,0:0:0:0:
144,184,16673,1,0,0:0:0:0:
80,56,17048,1,2,0:0:0:0:
320,24,17798,6,0,B|440:24|456:144,1,200.000000596046,2|2,0:0|0:0,0:0:0:0:
432,240,18923,1,0,0:0:0:0:
320,352,19298,1,0,0:0:0:0:
160,312,19673,2,0,L|208:280,2,50.0000001490115,0|0|2,0:0|0:0|0:0,0:0:0:0:
64,216,20423,1,0,0:0:0:0:
152,96,20798,1,0,0:0:0:0:
304,128,21173,1,2,0:0:0:0:
329,229,21548,6,0,B|377:117|377:117|337:149|281:117,1,200.000000596046,2|0,0:0|0:0,0:0:0:0:
240,232,23048,2,0,B|206:210|166:242|166:242|213:132,2,200.000000596046,2|0|0,0:0|0:0|0:0,0:0:0:0:
80,264,24923,1,0,0:0:0:0:
88,128,25298,1,0,0:0:0:0:
208,32,25673,5,2,0:0:0:0:
360,32,26048,2,0,P|440:96|440:192,1,200.000000596046
392,312,27173,1,0,0:0:0:0:
264,224,27548,2,0,B|280:168|280:168|216:216|216:120|136:160,1,200.000000596046,2|0,0:0|0:0,0:0:0:0:
184,288,28673,2,0,L|152:360,1,50.0000001490115
104,176,29423,5,0,0:0:0:0:
24,96,29798,1,2,0:0:0:0:
104,16,30173,1,0,0:0:0:0:
184,96,30548,2,0,P|225:96|256:160,2,100.000000298023,2|0|0,0:0|0:0|0:0,0:0:0:0:
331,96,31673,6,0,P|290:96|259:160,1,100.000000298023,0|2,0:0|0:0,0:0:0:0:
400,16,32423,1,0,0:0:0:0:
480,136,32798,1,2,0:0:0:0:
368,160,33173,2,0,B|256:200|344:240|344:240|264:256|216:336,1,300.000000894069
224,168,34673,1,2,0:0:0:0:
208,208,34861,1,0,0:0:0:0:
88,80,35423,5,0,0:0:0:0:
192,208,35798,1,2,0:0:0:0:
280,80,36173,1,0,0:0:0:0:
192,208,36548,1,0,0:0:0:0:
368,208,36923,1,0,0:0:0:0:
280,80,37298,1,2,0:0:0:0:
472,184,37673,6,0,P|440:144|392:136,1,100.000000298023,0|2,0:0|0:0,0:0:0:0:
472,184,38423,1,0,0:0:0:0:
304,224,38798,2,0,P|328:264|384:280,2,100.000000298023,0|2|0,0:0|0:0|0:0,0:0:0:0:
408,96,40673,1,2,0:0:0:0:
408,96,40861,2,0,P|448:112|304:160,1,450.000001341104,2|0,0:2|0:2,0:2:0:0:
392,184,42923,5,0,0:0:0:0:
320,72,43298,1,0,0:0:0:0:
192,48,43673,1,2,0:0:0:0:
152,280,44798,1,2,0:0:0:0:
200,112,45173,1,0,0:0:0:0:
248,280,45548,5,0,0:0:0:0:
200,112,45923,1,2,0:0:0:0:
152,280,46298,1,0,0:0:0:0:
264,184,46673,1,2,0:0:0:0:
128,184,47048,1,0,0:0:0:0:
240,112,47423,1,2,0:0:0:0:
176,16,47798,1,2,0:0:0:0:
304,16,48173,1,0,0:0:0:0:
408,96,48548,2,0,P|392:184|280:208,1,200.000000596046,2|0,0:0|0:0,0:0:0:0:
496,112,49673,6,0,B|504:280|304:304,1,300.000000894069,0|0,0:2|0:2,0:2:0:0:
200,344,51173,1,0,0:0:0:0:
128,240,51548,2,0,B|96:176|56:176|56:176|-8:192|64:120,1,200.000000596046,2|0,0:0|0:0,0:0:0:0:
128,240,52673,1,0,0:0:0:0:
256,24,53423,5,0,0:0:0:0:
384,72,53798,1,2,0:0:0:0:
400,208,54173,1,0,0:0:0:0:
248,128,54548,2,0,P|224:168|256:232,1,100.000000298023
176,360,55298,1,0,0:0:0:0:
88,280,55673,6,0,B|134:186|46:186|88:88,1,200.000000596046
248,40,56798,1,2,0:0:0:0:
296,168,57173,1,2,0:0:0:0:
464,136,57548,2,0,B|505:230|417:230|480:336,1,200.000000596046
368,200,58673,2,0,P|376:168|352:144,1,50.0000001490115,2|0,0:0|0:0,0:0:0:0:
192,56,59423,6,0,P|160:88|144:144,1,100.000000298023
136,248,60173,5,0,0:0:0:0:
160,280,60361,1,2,0:0:0:0:
192,312,60548,2,0,B|296:384|368:264,1,200.000000596046
432,152,61673,2,0,P|418:182|400:200,1,50.0000001490115,2|0,0:0|0:0,0:0:0:0:
264,16,62423,5,0,0:0:0:0:
168,88,62798,1,2,0:0:0:0:
64,168,63173,6,0,B|16:216|80:272,1,100.000000298023,2|0,0:0|0:0,0:0:0:0:
288,192,64298,1,0,0:0:0:0:
160,248,64673,1,2,0:0:0:0:
184,280,64861,2,0,P|216:320|376:264,1,250.000000745058
400,72,66173,5,0,0:0:0:0:
424,120,66361,1,0,0:0:0:0:
448,168,66548,2,0,B|344:200|344:136|248:160,1,200.000000596046,2|0,0:0|0:0,0:0:0:0:
120,304,67673,1,0,0:0:0:0:
88,264,67861,1,0,0:0:0:0:
64,216,68048,2,0,B|168:184|168:248|264:224,1,200.000000596046,2|0,0:0|0:0,0:0:0:0:
296,56,69173,5,0,0:0:0:0:
400,136,69548,2,0,B|488:224|384:304,1,200.000000596046,0|2,0:0|0:0,0:0:0:0:
272,336,70673,1,0,0:0:0:0:
192,240,71048,2,0,P|152:216|152:160,1,100.000000298023,2|0,0:0|0:0,0:0:0:0:
40,40,71798,6,0,P|80:64|80:120,1,100.000000298023
264,48,72548,2,0,B|320:120|328:16|464:56|408:160,1,200.000000596046,2|0,0:0|0:0,0:0:0:0:
304,216,73673,2,0,P|256:208|216:160,1,100.000000298023,2|0,0:0|0:0,0:0:0:0:
160,16,74423,1,0,0:0:0:0:
80,88,74798,1,2,0:0:0:0:
160,176,75173,1,0,0:0:0:0:
72,256,75548,1,0,0:0:0:0:
168,336,75923,2,0,B|216:304|256:352,3,100.000000298023,0|2|0|2,0:0|0:0|0:0|0:0,0:0:0:0:
232,216,77423,1,0,0:0:0:0:
344,240,77798,5,0,0:0:0:0:
384,208,77986,1,0,0:0:0:0:
408,168,78173,1,2,0:0:0:0:
416,120,78361,1,0,0:0:0:0:
400,88,78548,2,0,P|272:48|224:104,1,200.000000596046,2|0,0:0|0:0,0:0:0:0:
200,136,79673,2,0,L|152:120,1,50.0000001490115,2|0,0:0|0:0,0:0:0:0:
216,32,80423,2,0,P|274:24|306:56,1,100.000000298023
248,112,81173,1,0,0:0:0:0:
208,120,81361,1,2,0:0:0:0:
168,144,81548,2,0,P|146:167|236:270,1,200.000000596046
376,56,83048,5,0,0:0:0:0:
280,176,83798,1,0,0:0:0:0:
448,240,84173,6,0,L|416:280,2,50.0000001490115,0|0|2,0:0|0:0|0:0,0:0:0:0:
304,328,84923,2,0,P|280:360|208:328,1,100.000000298023
208,256,85673,1,0,0:0:0:0:
240,240,85861,1,0,0:0:0:0:
264,200,86048,2,0,P|185:169|120:248,1,200.000000596046,2|0,0:0|0:0,0:0:0:0:
240,48,87173,1,0,0:0:0:0:
280,48,87361,1,0,0:0:0:0:
312,72,87548,2,0,B|352:112|352:112|368:184|368:184|432:248,2,200.000000596046,2|0|2,0:0|0:0|0:0,0:0:0:0:
280,232,89423,5,0,0:0:0:0:
208,120,89798,1,2,0:0:0:0:
120,16,90173,6,0,P|80:32|48:80,1,100.000000298023
96,168,90923,2,0,P|68:200|56:256,1,100.000000298023,0|2,0:0|0:0,0:0:0:0:
160,336,91673,2,0,P|176:320|192:280,1,50.0000001490115
200,264,92048,2,0,P|230:193|344:176,1,200.000000596046,2|0,0:0|0:0,0:0:0:0:
280,296,93173,1,2,0:0:0:0:
264,352,93361,2,0,P|360:344|432:216,1,250.000000745058
120,56,95048,5,0,0:0:0:0:
288,32,95798,1,2,0:0:0:0:
296,207,96173,2,0,P|253:196|224:152,1,100.000000298023,0|2,0:0|0:0,0:0:0:0:
56,232,96923,2,0,P|108:199|151:207,1,100.000000298023,0|2,0:0|0:0,0:0:0:0:
216,336,97673,2,0,P|198:294|218:256,1,90.000000298023
288,160,98423,5,0,0:0:0:0:
368,280,98798,1,0,0:0:0:0:
448,160,99173,5,0,0:0:0:0:
288,160,99548,2,0,P|296:112|176:40,1,200.000000596046,2|0,0:0|0:0,0:0:0:0:
72,120,100673,1,2,0:0:0:0:
80,168,100861,1,0,0:0:0:0:
112,208,101048,1,0,0:0:0:0:
248,256,101423,5,0,0:0:0:0:
280,104,101798,1,0,0:0:0:0:
120,32,102173,6,0,P|152:56|160:120,1,100.000000298023,0|2,0:0|0:0,0:0:0:0:
320,192,102923,2,0,P|276:183|240:128,1,100.000000298023,0|2,0:0|0:0,0:0:0:0:
392,32,103673,2,0,P|357:59|352:112,1,100.000000298023,0|2,0:0|0:0,0:0:0:0:
256,168,104423,1,0,0:0:0:0:
280,280,104798,2,0,B|224:304|176:248,2,100.000000298023,0|2|2,0:0|0:0|0:0,0:0:0:0:
384,216,105923,1,0,0:0:0:0:
480,160,106298,2,0,B|449:97|369:113,2,100.000000298023,2|2|2,0:0|0:0|0:0,0:0:0:0:
184,248,107798,5,2,0:0:0:0:
136,112,108173,1,0,0:0:0:0:
272,40,108548,2,0,P|320:24|496:160,1,300.000000894069,2|0,0:0|0:0,0:0:0:0:
496,216,109861,1,0,0:0:0:0:
480,264,110048,2,0,P|464:296|312:304,1,200.000000596046,2|0,0:0|0:0,0:0:0:0:
236,130,111173,2,0,P|219:169|248:216,1,100.000000298023,2|0,0:0|0:0,0:0:0:0:
88,288,111923,5,0,0:0:0:0:
128,312,112111,1,0,0:0:0:0:
176,320,112298,1,2,0:0:0:0:
272,264,112673,5,0,0:0:0:0:
288,224,112861,1,0,0:0:0:0:
296,176,113048,1,2,0:0:0:0:
304,72,113423,5,0,0:0:0:0:
344,48,113611,1,0,0:0:0:0:
392,72,113798,1,2,0:0:0:0:
432,176,114173,1,2,0:0:0:0:
432,280,114548,2,0,B|360:368|304:312|384:248|344:208|272:304|184:312,1,300.000000894069
144,304,115861,1,0,0:0:0:0:
104,288,116048,2,0,P|64:248|152:136,1,200.000000596046,2|0,0:0|0:0,0:0:0:0:
248,224,117173,1,0,0:0:0:0:
376,136,117548,6,0,B|355:73|312:80|312:80|288:48|288:48|272:32|200:40,1,200.000000596046,2|2,0:0|0:0,0:0:0:0:
88,80,118673,1,0,0:0:0:0:
32,200,119048,6,0,P|88:192|112:144,1,100.000000298023,2|0,0:0|0:0,0:0:0:0:
216,264,119798,2,0,P|180:239|192:176,1,100.000000298023,2|0,0:0|0:0,0:0:0:0:
192,96,120548,2,0,P|304:24|384:56,1,200.000000596046,2|0,0:0|0:0,0:0:0:0:
416,112,121673,1,2,0:0:0:0:
400,160,121861,1,0,0:0:0:0:
368,200,122048,1,0,0:0:0:0:
280,304,122423,5,0,0:0:0:0:
144,256,122798,1,2,0:0:0:0:
112,104,123173,1,0,0:0:0:0:
232,40,123548,6,0,P|336:72|368:160,1,200.000000596046,2|0,0:0|0:0,0:0:0:0:
304,256,124673,1,2,0:0:0:0:
264,280,124861,1,0,0:0:0:0:
224,288,125048,1,0,0:0:0:0:
296,152,125423,5,0,0:0:0:0:
160,192,125798,1,2,0:0:0:0:
40,104,126173,6,0,P|84:70|136:64,1,100.000000298023,0|2,0:0|0:0,0:0:0:0:
232,104,126923,2,0,P|188:138|136:152,1,100.000000298023,0|2,0:0|0:0,0:0:0:0:
40,80,127673,1,0,0:0:0:0:
152,32,128048,2,0,P|216:24|264:64,2,100.000000298023,0|2|2,0:0|0:0|0:0,0:0:0:0:
336,104,129173,5,2,0:0:0:0:
384,248,129548,2,0,P|368:208|304:192,1,100.000000298023,2|0,0:0|0:0,0:0:0:0:
256,264,130298,2,0,P|209:249|189:204,2,100.000000298023,2|0|0,0:0|0:0|0:0,0:0:0:0:
40,48,131798,5,0,0:0:0:0:
160,120,132173,1,0,0:0:0:0:
64,200,132548,2,0,P|72:272|184:328,1,200.000000596046,2|0,0:0|0:0,0:0:0:0:
304,288,133673,1,2,0:0:0:0:
336,264,133861,1,0,0:0:0:0:
360,224,134048,1,0,0:0:0:0:
256,48,134798,5,0,0:0:0:0:
352,72,135173,2,0,P|400:96|416:152,2,100.000000298023,0|2|0,0:0|0:0|0:0,0:0:0:0:
400,232,136298,1,0,0:0:0:0:
240,160,137048,1,0,0:0:0:0:
40,208,138548,5,0,0:0:0:0:
144,120,138923,1,2,0:0:0:0:
274,73,139298,2,0,P|251:36|192:24,1,100.000000298023,0|2,0:0|0:0,0:0:0:0:
408,184,140048,5,0,0:0:0:0:
352,40,140423,1,2,0:0:0:0:
200,136,140798,2,0,P|216:80|264:56,1,100.000000298023,0|2,0:0|0:0,0:0:0:0:
256,256,141548,5,0,0:0:0:0:
136,80,142298,2,0,P|176:48|232:48,1,100.000000298023,2|0,0:0|0:3,0:0:0:0:
416,104,143798,1,0,0:0:0:0:
136,32,144548,5,0,0:0:0:0:
232,104,144923,1,2,0:0:0:0:
168,192,145298,2,0,P|208:224|256:216,1,100.000000298023,0|2,0:0|0:0,0:0:0:0:
392,136,146048,6,0,P|360:104|304:104,1,100.000000298023,0|2,0:0|0:0,0:0:0:0:
328,232,146798,1,0,0:0:0:0:
208,288,147173,1,2,0:0:0:0:
40,184,147548,6,0,P|72:224|152:224,1,100.000000298023,0|2,0:0|0:0,0:0:0:0:
224,88,148298,1,2,0:0:0:0:
117,235,148673,1,0,0:0:0:0:
280,96,149798,5,0,0:0:0:0:
