osu file format v12

[General]
AudioFilename: knights.mp3
AudioLeadIn: 0
PreviewTime: -1
Countdown: 0
SampleSet: None
StackLeniency: 0.7
Mode: 3
LetterboxInBreaks: 1
SpecialStyle: 0
WidescreenStoryboard: 0

[Editor]
DistanceSpacing: 1
BeatDivisor: 4
GridSize: 8

[Metadata]
Title:Night of Knights
TitleUnicode:ナイト・オブ・ナイツ
Artist:Izayoi
ArtistUnicode:Izayoi差分 赤い人
Creator:Doorknob
Version:Lv.12 HARDEST
Source:BMS
Tags:
BeatmapID:311855
BeatmapSetID:121760

[Difficulty]
HPDrainRate:7
CircleSize:7
OverallDifficulty:7
ApproachRate:5
SliderMultiplier:1.4
SliderTickRate:1

[Events]
//Background and Video events
0,0,"bga.jpg",0,0
//Break Periods
//Storyboard Layer 0 (Background)
//Storyboard Layer 1 (Fail)
//Storyboard Layer 2 (Pass)
//Storyboard Layer 3 (Foreground)
//Storyboard Sound Samples
//Background Colour Transformations
3,100,163,162,255

[TimingPoints]
0,335.195530726257,4,2,0,0,1,0

[HitObjects]
36,192,1340,1,0,0:0:0:0:
109,192,1340,1,0,0:0:0:0:
329,192,1340,1,0,0:0:0:0:
182,192,1508,1,0,0:0:0:0:
256,192,1508,1,0,0:0:0:0:
475,192,1508,1,0,0:0:0:0:
329,192,1592,1,0,0:0:0:0:
36,192,1675,1,0,0:0:0:0:
109,192,1675,1,0,0:0:0:0:
402,192,1675,1,0,0:0:0:0:
182,192,1759,1,0,0:0:0:0:
475,192,1759,1,0,0:0:0:0:
256,192,1843,1,0,0:0:0:0:
402,192,1843,1,0,0:0:0:0:
36,192,1927,1,0,0:0:0:0:
329,192,1927,1,0,0:0:0:0:
109,192,2011,1,0,0:0:0:0:
256,192,2094,1,0,0:0:0:0:
329,192,2094,1,0,0:0:0:0:
182,192,2178,1,0,0:0:0:0:
402,192,2178,1,0,0:0:0:0:
109,192,2262,1,0,0:0:0:0:
329,192,2262,1,0,0:0:0:0:
36,192,2346,1,0,0:0:0:0:
256,192,2346,1,0,0:0:0:0:
402,192,2346,1,0,0:0:0:0:
182,192,2430,1,0,0:0:0:0:
475,192,2430,1,0,0:0:0:0:
109,192,2513,1,0,0:0:0:0:
256,192,2513,1,0,0:0:0:0:
402,192,2513,1,0,0:0:0:0:
36,192,2597,1,0,0:0:0:0:
329,192,2597,1,0,0:0:0:0:
109,192,2681,1,0,0:0:0:0:
36,192,2765,1,0,0:0:0:0:
256,192,2765,1,0,0:0:0:0:
182,192,2849,1,0,0:0:0:0:
402,192,2849,1,0,0:0:0:0:
475,192,2849,1,0,0:0:0:0:
256,192,2932,1,0,0:0:0:0:
36,192,3016,1,0,0:0:0:0:
109,192,3016,1,0,0:0:0:0:
329,192,3016,1,0,0:0:0:0:
182,192,3100,1,0,0:0:0:0:
402,192,3100,1,0,0:0:0:0:
256,192,3184,1,0,0:0:0:0:
475,192,3184,1,0,0:0:0:0:
36,192,3268,1,0,0:0:0:0:
402,192,3268,1,0,0:0:0:0:
109,192,3351,1,0,0:0:0:0:
402,192,3351,1,0,0:0:0:0:
329,192,3435,1,0,0:0:0:0:
36,192,3519,1,0,0:0:0:0:
256,192,3519,1,0,0:0:0:0:
402,192,3603,1,0,0:0:0:0:
36,192,3687,1,0,0:0:0:0:
109,192,3687,1,0,0:0:0:0:
182,192,3687,1,0,0:0:0:0:
475,192,3687,1,0,0:0:0:0:
182,192,3770,1,0,0:0:0:0:
109,192,3854,1,0,0:0:0:0:
329,192,3854,1,0,0:0:0:0:
402,192,3854,1,0,0:0:0:0:
475,192,3854,1,0,0:0:0:0:
329,192,3938,1,0,0:0:0:0:
36,192,4022,1,0,0:0:0:0:
182,192,4022,1,0,0:0:0:0:
402,192,4022,1,0,0:0:0:0:
109,192,4189,1,0,0:0:0:0:
256,192,4189,1,0,0:0:0:0:
475,192,4189,1,0,0:0:0:0:
329,192,4273,1,0,0:0:0:0:
36,192,4357,1,0,0:0:0:0:
182,192,4357,1,0,0:0:0:0:
402,192,4357,1,0,0:0:0:0:
256,192,4441,1,0,0:0:0:0:
475,192,4441,1,0,0:0:0:0:
109,192,4525,1,0,0:0:0:0:
402,192,4525,1,0,0:0:0:0:
36,192,4608,1,0,0:0:0:0:
256,192,4608,1,0,0:0:0:0:
109,192,4692,1,0,0:0:0:0:
329,192,4776,1,0,0:0:0:0:
475,192,4776,1,0,0:0:0:0:
182,192,4860,1,0,0:0:0:0:
402,192,4860,1,0,0:0:0:0:
109,192,4944,1,0,0:0:0:0:
329,192,4944,1,0,0:0:0:0:
36,192,5027,1,0,0:0:0:0:
256,192,5027,1,0,0:0:0:0:
402,192,5027,1,0,0:0:0:0:
182,192,5111,1,0,0:0:0:0:
475,192,5111,1,0,0:0:0:0:
109,192,5195,1,0,0:0:0:0:
256,192,5195,1,0,0:0:0:0:
402,192,5195,1,0,0:0:0:0:
36,192,5279,1,0,0:0:0:0:
329,192,5279,1,0,0:0:0:0:
182,192,5363,1,0,0:0:0:0:
36,192,5446,1,0,0:0:0:0:
256,192,5446,1,0,0:0:0:0:
109,192,5530,1,0,0:0:0:0:
402,192,5530,1,0,0:0:0:0:
475,192,5530,1,0,0:0:0:0:
256,192,5614,1,0,0:0:0:0:
36,192,5698,1,0,0:0:0:0:
109,192,5698,1,0,0:0:0:0:
329,192,5698,1,0,0:0:0:0:
182,192,5782,1,0,0:0:0:0:
402,192,5782,1,0,0:0:0:0:
256,192,5865,1,0,0:0:0:0:
475,192,5865,1,0,0:0:0:0:
36,192,5949,1,0,0:0:0:0:
329,192,5949,1,0,0:0:0:0:
182,192,6033,1,0,0:0:0:0:
329,192,6033,1,0,0:0:0:0:
402,192,6117,1,0,0:0:0:0:
109,192,6201,1,0,0:0:0:0:
256,192,6201,1,0,0:0:0:0:
475,192,6284,1,0,0:0:0:0:
36,192,6368,1,0,0:0:0:0:
182,192,6368,1,0,0:0:0:0:
329,192,6368,1,0,0:0:0:0:
256,192,6452,1,0,0:0:0:0:
109,192,6536,1,0,0:0:0:0:
402,192,6536,1,0,0:0:0:0:
475,192,6536,1,0,0:0:0:0:
329,192,6620,1,0,0:0:0:0:
36,192,6703,1,0,0:0:0:0:
256,192,6703,1,0,0:0:0:0:
402,192,6703,1,0,0:0:0:0:
182,192,6871,1,0,0:0:0:0:
329,192,6871,1,0,0:0:0:0:
475,192,6871,1,0,0:0:0:0:
36,192,6955,1,0,0:0:0:0:
109,192,7039,1,0,0:0:0:0:
256,192,7039,1,0,0:0:0:0:
402,192,7039,1,0,0:0:0:0:
182,192,7122,1,0,0:0:0:0:
475,192,7122,1,0,0:0:0:0:
109,192,7206,1,0,0:0:0:0:
402,192,7206,1,0,0:0:0:0:
36,192,7290,1,0,0:0:0:0:
256,192,7290,1,0,0:0:0:0:
182,192,7374,1,0,0:0:0:0:
109,192,7458,1,0,0:0:0:0:
329,192,7458,1,0,0:0:0:0:
256,192,7541,1,0,0:0:0:0:
402,192,7541,1,0,0:0:0:0:
109,192,7625,1,0,0:0:0:0:
475,192,7625,1,0,0:0:0:0:
36,192,7709,1,0,0:0:0:0:
256,192,7709,1,0,0:0:0:0:
402,192,7709,1,0,0:0:0:0:
182,192,7793,1,0,0:0:0:0:
329,192,7793,1,0,0:0:0:0:
109,192,7877,1,0,0:0:0:0:
256,192,7877,1,0,0:0:0:0:
475,192,7877,1,0,0:0:0:0:
36,192,7960,1,0,0:0:0:0:
182,192,7960,1,0,0:0:0:0:
402,192,8044,1,0,0:0:0:0:
109,192,8128,1,0,0:0:0:0:
329,192,8128,1,0,0:0:0:0:
182,192,8212,1,0,0:0:0:0:
256,192,8212,1,0,0:0:0:0:
475,192,8212,1,0,0:0:0:0:
36,192,8296,1,0,0:0:0:0:
109,192,8379,1,0,0:0:0:0:
329,192,8379,1,0,0:0:0:0:
402,192,8379,1,0,0:0:0:0:
256,192,8463,1,0,0:0:0:0:
475,192,8463,1,0,0:0:0:0:
109,192,8547,1,0,0:0:0:0:
402,192,8547,1,0,0:0:0:0:
182,192,8631,1,0,0:0:0:0:
329,192,8631,1,0,0:0:0:0:
36,192,8715,1,0,0:0:0:0:
182,192,8715,1,0,0:0:0:0:
475,192,8798,1,0,0:0:0:0:
109,192,8882,1,0,0:0:0:0:
256,192,8882,1,0,0:0:0:0:
329,192,8966,1,0,0:0:0:0:
36,192,9050,1,0,0:0:0:0:
182,192,9050,1,0,0:0:0:0:
402,192,9050,1,0,0:0:0:0:
475,192,9050,1,0,0:0:0:0:
182,192,9134,1,0,0:0:0:0:
109,192,9217,1,0,0:0:0:0:
256,192,9217,1,0,0:0:0:0:
402,192,9217,1,0,0:0:0:0:
475,192,9217,1,0,0:0:0:0:
402,192,9301,1,0,0:0:0:0:
36,192,9385,1,0,0:0:0:0:
256,192,9385,1,0,0:0:0:0:
329,192,9385,1,0,0:0:0:0:
182,192,9553,1,0,0:0:0:0:
402,192,9553,1,0,0:0:0:0:
475,192,9553,1,0,0:0:0:0:
36,192,9636,1,0,0:0:0:0:
109,192,9720,1,0,0:0:0:0:
256,192,9720,1,0,0:0:0:0:
402,192,9720,1,0,0:0:0:0:
182,192,9804,1,0,0:0:0:0:
475,192,9804,1,0,0:0:0:0:
109,192,9888,1,0,0:0:0:0:
329,192,9888,1,0,0:0:0:0:
36,192,9972,1,0,0:0:0:0:
256,192,9972,1,0,0:0:0:0:
182,192,10055,1,0,0:0:0:0:
109,192,10139,1,0,0:0:0:0:
329,192,10139,1,0,0:0:0:0:
182,192,10223,1,0,0:0:0:0:
256,192,10223,1,0,0:0:0:0:
109,192,10307,1,0,0:0:0:0:
475,192,10307,1,0,0:0:0:0:
36,192,10391,1,0,0:0:0:0:
256,192,10391,1,0,0:0:0:0:
402,192,10391,1,0,0:0:0:0:
182,192,10474,1,0,0:0:0:0:
329,192,10474,1,0,0:0:0:0:
109,192,10558,1,0,0:0:0:0:
256,192,10558,1,0,0:0:0:0:
475,192,10558,1,0,0:0:0:0:
36,192,10642,1,0,0:0:0:0:
182,192,10642,1,0,0:0:0:0:
402,192,10726,1,0,0:0:0:0:
36,192,10810,1,0,0:0:0:0:
329,192,10810,1,0,0:0:0:0:
182,192,10893,1,0,0:0:0:0:
256,192,10893,1,0,0:0:0:0:
475,192,10893,1,0,0:0:0:0:
36,192,10977,1,0,0:0:0:0:
109,192,11061,1,0,0:0:0:0:
329,192,11061,1,0,0:0:0:0:
402,192,11061,1,0,0:0:0:0:
182,192,11145,1,0,0:0:0:0:
475,192,11145,1,0,0:0:0:0:
109,192,11229,1,0,0:0:0:0:
256,192,11229,1,0,0:0:0:0:
329,192,11312,1,0,0:0:0:0:
402,192,11312,1,0,0:0:0:0:
36,192,11396,1,0,0:0:0:0:
182,192,11396,1,0,0:0:0:0:
109,192,11480,1,0,0:0:0:0:
329,192,11480,1,0,0:0:0:0:
36,192,11564,1,0,0:0:0:0:
256,192,11564,1,0,0:0:0:0:
402,192,11564,1,0,0:0:0:0:
329,192,11648,1,0,0:0:0:0:
475,192,11648,1,0,0:0:0:0:
109,192,11731,1,0,0:0:0:0:
256,192,11731,1,0,0:0:0:0:
402,192,11731,1,0,0:0:0:0:
36,192,11815,1,0,0:0:0:0:
402,192,11815,1,0,0:0:0:0:
182,192,11899,1,0,0:0:0:0:
329,192,11899,1,0,0:0:0:0:
475,192,11899,1,0,0:0:0:0:
109,192,11983,1,0,0:0:0:0:
256,192,11983,1,0,0:0:0:0:
36,192,12067,1,0,0:0:0:0:
182,192,12067,1,0,0:0:0:0:
329,192,12067,1,0,0:0:0:0:
402,192,12067,1,0,0:0:0:0:
109,192,12234,1,0,0:0:0:0:
329,192,12234,1,0,0:0:0:0:
402,192,12234,1,0,0:0:0:0:
256,192,12318,1,0,0:0:0:0:
36,192,12402,1,0,0:0:0:0:
109,192,12402,1,0,0:0:0:0:
329,192,12402,1,0,0:0:0:0:
475,192,12402,1,0,0:0:0:0:
182,192,12486,1,0,0:0:0:0:
402,192,12486,1,0,0:0:0:0:
109,192,12569,1,0,0:0:0:0:
329,192,12569,1,0,0:0:0:0:
36,192,12653,1,0,0:0:0:0:
256,192,12653,1,0,0:0:0:0:
109,192,12737,1,0,0:0:0:0:
475,192,12737,1,0,0:0:0:0:
182,192,12821,1,0,0:0:0:0:
329,192,12821,1,0,0:0:0:0:
36,192,12905,1,0,0:0:0:0:
402,192,12905,1,0,0:0:0:0:
109,192,12988,1,0,0:0:0:0:
329,192,12988,1,0,0:0:0:0:
36,192,13072,1,0,0:0:0:0:
256,192,13072,1,0,0:0:0:0:
402,192,13072,1,0,0:0:0:0:
475,192,13072,1,0,0:0:0:0:
182,192,13156,1,0,0:0:0:0:
329,192,13156,1,0,0:0:0:0:
109,192,13240,1,0,0:0:0:0:
256,192,13240,1,0,0:0:0:0:
475,192,13240,1,0,0:0:0:0:
36,192,13324,1,0,0:0:0:0:
182,192,13324,1,0,0:0:0:0:
109,192,13407,1,0,0:0:0:0:
329,192,13407,1,0,0:0:0:0:
36,192,13491,1,0,0:0:0:0:
256,192,13491,1,0,0:0:0:0:
182,192,13575,1,0,0:0:0:0:
402,192,13575,1,0,0:0:0:0:
475,192,13575,1,0,0:0:0:0:
256,192,13659,1,0,0:0:0:0:
36,192,13743,1,0,0:0:0:0:
109,192,13743,1,0,0:0:0:0:
329,192,13743,1,0,0:0:0:0:
475,192,13743,1,0,0:0:0:0:
182,192,13826,1,0,0:0:0:0:
402,192,13826,1,0,0:0:0:0:
109,192,13910,1,0,0:0:0:0:
475,192,13910,1,0,0:0:0:0:
36,192,13994,1,0,0:0:0:0:
256,192,13994,1,0,0:0:0:0:
256,192,14078,1,0,0:0:0:0:
402,192,14078,1,0,0:0:0:0:
475,192,14078,1,0,0:0:0:0:
109,192,14162,1,0,0:0:0:0:
36,192,14245,1,0,0:0:0:0:
329,192,14245,1,0,0:0:0:0:
182,192,14329,1,0,0:0:0:0:
36,192,14413,1,0,0:0:0:0:
109,192,14413,1,0,0:0:0:0:
256,192,14413,1,0,0:0:0:0:
402,192,14413,1,0,0:0:0:0:
475,192,14413,1,0,0:0:0:0:
256,192,14497,1,0,0:0:0:0:
109,192,14581,1,0,0:0:0:0:
329,192,14581,1,0,0:0:0:0:
475,192,14581,1,0,0:0:0:0:
329,192,14664,1,0,0:0:0:0:
36,192,14748,1,0,0:0:0:0:
182,192,14748,1,0,0:0:0:0:
256,192,14748,1,0,0:0:0:0:
402,192,14748,1,0,0:0:0:0:
109,192,14916,1,0,0:0:0:0:
329,192,14916,1,0,0:0:0:0:
475,192,14916,1,0,0:0:0:0:
256,192,15000,1,0,0:0:0:0:
36,192,15083,1,0,0:0:0:0:
109,192,15083,1,0,0:0:0:0:
329,192,15083,1,0,0:0:0:0:
402,192,15083,1,0,0:0:0:0:
182,192,15167,1,0,0:0:0:0:
475,192,15167,1,0,0:0:0:0:
109,192,15251,1,0,0:0:0:0:
402,192,15251,1,0,0:0:0:0:
36,192,15335,1,0,0:0:0:0:
329,192,15335,1,0,0:0:0:0:
109,192,15418,1,0,0:0:0:0:
256,192,15418,1,0,0:0:0:0:
182,192,15502,1,0,0:0:0:0:
329,192,15502,1,0,0:0:0:0:
256,192,15586,1,0,0:0:0:0:
402,192,15586,1,0,0:0:0:0:
109,192,15670,1,0,0:0:0:0:
329,192,15670,1,0,0:0:0:0:
36,192,15754,1,0,0:0:0:0:
256,192,15754,1,0,0:0:0:0:
475,192,15754,1,0,0:0:0:0:
182,192,15837,1,0,0:0:0:0:
402,192,15837,1,0,0:0:0:0:
109,192,15921,1,0,0:0:0:0:
329,192,15921,1,0,0:0:0:0:
475,192,15921,1,0,0:0:0:0:
36,192,16005,1,0,0:0:0:0:
182,192,16005,1,0,0:0:0:0:
109,192,16089,1,0,0:0:0:0:
402,192,16089,1,0,0:0:0:0:
36,192,16173,1,0,0:0:0:0:
256,192,16173,1,0,0:0:0:0:
182,192,16256,1,0,0:0:0:0:
402,192,16256,1,0,0:0:0:0:
475,192,16256,1,0,0:0:0:0:
256,192,16340,1,0,0:0:0:0:
36,192,16424,1,0,0:0:0:0:
109,192,16424,1,0,0:0:0:0:
329,192,16424,1,0,0:0:0:0:
475,192,16424,1,0,0:0:0:0:
182,192,16508,1,0,0:0:0:0:
402,192,16508,1,0,0:0:0:0:
256,192,16592,1,0,0:0:0:0:
475,192,16592,1,0,0:0:0:0:
36,192,16675,1,0,0:0:0:0:
329,192,16675,1,0,0:0:0:0:
109,192,16759,1,0,0:0:0:0:
329,192,16759,1,0,0:0:0:0:
475,192,16759,1,0,0:0:0:0:
402,192,16843,1,0,0:0:0:0:
182,192,16927,1,0,0:0:0:0:
256,192,16927,1,0,0:0:0:0:
475,192,17011,1,0,0:0:0:0:
36,192,17094,1,0,0:0:0:0:
109,192,17094,1,0,0:0:0:0:
329,192,17094,1,0,0:0:0:0:
402,192,17094,1,0,0:0:0:0:
256,192,17178,1,0,0:0:0:0:
182,192,17262,1,0,0:0:0:0:
402,192,17262,1,0,0:0:0:0:
475,192,17262,1,0,0:0:0:0:
329,192,17346,1,0,0:0:0:0:
36,192,17430,1,0,0:0:0:0:
109,192,17430,1,0,0:0:0:0:
256,192,17430,1,0,0:0:0:0:
402,192,17430,1,0,0:0:0:0:
182,192,17597,1,0,0:0:0:0:
329,192,17597,1,0,0:0:0:0:
475,192,17597,1,0,0:0:0:0:
36,192,17681,1,0,0:0:0:0:
109,192,17765,1,0,0:0:0:0:
256,192,17765,1,0,0:0:0:0:
329,192,17765,1,0,0:0:0:0:
402,192,17765,1,0,0:0:0:0:
182,192,17849,1,0,0:0:0:0:
475,192,17849,1,0,0:0:0:0:
109,192,17932,1,0,0:0:0:0:
329,192,17932,1,0,0:0:0:0:
36,192,18016,1,0,0:0:0:0:
256,192,18016,1,0,0:0:0:0:
182,192,18100,1,0,0:0:0:0:
475,192,18100,1,0,0:0:0:0:
109,192,18184,1,0,0:0:0:0:
329,192,18184,1,0,0:0:0:0:
36,192,18268,1,0,0:0:0:0:
256,192,18268,1,0,0:0:0:0:
109,192,18351,1,0,0:0:0:0:
329,192,18351,1,0,0:0:0:0:
36,192,18435,1,0,0:0:0:0:
256,192,18435,1,0,0:0:0:0:
402,192,18435,1,0,0:0:0:0:
475,192,18435,1,0,0:0:0:0:
182,192,18519,1,0,0:0:0:0:
329,192,18519,1,0,0:0:0:0:
109,192,18603,1,0,0:0:0:0:
256,192,18603,1,0,0:0:0:0:
402,192,18603,1,0,0:0:0:0:
36,192,18687,1,0,0:0:0:0:
182,192,18687,1,0,0:0:0:0:
329,192,18770,1,0,0:0:0:0:
475,192,18770,1,0,0:0:0:0:
109,192,18854,1,0,0:0:0:0:
402,192,18854,1,0,0:0:0:0:
182,192,18938,1,0,0:0:0:0:
256,192,18938,1,0,0:0:0:0:
475,192,18938,1,0,0:0:0:0:
36,192,19022,1,0,0:0:0:0:
109,192,19106,1,0,0:0:0:0:
256,192,19106,1,0,0:0:0:0:
329,192,19106,1,0,0:0:0:0:
402,192,19106,1,0,0:0:0:0:
182,192,19189,1,0,0:0:0:0:
475,192,19189,1,0,0:0:0:0:
329,192,19273,1,0,0:0:0:0:
402,192,19273,1,0,0:0:0:0:
109,192,19357,1,0,0:0:0:0:
256,192,19357,1,0,0:0:0:0:
36,192,19441,1,0,0:0:0:0:
109,192,19441,1,0,0:0:0:0:
475,192,19441,1,0,0:0:0:0:
329,192,19525,1,0,0:0:0:0:
109,192,19608,1,0,0:0:0:0:
256,192,19608,1,0,0:0:0:0:
402,192,19692,1,0,0:0:0:0:
36,192,19776,1,0,0:0:0:0:
109,192,19776,1,0,0:0:0:0:
182,192,19776,1,0,0:0:0:0:
329,192,19776,1,0,0:0:0:0:
475,192,19776,1,0,0:0:0:0:
109,192,19860,1,0,0:0:0:0:
256,192,19944,1,0,0:0:0:0:
402,192,19944,1,0,0:0:0:0:
475,192,19944,1,0,0:0:0:0:
402,192,20027,1,0,0:0:0:0:
36,192,20111,1,0,0:0:0:0:
182,192,20111,1,0,0:0:0:0:
329,192,20111,1,0,0:0:0:0:
475,192,20111,1,0,0:0:0:0:
182,192,20279,1,0,0:0:0:0:
402,192,20279,1,0,0:0:0:0:
475,192,20279,1,0,0:0:0:0:
36,192,20363,1,0,0:0:0:0:
109,192,20446,1,0,0:0:0:0:
256,192,20446,1,0,0:0:0:0:
329,192,20446,1,0,0:0:0:0:
402,192,20446,1,0,0:0:0:0:
182,192,20530,1,0,0:0:0:0:
475,192,20530,1,0,0:0:0:0:
109,192,20614,1,0,0:0:0:0:
329,192,20614,1,0,0:0:0:0:
36,192,20698,1,0,0:0:0:0:
256,192,20698,1,0,0:0:0:0:
182,192,20782,1,0,0:0:0:0:
402,192,20782,1,0,0:0:0:0:
109,192,20865,1,0,0:0:0:0:
329,192,20865,1,0,0:0:0:0:
256,192,20949,1,0,0:0:0:0:
402,192,20949,1,0,0:0:0:0:
109,192,21033,1,0,0:0:0:0:
475,192,21033,1,0,0:0:0:0:
36,192,21117,1,0,0:0:0:0:
256,192,21117,1,0,0:0:0:0:
402,192,21117,1,0,0:0:0:0:
182,192,21201,1,0,0:0:0:0:
329,192,21201,1,0,0:0:0:0:
109,192,21284,1,0,0:0:0:0:
256,192,21284,1,0,0:0:0:0:
402,192,21284,1,0,0:0:0:0:
36,192,21368,1,0,0:0:0:0:
182,192,21368,1,0,0:0:0:0:
329,192,21452,1,0,0:0:0:0:
475,192,21452,1,0,0:0:0:0:
109,192,21536,1,0,0:0:0:0:
402,192,21536,1,0,0:0:0:0:
182,192,21620,1,0,0:0:0:0:
256,192,21620,1,0,0:0:0:0:
475,192,21620,1,0,0:0:0:0:
36,192,21703,1,0,0:0:0:0:
109,192,21787,1,0,0:0:0:0:
256,192,21787,1,0,0:0:0:0:
402,192,21787,1,0,0:0:0:0:
475,192,21787,1,0,0:0:0:0:
182,192,21871,1,0,0:0:0:0:
329,192,21871,1,0,0:0:0:0:
256,192,21955,1,0,0:0:0:0:
475,192,21955,1,0,0:0:0:0:
36,192,22039,1,0,0:0:0:0:
402,192,22039,1,0,0:0:0:0:
109,192,22122,1,0,0:0:0:0:
182,192,22122,1,0,0:0:0:0:
329,192,22122,1,0,0:0:0:0:
36,192,22206,1,0,0:0:0:0:
475,192,22206,1,0,0:0:0:0:
256,192,22290,1,0,0:0:0:0:
329,192,22290,1,0,0:0:0:0:
36,192,22374,1,0,0:0:0:0:
475,192,22374,1,0,0:0:0:0:
109,192,22458,1,0,0:0:0:0:
182,192,22458,1,0,0:0:0:0:
256,192,22458,1,0,0:0:0:0:
402,192,22458,1,0,0:0:0:0:
36,192,22541,1,0,0:0:0:0:
329,192,22541,1,0,0:0:0:0:
109,192,22625,1,0,0:0:0:0:
256,192,22625,1,0,0:0:0:0:
475,192,22625,1,0,0:0:0:0:
182,192,22709,1,0,0:0:0:0:
36,192,22793,1,0,0:0:0:0:
256,192,22793,1,0,0:0:0:0:
402,192,22793,1,0,0:0:0:0:
182,192,22960,1,0,0:0:0:0:
402,192,22960,1,0,0:0:0:0:
475,192,22960,1,0,0:0:0:0:
36,192,23128,1,0,0:0:0:0:
109,192,23128,1,0,0:0:0:0:
329,192,23128,1,0,0:0:0:0:
182,192,23212,1,0,0:0:0:0:
256,192,23212,1,0,0:0:0:0:
475,192,23212,1,0,0:0:0:0:
36,192,23296,1,0,0:0:0:0:
109,192,23296,1,0,0:0:0:0:
329,192,23296,1,0,0:0:0:0:
402,192,23296,1,0,0:0:0:0:
182,192,23379,1,0,0:0:0:0:
109,192,23463,1,0,0:0:0:0:
256,192,23463,1,0,0:0:0:0:
402,192,23463,1,0,0:0:0:0:
475,192,23463,1,0,0:0:0:0:
36,192,23631,1,0,0:0:0:0:
182,192,23631,1,0,0:0:0:0:
402,192,23631,1,0,0:0:0:0:
109,192,23798,1,0,0:0:0:0:
182,192,23798,1,0,0:0:0:0:
329,192,23798,1,0,0:0:0:0:
256,192,23882,1,0,0:0:0:0:
402,192,23882,1,0,0:0:0:0:
475,192,23882,1,0,0:0:0:0:
109,192,23966,1,0,0:0:0:0:
329,192,23966,1,0,0:0:0:0:
36,192,24050,1,0,0:0:0:0:
182,192,24050,1,0,0:0:0:0:
475,192,24050,1,0,0:0:0:0:
109,192,24134,1,0,0:0:0:0:
256,192,24134,1,0,0:0:0:0:
402,192,24134,1,0,0:0:0:0:
182,192,24301,1,0,0:0:0:0:
329,192,24301,1,0,0:0:0:0:
475,192,24301,1,0,0:0:0:0:
36,192,24469,1,0,0:0:0:0:
109,192,24469,1,0,0:0:0:0:
256,192,24469,1,0,0:0:0:0:
182,192,24553,1,0,0:0:0:0:
402,192,24553,1,0,0:0:0:0:
36,192,24636,1,0,0:0:0:0:
256,192,24636,1,0,0:0:0:0:
475,192,24636,1,0,0:0:0:0:
182,192,24720,1,0,0:0:0:0:
329,192,24720,1,0,0:0:0:0:
109,192,24804,1,0,0:0:0:0:
402,192,24804,1,0,0:0:0:0:
475,192,24804,1,0,0:0:0:0:
329,192,24888,1,0,0:0:0:0:
36,192,24972,1,0,0:0:0:0:
109,192,24972,1,0,0:0:0:0:
256,192,24972,1,0,0:0:0:0:
402,192,24972,1,0,0:0:0:0:
182,192,25139,1,0,0:0:0:0:
329,192,25139,1,0,0:0:0:0:
475,192,25139,1,0,0:0:0:0:
36,192,25307,1,0,0:0:0:0:
109,192,25307,1,0,0:0:0:0:
256,192,25307,1,0,0:0:0:0:
402,192,25307,1,0,0:0:0:0:
475,192,25391,1,0,0:0:0:0:
36,192,25474,1,0,0:0:0:0:
182,192,25474,1,0,0:0:0:0:
329,192,25474,1,0,0:0:0:0:
109,192,25642,1,0,0:0:0:0:
182,192,25642,1,0,0:0:0:0:
402,192,25642,1,0,0:0:0:0:
36,192,25810,1,0,0:0:0:0:
109,192,25810,1,0,0:0:0:0:
329,192,25810,1,0,0:0:0:0:
256,192,25893,1,0,0:0:0:0:
402,192,25893,1,0,0:0:0:0:
475,192,25893,1,0,0:0:0:0:
36,192,25977,1,0,0:0:0:0:
182,192,25977,1,0,0:0:0:0:
329,192,25977,1,0,0:0:0:0:
109,192,26061,1,0,0:0:0:0:
256,192,26145,1,0,0:0:0:0:
329,192,26145,1,0,0:0:0:0:
402,192,26145,1,0,0:0:0:0:
475,192,26145,1,0,0:0:0:0:
36,192,26312,1,0,0:0:0:0:
182,192,26312,1,0,0:0:0:0:
402,192,26312,1,0,0:0:0:0:
109,192,26480,1,0,0:0:0:0:
329,192,26480,1,0,0:0:0:0:
256,192,26564,1,0,0:0:0:0:
475,192,26564,1,0,0:0:0:0:
109,192,26648,1,0,0:0:0:0:
329,192,26648,1,0,0:0:0:0:
36,192,26731,1,0,0:0:0:0:
182,192,26731,1,0,0:0:0:0:
109,192,26815,1,0,0:0:0:0:
256,192,26815,1,0,0:0:0:0:
475,192,26815,1,0,0:0:0:0:
182,192,26983,1,0,0:0:0:0:
329,192,26983,1,0,0:0:0:0:
402,192,26983,1,0,0:0:0:0:
36,192,27150,1,0,0:0:0:0:
109,192,27150,1,0,0:0:0:0:
256,192,27150,1,0,0:0:0:0:
182,192,27234,1,0,0:0:0:0:
402,192,27234,1,0,0:0:0:0:
36,192,27318,1,0,0:0:0:0:
256,192,27318,1,0,0:0:0:0:
475,192,27318,1,0,0:0:0:0:
182,192,27402,1,0,0:0:0:0:
402,192,27402,1,0,0:0:0:0:
109,192,27486,1,0,0:0:0:0:
329,192,27486,1,0,0:0:0:0:
475,192,27486,1,0,0:0:0:0:
36,192,27653,1,0,0:0:0:0:
256,192,27653,1,0,0:0:0:0:
402,192,27653,1,0,0:0:0:0:
109,192,27821,1,0,0:0:0:0:
182,192,27821,1,0,0:0:0:0:
329,192,27821,1,0,0:0:0:0:
256,192,27988,1,0,0:0:0:0:
402,192,27988,1,0,0:0:0:0:
475,192,27988,1,0,0:0:0:0:
329,192,28072,1,0,0:0:0:0:
36,192,28156,1,0,0:0:0:0:
109,192,28156,1,0,0:0:0:0:
256,192,28156,1,0,0:0:0:0:
182,192,28324,1,0,0:0:0:0:
402,192,28324,1,0,0:0:0:0:
475,192,28324,1,0,0:0:0:0:
36,192,28491,1,0,0:0:0:0:
109,192,28491,1,0,0:0:0:0:
329,192,28491,1,0,0:0:0:0:
182,192,28575,1,0,0:0:0:0:
256,192,28575,1,0,0:0:0:0:
475,192,28575,1,0,0:0:0:0:
109,192,28659,1,0,0:0:0:0:
329,192,28659,1,0,0:0:0:0:
402,192,28659,1,0,0:0:0:0:
36,192,28743,1,0,0:0:0:0:
182,192,28826,1,0,0:0:0:0:
256,192,28826,1,0,0:0:0:0:
402,192,28826,1,0,0:0:0:0:
475,192,28826,1,0,0:0:0:0:
36,192,28994,1,0,0:0:0:0:
182,192,28994,1,0,0:0:0:0:
402,192,28994,1,0,0:0:0:0:
109,192,29162,1,0,0:0:0:0:
329,192,29162,1,0,0:0:0:0:
256,192,29245,1,0,0:0:0:0:
475,192,29245,1,0,0:0:0:0:
109,192,29329,1,0,0:0:0:0:
329,192,29329,1,0,0:0:0:0:
36,192,29413,1,0,0:0:0:0:
182,192,29413,1,0,0:0:0:0:
109,192,29497,1,0,0:0:0:0:
256,192,29497,1,0,0:0:0:0:
402,192,29497,1,0,0:0:0:0:
475,192,29497,1,0,0:0:0:0:
182,192,29664,1,0,0:0:0:0:
329,192,29664,1,0,0:0:0:0:
36,192,29832,1,0,0:0:0:0:
109,192,29832,1,0,0:0:0:0:
256,192,29832,1,0,0:0:0:0:
182,192,29916,1,0,0:0:0:0:
402,192,29916,1,0,0:0:0:0:
36,192,30000,1,0,0:0:0:0:
256,192,30000,1,0,0:0:0:0:
475,192,30000,1,0,0:0:0:0:
109,192,30083,1,0,0:0:0:0:
182,192,30083,1,0,0:0:0:0:
402,192,30083,1,0,0:0:0:0:
256,192,30167,1,0,0:0:0:0:
329,192,30167,1,0,0:0:0:0:
475,192,30167,1,0,0:0:0:0:
109,192,30251,1,0,0:0:0:0:
36,192,30335,1,0,0:0:0:0:
182,192,30335,1,0,0:0:0:0:
402,192,30335,1,0,0:0:0:0:
475,192,30377,1,0,0:0:0:0:
402,192,30418,1,0,0:0:0:0:
329,192,30460,1,0,0:0:0:0:
36,192,30502,1,0,0:0:0:0:
109,192,30502,1,0,0:0:0:0:
256,192,30502,1,0,0:0:0:0:
182,192,30670,1,0,0:0:0:0:
329,192,30670,1,0,0:0:0:0:
402,192,30670,1,0,0:0:0:0:
475,192,30754,1,0,0:0:0:0:
109,192,30837,1,0,0:0:0:0:
256,192,30837,1,0,0:0:0:0:
402,192,30837,1,0,0:0:0:0:
36,192,31005,1,0,0:0:0:0:
182,192,31005,1,0,0:0:0:0:
475,192,31005,1,0,0:0:0:0:
109,192,31089,1,0,0:0:0:0:
256,192,31089,1,0,0:0:0:0:
36,192,31173,1,0,0:0:0:0:
182,192,31173,1,0,0:0:0:0:
109,192,31340,1,0,0:0:0:0:
256,192,31340,1,0,0:0:0:0:
402,192,31340,1,0,0:0:0:0:
36,192,31424,1,0,0:0:0:0:
182,192,31508,1,0,0:0:0:0:
329,192,31508,1,0,0:0:0:0:
475,192,31508,1,0,0:0:0:0:
109,192,31675,1,0,0:0:0:0:
256,192,31675,1,0,0:0:0:0:
402,192,31675,1,0,0:0:0:0:
182,192,31759,1,0,0:0:0:0:
329,192,31759,1,0,0:0:0:0:
36,192,31843,1,0,0:0:0:0:
109,192,31843,1,0,0:0:0:0:
182,192,32011,1,0,0:0:0:0:
329,192,32011,1,0,0:0:0:0:
475,192,32011,1,0,0:0:0:0:
36,192,32178,1,0,0:0:0:0:
256,192,32178,1,0,0:0:0:0:
402,192,32178,1,0,0:0:0:0:
109,192,32346,1,0,0:0:0:0:
182,192,32346,1,0,0:0:0:0:
329,192,32346,1,0,0:0:0:0:
256,192,32430,1,0,0:0:0:0:
402,192,32430,1,0,0:0:0:0:
36,192,32513,1,0,0:0:0:0:
182,192,32513,1,0,0:0:0:0:
329,192,32513,1,0,0:0:0:0:
109,192,32681,1,0,0:0:0:0:
256,192,32681,1,0,0:0:0:0:
402,192,32681,1,0,0:0:0:0:
36,192,32849,1,0,0:0:0:0:
182,192,32849,1,0,0:0:0:0:
329,192,32849,1,0,0:0:0:0:
475,192,32849,1,0,0:0:0:0:
109,192,33016,1,0,0:0:0:0:
256,192,33016,1,0,0:0:0:0:
182,192,33184,1,0,0:0:0:0:
402,192,33184,1,0,0:0:0:0:
109,192,33351,1,0,0:0:0:0:
36,192,33519,1,0,0:0:0:0:
182,192,33519,1,0,0:0:0:0:
329,192,33519,1,0,0:0:0:0:
109,192,33687,1,0,0:0:0:0:
256,192,33687,1,0,0:0:0:0:
402,192,33687,1,0,0:0:0:0:
475,192,33687,1,0,0:0:0:0:
36,192,33854,1,0,0:0:0:0:
109,192,33854,1,0,0:0:0:0:
329,192,33854,1,0,0:0:0:0:
182,192,33938,1,0,0:0:0:0:
256,192,33938,1,0,0:0:0:0:
475,192,33938,1,0,0:0:0:0:
36,192,34022,1,0,0:0:0:0:
109,192,34022,1,0,0:0:0:0:
329,192,34022,1,0,0:0:0:0:
402,192,34022,1,0,0:0:0:0:
182,192,34189,1,0,0:0:0:0:
329,192,34189,1,0,0:0:0:0:
475,192,34189,1,0,0:0:0:0:
109,192,34357,1,0,0:0:0:0:
256,192,34357,1,0,0:0:0:0:
402,192,34357,1,0,0:0:0:0:
36,192,34525,1,0,0:0:0:0:
109,192,34525,1,0,0:0:0:0:
329,192,34525,1,0,0:0:0:0:
182,192,34608,1,0,0:0:0:0:
256,192,34608,1,0,0:0:0:0:
475,192,34608,1,0,0:0:0:0:
36,192,34692,1,0,0:0:0:0:
109,192,34692,1,0,0:0:0:0:
329,192,34692,1,0,0:0:0:0:
256,192,34776,1,0,0:0:0:0:
402,192,34776,1,0,0:0:0:0:
475,192,34776,1,0,0:0:0:0:
36,192,34860,1,0,0:0:0:0:
182,192,34860,1,0,0:0:0:0:
329,192,34860,1,0,0:0:0:0:
109,192,35027,1,0,0:0:0:0:
256,192,35027,1,0,0:0:0:0:
402,192,35027,1,0,0:0:0:0:
36,192,35195,1,0,0:0:0:0:
402,192,35195,1,0,0:0:0:0:
475,192,35195,1,0,0:0:0:0:
109,192,35279,1,0,0:0:0:0:
256,192,35279,1,0,0:0:0:0:
329,192,35279,1,0,0:0:0:0:
36,192,35363,1,0,0:0:0:0:
402,192,35363,1,0,0:0:0:0:
475,192,35363,1,0,0:0:0:0:
109,192,35446,1,0,0:0:0:0:
256,192,35446,1,0,0:0:0:0:
329,192,35446,1,0,0:0:0:0:
182,192,35530,1,0,0:0:0:0:
402,192,35530,1,0,0:0:0:0:
475,192,35530,1,0,0:0:0:0:
36,192,35614,1,0,0:0:0:0:
109,192,35698,1,0,0:0:0:0:
256,192,35698,1,0,0:0:0:0:
329,192,35698,1,0,0:0:0:0:
36,192,35865,1,0,0:0:0:0:
182,192,35865,1,0,0:0:0:0:
402,192,35865,1,0,0:0:0:0:
256,192,36033,1,0,0:0:0:0:
329,192,36033,1,0,0:0:0:0:
475,192,36033,1,0,0:0:0:0:
36,192,36201,1,0,0:0:0:0:
109,192,36201,1,0,0:0:0:0:
182,192,36201,1,0,0:0:0:0:
402,192,36201,1,0,0:0:0:0:
256,192,36368,1,0,0:0:0:0:
329,192,36368,1,0,0:0:0:0:
475,192,36368,1,0,0:0:0:0:
36,192,36536,1,0,0:0:0:0:
109,192,36536,1,0,0:0:0:0:
329,192,36536,1,0,0:0:0:0:
182,192,36620,1,0,0:0:0:0:
256,192,36620,1,0,0:0:0:0:
475,192,36620,1,0,0:0:0:0:
36,192,36703,1,0,0:0:0:0:
109,192,36703,1,0,0:0:0:0:
329,192,36703,1,0,0:0:0:0:
182,192,36871,1,0,0:0:0:0:
329,192,36871,1,0,0:0:0:0:
475,192,36871,1,0,0:0:0:0:
109,192,37039,1,0,0:0:0:0:
256,192,37039,1,0,0:0:0:0:
402,192,37039,1,0,0:0:0:0:
36,192,37206,1,0,0:0:0:0:
109,192,37206,1,0,0:0:0:0:
329,192,37206,1,0,0:0:0:0:
182,192,37290,1,0,0:0:0:0:
256,192,37290,1,0,0:0:0:0:
475,192,37290,1,0,0:0:0:0:
36,192,37374,1,0,0:0:0:0:
109,192,37374,1,0,0:0:0:0:
329,192,37374,1,0,0:0:0:0:
256,192,37458,1,0,0:0:0:0:
402,192,37458,1,0,0:0:0:0:
475,192,37458,1,0,0:0:0:0:
36,192,37541,1,0,0:0:0:0:
182,192,37541,1,0,0:0:0:0:
329,192,37541,1,0,0:0:0:0:
109,192,37709,1,0,0:0:0:0:
256,192,37709,1,0,0:0:0:0:
402,192,37709,1,0,0:0:0:0:
36,192,37877,1,0,0:0:0:0:
402,192,37877,1,0,0:0:0:0:
475,192,37877,1,0,0:0:0:0:
256,192,37960,1,0,0:0:0:0:
329,192,37960,1,0,0:0:0:0:
109,192,38044,1,0,0:0:0:0:
402,192,38044,1,0,0:0:0:0:
475,192,38044,1,0,0:0:0:0:
256,192,38128,1,0,0:0:0:0:
329,192,38128,1,0,0:0:0:0:
36,192,38212,1,0,0:0:0:0:
182,192,38212,1,0,0:0:0:0:
402,192,38212,1,0,0:0:0:0:
475,192,38212,1,0,0:0:0:0:
109,192,38379,1,0,0:0:0:0:
256,192,38379,1,0,0:0:0:0:
329,192,38379,1,0,0:0:0:0:
36,192,38547,1,0,0:0:0:0:
182,192,38547,1,0,0:0:0:0:
402,192,38547,1,0,0:0:0:0:
256,192,38715,1,0,0:0:0:0:
329,192,38715,1,0,0:0:0:0:
475,192,38715,1,0,0:0:0:0:
402,192,38798,1,0,0:0:0:0:
36,192,38882,1,0,0:0:0:0:
182,192,38882,1,0,0:0:0:0:
329,192,38882,1,0,0:0:0:0:
109,192,39050,1,0,0:0:0:0:
256,192,39050,1,0,0:0:0:0:
402,192,39050,1,0,0:0:0:0:
36,192,39217,1,0,0:0:0:0:
109,192,39217,1,0,0:0:0:0:
329,192,39217,1,0,0:0:0:0:
182,192,39301,1,0,0:0:0:0:
256,192,39301,1,0,0:0:0:0:
475,192,39301,1,0,0:0:0:0:
36,192,39385,1,0,0:0:0:0:
109,192,39385,1,0,0:0:0:0:
329,192,39385,1,0,0:0:0:0:
182,192,39553,1,0,0:0:0:0:
329,192,39553,1,0,0:0:0:0:
475,192,39553,1,0,0:0:0:0:
109,192,39720,1,0,0:0:0:0:
256,192,39720,1,0,0:0:0:0:
402,192,39720,1,0,0:0:0:0:
36,192,39888,1,0,0:0:0:0:
109,192,39888,1,0,0:0:0:0:
329,192,39888,1,0,0:0:0:0:
182,192,39972,1,0,0:0:0:0:
256,192,39972,1,0,0:0:0:0:
475,192,39972,1,0,0:0:0:0:
36,192,40055,1,0,0:0:0:0:
109,192,40055,1,0,0:0:0:0:
329,192,40055,1,0,0:0:0:0:
256,192,40139,1,0,0:0:0:0:
402,192,40139,1,0,0:0:0:0:
475,192,40139,1,0,0:0:0:0:
36,192,40223,1,0,0:0:0:0:
182,192,40223,1,0,0:0:0:0:
329,192,40223,1,0,0:0:0:0:
109,192,40391,1,0,0:0:0:0:
256,192,40391,1,0,0:0:0:0:
402,192,40391,1,0,0:0:0:0:
36,192,40558,1,0,0:0:0:0:
402,192,40558,1,0,0:0:0:0:
475,192,40558,1,0,0:0:0:0:
109,192,40642,1,0,0:0:0:0:
256,192,40642,1,0,0:0:0:0:
329,192,40642,1,0,0:0:0:0:
36,192,40726,1,0,0:0:0:0:
402,192,40726,1,0,0:0:0:0:
475,192,40726,1,0,0:0:0:0:
109,192,40810,1,0,0:0:0:0:
256,192,40810,1,0,0:0:0:0:
329,192,40810,1,0,0:0:0:0:
182,192,40893,1,0,0:0:0:0:
402,192,40893,1,0,0:0:0:0:
475,192,40893,1,0,0:0:0:0:
109,192,41061,1,0,0:0:0:0:
329,192,41061,1,0,0:0:0:0:
402,192,41103,1,0,0:0:0:0:
329,192,41145,1,0,0:0:0:0:
256,192,41187,1,0,0:0:0:0:
36,192,41229,1,0,0:0:0:0:
182,192,41229,1,0,0:0:0:0:
475,192,41229,1,0,0:0:0:0:
109,192,41396,1,0,0:0:0:0:
256,192,41396,1,0,0:0:0:0:
475,192,41396,1,0,0:0:0:0:
329,192,41480,1,0,0:0:0:0:
256,192,41564,1,0,0:0:0:0:
402,192,41564,1,0,0:0:0:0:
475,192,41564,1,0,0:0:0:0:
36,192,41731,1,0,0:0:0:0:
109,192,41731,1,0,0:0:0:0:
182,192,41731,1,0,0:0:0:0:
256,192,41815,1,0,0:0:0:0:
402,192,41815,1,0,0:0:0:0:
475,192,41815,1,0,0:0:0:0:
36,192,41899,1,0,0:0:0:0:
109,192,41899,1,0,0:0:0:0:
182,192,41899,1,0,0:0:0:0:
256,192,42067,1,0,0:0:0:0:
402,192,42067,1,0,0:0:0:0:
475,192,42067,1,0,0:0:0:0:
109,192,42234,1,0,0:0:0:0:
329,192,42234,1,0,0:0:0:0:
475,192,42234,1,0,0:0:0:0:
36,192,42402,1,0,0:0:0:0:
256,192,42402,1,0,0:0:0:0:
182,192,42444,1,0,0:0:0:0:
402,192,42444,1,0,0:0:0:0:
36,192,42486,1,0,0:0:0:0:
256,192,42486,1,0,0:0:0:0:
109,192,42569,1,0,0:0:0:0:
329,192,42569,1,0,0:0:0:0:
475,192,42569,1,0,0:0:0:0:
36,192,42737,1,0,0:0:0:0:
256,192,42737,1,0,0:0:0:0:
402,192,42737,1,0,0:0:0:0:
109,192,42905,1,0,0:0:0:0:
182,192,42905,1,0,0:0:0:0:
329,192,42905,1,0,0:0:0:0:
475,192,42905,1,0,0:0:0:0:
256,192,43072,1,0,0:0:0:0:
109,192,43240,1,0,0:0:0:0:
329,192,43407,1,0,0:0:0:0:
182,192,43575,1,0,0:0:0:0:
402,192,43743,1,0,0:0:0:0:
256,192,43910,1,0,0:0:0:0:
475,192,44078,1,0,0:0:0:0:
36,192,44245,1,0,0:0:0:0:
182,192,44245,1,0,0:0:0:0:
329,192,44245,1,0,0:0:0:0:
109,192,44413,1,0,0:0:0:0:
402,192,44413,1,0,0:0:0:0:
182,192,44581,1,0,0:0:0:0:
256,192,44581,1,0,0:0:0:0:
402,192,44664,1,0,0:0:0:0:
475,192,44664,1,0,0:0:0:0:
182,192,44748,1,0,0:0:0:0:
256,192,44748,1,0,0:0:0:0:
36,192,44832,1,0,0:0:0:0:
329,192,44916,1,0,0:0:0:0:
475,192,44916,1,0,0:0:0:0:
109,192,45083,1,0,0:0:0:0:
182,192,45083,1,0,0:0:0:0:
402,192,45083,1,0,0:0:0:0:
36,192,45167,1,0,0:0:0:0:
109,192,45251,1,0,0:0:0:0:
256,192,45251,1,0,0:0:0:0:
329,192,45251,1,0,0:0:0:0:
402,192,45335,1,0,0:0:0:0:
475,192,45335,1,0,0:0:0:0:
256,192,45418,1,0,0:0:0:0:
329,192,45418,1,0,0:0:0:0:
109,192,45502,1,0,0:0:0:0:
182,192,45502,1,0,0:0:0:0:
36,192,45586,1,0,0:0:0:0:
329,192,45586,1,0,0:0:0:0:
402,192,45586,1,0,0:0:0:0:
109,192,45754,1,0,0:0:0:0:
256,192,45754,1,0,0:0:0:0:
475,192,45754,1,0,0:0:0:0:
36,192,45921,1,0,0:0:0:0:
182,192,45921,1,0,0:0:0:0:
402,192,45921,1,0,0:0:0:0:
256,192,46005,1,0,0:0:0:0:
109,192,46089,1,0,0:0:0:0:
182,192,46089,1,0,0:0:0:0:
329,192,46089,1,0,0:0:0:0:
256,192,46173,1,0,0:0:0:0:
402,192,46173,1,0,0:0:0:0:
36,192,46256,1,0,0:0:0:0:
329,192,46256,1,0,0:0:0:0:
475,192,46256,1,0,0:0:0:0:
182,192,46340,1,0,0:0:0:0:
402,192,46340,1,0,0:0:0:0:
36,192,46424,1,0,0:0:0:0:
256,192,46424,1,0,0:0:0:0:
475,192,46424,1,0,0:0:0:0:
182,192,46508,1,0,0:0:0:0:
402,192,46508,1,0,0:0:0:0:
36,192,46592,1,0,0:0:0:0:
109,192,46592,1,0,0:0:0:0:
256,192,46592,1,0,0:0:0:0:
329,192,46592,1,0,0:0:0:0:
402,192,46675,1,0,0:0:0:0:
182,192,46759,1,0,0:0:0:0:
256,192,46759,1,0,0:0:0:0:
475,192,46759,1,0,0:0:0:0:
402,192,46843,1,0,0:0:0:0:
36,192,46927,1,0,0:0:0:0:
109,192,46927,1,0,0:0:0:0:
182,192,46927,1,0,0:0:0:0:
329,192,46927,1,0,0:0:0:0:
182,192,47094,1,0,0:0:0:0:
402,192,47094,1,0,0:0:0:0:
475,192,47094,1,0,0:0:0:0:
36,192,47262,1,0,0:0:0:0:
109,192,47262,1,0,0:0:0:0:
256,192,47262,1,0,0:0:0:0:
329,192,47346,1,0,0:0:0:0:
402,192,47346,1,0,0:0:0:0:
36,192,47430,1,0,0:0:0:0:
109,192,47430,1,0,0:0:0:0:
256,192,47430,1,0,0:0:0:0:
329,192,47597,1,0,0:0:0:0:
475,192,47597,1,0,0:0:0:0:
256,192,47681,1,0,0:0:0:0:
182,192,47765,1,0,0:0:0:0:
402,192,47765,1,0,0:0:0:0:
475,192,47849,1,0,0:0:0:0:
36,192,47932,1,0,0:0:0:0:
109,192,47932,1,0,0:0:0:0:
256,192,47932,1,0,0:0:0:0:
329,192,47932,1,0,0:0:0:0:
402,192,48016,1,0,0:0:0:0:
475,192,48016,1,0,0:0:0:0:
109,192,48100,1,0,0:0:0:0:
256,192,48100,1,0,0:0:0:0:
329,192,48100,1,0,0:0:0:0:
36,192,48184,1,0,0:0:0:0:
182,192,48184,1,0,0:0:0:0:
109,192,48268,1,0,0:0:0:0:
329,192,48268,1,0,0:0:0:0:
402,192,48268,1,0,0:0:0:0:
475,192,48268,1,0,0:0:0:0:
109,192,48435,1,0,0:0:0:0:
256,192,48435,1,0,0:0:0:0:
402,192,48435,1,0,0:0:0:0:
36,192,48603,1,0,0:0:0:0:
182,192,48603,1,0,0:0:0:0:
475,192,48603,1,0,0:0:0:0:
329,192,48687,1,0,0:0:0:0:
109,192,48770,1,0,0:0:0:0:
182,192,48770,1,0,0:0:0:0:
256,192,48770,1,0,0:0:0:0:
329,192,48854,1,0,0:0:0:0:
36,192,48938,1,0,0:0:0:0:
402,192,48938,1,0,0:0:0:0:
475,192,48938,1,0,0:0:0:0:
182,192,49022,1,0,0:0:0:0:
109,192,49106,1,0,0:0:0:0:
402,192,49106,1,0,0:0:0:0:
475,192,49148,1,0,0:0:0:0:
402,192,49189,1,0,0:0:0:0:
329,192,49231,1,0,0:0:0:0:
36,192,49273,1,0,0:0:0:0:
182,192,49273,1,0,0:0:0:0:
256,192,49273,1,0,0:0:0:0:
109,192,49441,1,0,0:0:0:0:
402,192,49441,1,0,0:0:0:0:
475,192,49441,1,0,0:0:0:0:
36,192,49608,1,0,0:0:0:0:
256,192,49608,1,0,0:0:0:0:
329,192,49608,1,0,0:0:0:0:
109,192,49776,1,0,0:0:0:0:
182,192,49776,1,0,0:0:0:0:
402,192,49776,1,0,0:0:0:0:
256,192,49860,1,0,0:0:0:0:
36,192,49944,1,0,0:0:0:0:
109,192,49944,1,0,0:0:0:0:
182,192,49944,1,0,0:0:0:0:
109,192,50111,1,0,0:0:0:0:
256,192,50111,1,0,0:0:0:0:
329,192,50111,1,0,0:0:0:0:
36,192,50279,1,0,0:0:0:0:
182,192,50279,1,0,0:0:0:0:
402,192,50279,1,0,0:0:0:0:
475,192,50279,1,0,0:0:0:0:
256,192,50363,1,0,0:0:0:0:
109,192,50446,1,0,0:0:0:0:
329,192,50446,1,0,0:0:0:0:
402,192,50446,1,0,0:0:0:0:
182,192,50530,1,0,0:0:0:0:
109,192,50614,1,0,0:0:0:0:
256,192,50614,1,0,0:0:0:0:
475,192,50614,1,0,0:0:0:0:
36,192,50782,1,0,0:0:0:0:
182,192,50782,1,0,0:0:0:0:
402,192,50782,1,0,0:0:0:0:
109,192,50865,1,0,0:0:0:0:
36,192,50949,1,0,0:0:0:0:
182,192,50949,1,0,0:0:0:0:
256,192,50949,1,0,0:0:0:0:
329,192,50949,1,0,0:0:0:0:
109,192,51117,1,0,0:0:0:0:
475,192,51117,1,0,0:0:0:0:
36,192,51284,1,0,0:0:0:0:
182,192,51284,1,0,0:0:0:0:
329,192,51284,1,0,0:0:0:0:
402,192,51284,1,0,0:0:0:0:
109,192,51452,1,0,0:0:0:0:
256,192,51452,1,0,0:0:0:0:
36,192,51620,1,0,0:0:0:0:
329,192,51620,1,0,0:0:0:0:
402,192,51620,1,0,0:0:0:0:
475,192,51620,1,0,0:0:0:0:
109,192,51787,1,0,0:0:0:0:
182,192,51787,1,0,0:0:0:0:
329,192,51787,1,0,0:0:0:0:
36,192,51955,1,0,0:0:0:0:
256,192,51955,1,0,0:0:0:0:
402,192,51955,1,0,0:0:0:0:
109,192,52122,1,0,0:0:0:0:
329,192,52122,1,0,0:0:0:0:
475,192,52122,1,0,0:0:0:0:
36,192,52290,1,0,0:0:0:0:
182,192,52290,1,0,0:0:0:0:
256,192,52290,1,0,0:0:0:0:
402,192,52290,1,0,0:0:0:0:
109,192,52458,1,0,0:0:0:0:
182,192,52458,1,0,0:0:0:0:
329,192,52458,1,0,0:0:0:0:
475,192,52458,1,0,0:0:0:0:
36,192,52625,1,0,0:0:0:0:
256,192,52625,1,0,0:0:0:0:
402,192,52625,1,0,0:0:0:0:
182,192,52709,1,0,0:0:0:0:
329,192,52709,1,0,0:0:0:0:
475,192,52709,1,0,0:0:0:0:
109,192,52793,1,0,0:0:0:0:
256,192,52793,1,0,0:0:0:0:
109,192,52960,1,0,0:0:0:0:
329,192,52960,1,0,0:0:0:0:
402,192,52960,1,0,0:0:0:0:
182,192,53128,1,0,0:0:0:0:
256,192,53128,1,0,0:0:0:0:
402,192,53128,1,0,0:0:0:0:
475,192,53128,1,0,0:0:0:0:
36,192,53296,1,0,0:0:0:0:
109,192,53296,1,0,0:0:0:0:
475,192,53296,1,0,0:0:0:0:
256,192,53379,1,0,0:0:0:0:
402,192,53379,1,0,0:0:0:0:
182,192,53463,1,0,0:0:0:0:
329,192,53463,1,0,0:0:0:0:
109,192,53547,1,0,0:0:0:0:
256,192,53547,1,0,0:0:0:0:
36,192,53631,1,0,0:0:0:0:
329,192,53631,1,0,0:0:0:0:
475,192,53631,1,0,0:0:0:0:
109,192,53798,1,0,0:0:0:0:
256,192,53798,1,0,0:0:0:0:
402,192,53798,1,0,0:0:0:0:
329,192,53882,1,0,0:0:0:0:
475,192,53882,1,0,0:0:0:0:
36,192,53966,1,0,0:0:0:0:
182,192,53966,1,0,0:0:0:0:
256,192,54050,1,0,0:0:0:0:
402,192,54050,1,0,0:0:0:0:
475,192,54050,1,0,0:0:0:0:
109,192,54134,1,0,0:0:0:0:
182,192,54134,1,0,0:0:0:0:
329,192,54134,1,0,0:0:0:0:
256,192,54217,1,0,0:0:0:0:
402,192,54217,1,0,0:0:0:0:
36,192,54301,1,0,0:0:0:0:
109,192,54301,1,0,0:0:0:0:
329,192,54301,1,0,0:0:0:0:
475,192,54301,1,0,0:0:0:0:
36,192,54469,1,0,0:0:0:0:
256,192,54469,1,0,0:0:0:0:
475,192,54469,1,0,0:0:0:0:
36,192,54636,1,0,0:0:0:0:
182,192,54636,1,0,0:0:0:0:
329,192,54636,1,0,0:0:0:0:
402,192,54636,1,0,0:0:0:0:
36,192,54804,1,0,0:0:0:0:
109,192,54804,1,0,0:0:0:0:
256,192,54804,1,0,0:0:0:0:
475,192,54804,1,0,0:0:0:0:
182,192,54972,1,0,0:0:0:0:
329,192,54972,1,0,0:0:0:0:
402,192,54972,1,0,0:0:0:0:
182,192,55139,1,0,0:0:0:0:
475,192,55139,1,0,0:0:0:0:
109,192,55307,1,0,0:0:0:0:
256,192,55307,1,0,0:0:0:0:
329,192,55391,1,0,0:0:0:0:
402,192,55391,1,0,0:0:0:0:
109,192,55474,1,0,0:0:0:0:
256,192,55474,1,0,0:0:0:0:
36,192,55558,1,0,0:0:0:0:
329,192,55642,1,0,0:0:0:0:
475,192,55642,1,0,0:0:0:0:
109,192,55810,1,0,0:0:0:0:
182,192,55810,1,0,0:0:0:0:
402,192,55810,1,0,0:0:0:0:
36,192,55893,1,0,0:0:0:0:
109,192,55977,1,0,0:0:0:0:
256,192,55977,1,0,0:0:0:0:
329,192,55977,1,0,0:0:0:0:
402,192,56061,1,0,0:0:0:0:
475,192,56061,1,0,0:0:0:0:
256,192,56145,1,0,0:0:0:0:
329,192,56145,1,0,0:0:0:0:
182,192,56229,1,0,0:0:0:0:
36,192,56312,1,0,0:0:0:0:
109,192,56312,1,0,0:0:0:0:
402,192,56312,1,0,0:0:0:0:
475,192,56312,1,0,0:0:0:0:
109,192,56480,1,0,0:0:0:0:
256,192,56480,1,0,0:0:0:0:
329,192,56480,1,0,0:0:0:0:
36,192,56648,1,0,0:0:0:0:
182,192,56648,1,0,0:0:0:0:
475,192,56648,1,0,0:0:0:0:
329,192,56731,1,0,0:0:0:0:
109,192,56815,1,0,0:0:0:0:
182,192,56815,1,0,0:0:0:0:
402,192,56815,1,0,0:0:0:0:
256,192,56899,1,0,0:0:0:0:
475,192,56899,1,0,0:0:0:0:
36,192,56983,1,0,0:0:0:0:
329,192,56983,1,0,0:0:0:0:
182,192,57067,1,0,0:0:0:0:
402,192,57067,1,0,0:0:0:0:
36,192,57150,1,0,0:0:0:0:
256,192,57150,1,0,0:0:0:0:
329,192,57150,1,0,0:0:0:0:
182,192,57234,1,0,0:0:0:0:
402,192,57234,1,0,0:0:0:0:
36,192,57318,1,0,0:0:0:0:
109,192,57318,1,0,0:0:0:0:
256,192,57318,1,0,0:0:0:0:
402,192,57402,1,0,0:0:0:0:
182,192,57486,1,0,0:0:0:0:
256,192,57486,1,0,0:0:0:0:
475,192,57486,1,0,0:0:0:0:
402,192,57569,1,0,0:0:0:0:
36,192,57653,1,0,0:0:0:0:
109,192,57653,1,0,0:0:0:0:
329,192,57653,1,0,0:0:0:0:
182,192,57821,1,0,0:0:0:0:
402,192,57821,1,0,0:0:0:0:
36,192,57988,1,0,0:0:0:0:
109,192,57988,1,0,0:0:0:0:
256,192,57988,1,0,0:0:0:0:
329,192,58072,1,0,0:0:0:0:
402,192,58072,1,0,0:0:0:0:
36,192,58156,1,0,0:0:0:0:
109,192,58156,1,0,0:0:0:0:
256,192,58156,1,0,0:0:0:0:
182,192,58324,1,0,0:0:0:0:
402,192,58324,1,0,0:0:0:0:
475,192,58324,1,0,0:0:0:0:
329,192,58407,1,0,0:0:0:0:
109,192,58491,1,0,0:0:0:0:
475,192,58491,1,0,0:0:0:0:
256,192,58575,1,0,0:0:0:0:
36,192,58659,1,0,0:0:0:0:
182,192,58659,1,0,0:0:0:0:
329,192,58659,1,0,0:0:0:0:
402,192,58659,1,0,0:0:0:0:
256,192,58743,1,0,0:0:0:0:
475,192,58743,1,0,0:0:0:0:
182,192,58826,1,0,0:0:0:0:
402,192,58826,1,0,0:0:0:0:
109,192,58910,1,0,0:0:0:0:
329,192,58910,1,0,0:0:0:0:
36,192,58994,1,0,0:0:0:0:
256,192,58994,1,0,0:0:0:0:
475,192,58994,1,0,0:0:0:0:
109,192,59162,1,0,0:0:0:0:
329,192,59162,1,0,0:0:0:0:
402,192,59162,1,0,0:0:0:0:
36,192,59329,1,0,0:0:0:0:
182,192,59329,1,0,0:0:0:0:
256,192,59329,1,0,0:0:0:0:
329,192,59413,1,0,0:0:0:0:
109,192,59497,1,0,0:0:0:0:
182,192,59497,1,0,0:0:0:0:
402,192,59497,1,0,0:0:0:0:
329,192,59581,1,0,0:0:0:0:
256,192,59664,1,0,0:0:0:0:
402,192,59664,1,0,0:0:0:0:
475,192,59664,1,0,0:0:0:0:
182,192,59748,1,0,0:0:0:0:
109,192,59832,1,0,0:0:0:0:
329,192,59832,1,0,0:0:0:0:
402,192,59874,1,0,0:0:0:0:
329,192,59916,1,0,0:0:0:0:
256,192,59958,1,0,0:0:0:0:
36,192,60000,1,0,0:0:0:0:
182,192,60000,1,0,0:0:0:0:
475,192,60000,1,0,0:0:0:0:
109,192,60167,1,0,0:0:0:0:
329,192,60167,1,0,0:0:0:0:
402,192,60167,1,0,0:0:0:0:
36,192,60335,1,0,0:0:0:0:
256,192,60335,1,0,0:0:0:0:
475,192,60335,1,0,0:0:0:0:
109,192,60502,1,0,0:0:0:0:
182,192,60502,1,0,0:0:0:0:
402,192,60502,1,0,0:0:0:0:
256,192,60586,1,0,0:0:0:0:
36,192,60670,1,0,0:0:0:0:
109,192,60670,1,0,0:0:0:0:
475,192,60670,1,0,0:0:0:0:
36,192,60837,1,0,0:0:0:0:
182,192,60837,1,0,0:0:0:0:
402,192,60837,1,0,0:0:0:0:
109,192,61005,1,0,0:0:0:0:
329,192,61005,1,0,0:0:0:0:
475,192,61005,1,0,0:0:0:0:
329,192,61089,1,0,0:0:0:0:
36,192,61173,1,0,0:0:0:0:
256,192,61173,1,0,0:0:0:0:
109,192,61340,1,0,0:0:0:0:
402,192,61340,1,0,0:0:0:0:
182,192,61508,1,0,0:0:0:0:
329,192,61508,1,0,0:0:0:0:
256,192,61592,1,0,0:0:0:0:
475,192,61592,1,0,0:0:0:0:
36,192,61675,1,0,0:0:0:0:
109,192,61675,1,0,0:0:0:0:
329,192,61675,1,0,0:0:0:0:
109,192,61843,1,0,0:0:0:0:
256,192,61843,1,0,0:0:0:0:
475,192,61843,1,0,0:0:0:0:
36,192,62011,1,0,0:0:0:0:
182,192,62011,1,0,0:0:0:0:
329,192,62011,1,0,0:0:0:0:
402,192,62011,1,0,0:0:0:0:
109,192,62178,1,0,0:0:0:0:
256,192,62178,1,0,0:0:0:0:
475,192,62178,1,0,0:0:0:0:
36,192,62346,1,0,0:0:0:0:
182,192,62346,1,0,0:0:0:0:
329,192,62346,1,0,0:0:0:0:
475,192,62346,1,0,0:0:0:0:
109,192,62513,1,0,0:0:0:0:
256,192,62513,1,0,0:0:0:0:
329,192,62513,1,0,0:0:0:0:
36,192,62681,1,0,0:0:0:0:
182,192,62681,1,0,0:0:0:0:
402,192,62681,1,0,0:0:0:0:
475,192,62681,1,0,0:0:0:0:
109,192,62849,1,0,0:0:0:0:
256,192,62849,1,0,0:0:0:0:
475,192,62849,1,0,0:0:0:0:
36,192,63016,1,0,0:0:0:0:
182,192,63016,1,0,0:0:0:0:
329,192,63016,1,0,0:0:0:0:
402,192,63016,1,0,0:0:0:0:
109,192,63184,1,0,0:0:0:0:
256,192,63184,1,0,0:0:0:0:
475,192,63184,1,0,0:0:0:0:
36,192,63351,1,0,0:0:0:0:
256,192,63351,1,0,0:0:0:0:
402,192,63351,1,0,0:0:0:0:
109,192,63435,1,0,0:0:0:0:
329,192,63435,1,0,0:0:0:0:
36,192,63519,1,0,0:0:0:0:
256,192,63519,1,0,0:0:0:0:
475,192,63519,1,0,0:0:0:0:
36,192,63687,1,0,0:0:0:0:
182,192,63687,1,0,0:0:0:0:
402,192,63687,1,0,0:0:0:0:
109,192,63854,1,0,0:0:0:0:
256,192,63854,1,0,0:0:0:0:
329,192,63854,1,0,0:0:0:0:
475,192,63854,1,0,0:0:0:0:
36,192,64022,1,0,0:0:0:0:
109,192,64022,1,0,0:0:0:0:
256,192,64022,1,0,0:0:0:0:
402,192,64022,1,0,0:0:0:0:
182,192,64106,1,0,0:0:0:0:
475,192,64106,1,0,0:0:0:0:
109,192,64189,1,0,0:0:0:0:
402,192,64189,1,0,0:0:0:0:
36,192,64273,1,0,0:0:0:0:
329,192,64273,1,0,0:0:0:0:
109,192,64357,1,0,0:0:0:0:
256,192,64357,1,0,0:0:0:0:
402,192,64357,1,0,0:0:0:0:
182,192,64525,1,0,0:0:0:0:
329,192,64525,1,0,0:0:0:0:
475,192,64525,1,0,0:0:0:0:
36,192,64608,1,0,0:0:0:0:
256,192,64692,1,0,0:0:0:0:
329,192,64692,1,0,0:0:0:0:
182,192,64776,1,0,0:0:0:0:
402,192,64776,1,0,0:0:0:0:
475,192,64776,1,0,0:0:0:0:
109,192,64860,1,0,0:0:0:0:
256,192,64860,1,0,0:0:0:0:
329,192,64860,1,0,0:0:0:0:
36,192,64944,1,0,0:0:0:0:
402,192,64944,1,0,0:0:0:0:
475,192,64944,1,0,0:0:0:0:
109,192,65027,1,0,0:0:0:0:
256,192,65027,1,0,0:0:0:0:
329,192,65027,1,0,0:0:0:0:
182,192,65111,1,0,0:0:0:0:
109,192,65195,1,0,0:0:0:0:
256,192,65195,1,0,0:0:0:0:
402,192,65195,1,0,0:0:0:0:
36,192,65279,1,0,0:0:0:0:
329,192,65279,1,0,0:0:0:0:
475,192,65279,1,0,0:0:0:0:
109,192,65363,1,0,0:0:0:0:
402,192,65363,1,0,0:0:0:0:
36,192,65530,1,0,0:0:0:0:
256,192,65530,1,0,0:0:0:0:
475,192,65530,1,0,0:0:0:0:
109,192,65698,1,0,0:0:0:0:
256,192,65698,1,0,0:0:0:0:
402,192,65698,1,0,0:0:0:0:
36,192,65865,1,0,0:0:0:0:
182,192,65865,1,0,0:0:0:0:
329,192,65865,1,0,0:0:0:0:
109,192,66033,1,0,0:0:0:0:
256,192,66033,1,0,0:0:0:0:
475,192,66033,1,0,0:0:0:0:
36,192,66201,1,0,0:0:0:0:
182,192,66201,1,0,0:0:0:0:
329,192,66201,1,0,0:0:0:0:
256,192,66368,1,0,0:0:0:0:
402,192,66368,1,0,0:0:0:0:
109,192,66452,1,0,0:0:0:0:
182,192,66536,1,0,0:0:0:0:
329,192,66536,1,0,0:0:0:0:
475,192,66620,1,0,0:0:0:0:
36,192,66703,1,0,0:0:0:0:
256,192,66703,1,0,0:0:0:0:
402,192,66703,1,0,0:0:0:0:
109,192,66787,1,0,0:0:0:0:
182,192,66871,1,0,0:0:0:0:
256,192,66871,1,0,0:0:0:0:
402,192,66871,1,0,0:0:0:0:
475,192,66955,1,0,0:0:0:0:
109,192,67039,1,0,0:0:0:0:
256,192,67039,1,0,0:0:0:0:
329,192,67039,1,0,0:0:0:0:
182,192,67122,1,0,0:0:0:0:
36,192,67206,1,0,0:0:0:0:
402,192,67206,1,0,0:0:0:0:
182,192,67290,1,0,0:0:0:0:
109,192,67374,1,0,0:0:0:0:
256,192,67374,1,0,0:0:0:0:
329,192,67374,1,0,0:0:0:0:
475,192,67374,1,0,0:0:0:0:
182,192,67458,1,0,0:0:0:0:
36,192,67541,1,0,0:0:0:0:
402,192,67541,1,0,0:0:0:0:
182,192,67625,1,0,0:0:0:0:
109,192,67709,1,0,0:0:0:0:
256,192,67709,1,0,0:0:0:0:
329,192,67709,1,0,0:0:0:0:
182,192,67793,1,0,0:0:0:0:
109,192,67877,1,0,0:0:0:0:
256,192,67877,1,0,0:0:0:0:
402,192,67877,1,0,0:0:0:0:
475,192,67960,1,0,0:0:0:0:
36,192,68044,1,0,0:0:0:0:
256,192,68044,1,0,0:0:0:0:
109,192,68128,1,0,0:0:0:0:
182,192,68212,1,0,0:0:0:0:
475,192,68212,1,0,0:0:0:0:
329,192,68296,1,0,0:0:0:0:
36,192,68379,1,0,0:0:0:0:
256,192,68379,1,0,0:0:0:0:
402,192,68379,1,0,0:0:0:0:
109,192,68463,1,0,0:0:0:0:
182,192,68547,1,0,0:0:0:0:
329,192,68547,1,0,0:0:0:0:
475,192,68547,1,0,0:0:0:0:
109,192,68631,1,0,0:0:0:0:
256,192,68631,1,0,0:0:0:0:
182,192,68715,1,0,0:0:0:0:
329,192,68715,1,0,0:0:0:0:
402,192,68715,1,0,0:0:0:0:
36,192,68798,1,0,0:0:0:0:
256,192,68882,1,0,0:0:0:0:
475,192,68882,1,0,0:0:0:0:
109,192,68966,1,0,0:0:0:0:
329,192,68966,1,0,0:0:0:0:
182,192,69050,1,0,0:0:0:0:
256,192,69050,1,0,0:0:0:0:
475,192,69050,1,0,0:0:0:0:
36,192,69134,1,0,0:0:0:0:
109,192,69217,1,0,0:0:0:0:
402,192,69217,1,0,0:0:0:0:
36,192,69301,1,0,0:0:0:0:
329,192,69301,1,0,0:0:0:0:
256,192,69385,1,0,0:0:0:0:
402,192,69385,1,0,0:0:0:0:
475,192,69385,1,0,0:0:0:0:
36,192,69469,1,0,0:0:0:0:
182,192,69469,1,0,0:0:0:0:
109,192,69553,1,0,0:0:0:0:
329,192,69553,1,0,0:0:0:0:
475,192,69553,1,0,0:0:0:0:
36,192,69636,1,0,0:0:0:0:
182,192,69720,1,0,0:0:0:0:
329,192,69720,1,0,0:0:0:0:
402,192,69720,1,0,0:0:0:0:
109,192,69804,1,0,0:0:0:0:
36,192,69888,1,0,0:0:0:0:
256,192,69888,1,0,0:0:0:0:
475,192,69888,1,0,0:0:0:0:
182,192,69972,1,0,0:0:0:0:
256,192,70055,1,0,0:0:0:0:
329,192,70055,1,0,0:0:0:0:
402,192,70055,1,0,0:0:0:0:
36,192,70139,1,0,0:0:0:0:
475,192,70139,1,0,0:0:0:0:
109,192,70223,1,0,0:0:0:0:
182,192,70223,1,0,0:0:0:0:
329,192,70223,1,0,0:0:0:0:
475,192,70307,1,0,0:0:0:0:
109,192,70391,1,0,0:0:0:0:
256,192,70391,1,0,0:0:0:0:
402,192,70391,1,0,0:0:0:0:
36,192,70474,1,0,0:0:0:0:
475,192,70474,1,0,0:0:0:0:
109,192,70558,1,0,0:0:0:0:
256,192,70558,1,0,0:0:0:0:
329,192,70558,1,0,0:0:0:0:
182,192,70642,1,0,0:0:0:0:
475,192,70642,1,0,0:0:0:0:
109,192,70726,1,0,0:0:0:0:
256,192,70726,1,0,0:0:0:0:
402,192,70726,1,0,0:0:0:0:
36,192,70810,1,0,0:0:0:0:
329,192,70810,1,0,0:0:0:0:
182,192,70893,1,0,0:0:0:0:
402,192,70893,1,0,0:0:0:0:
109,192,70977,1,0,0:0:0:0:
475,192,70977,1,0,0:0:0:0:
36,192,71061,1,0,0:0:0:0:
402,192,71061,1,0,0:0:0:0:
475,192,71145,1,0,0:0:0:0:
182,192,71229,1,0,0:0:0:0:
256,192,71229,1,0,0:0:0:0:
329,192,71229,1,0,0:0:0:0:
475,192,71312,1,0,0:0:0:0:
36,192,71396,1,0,0:0:0:0:
109,192,71396,1,0,0:0:0:0:
402,192,71396,1,0,0:0:0:0:
182,192,71480,1,0,0:0:0:0:
36,192,71564,1,0,0:0:0:0:
329,192,71564,1,0,0:0:0:0:
475,192,71564,1,0,0:0:0:0:
182,192,71648,1,0,0:0:0:0:
256,192,71648,1,0,0:0:0:0:
109,192,71731,1,0,0:0:0:0:
402,192,71731,1,0,0:0:0:0:
182,192,71815,1,0,0:0:0:0:
36,192,71899,1,0,0:0:0:0:
329,192,71899,1,0,0:0:0:0:
475,192,71899,1,0,0:0:0:0:
182,192,71983,1,0,0:0:0:0:
36,192,72067,1,0,0:0:0:0:
109,192,72067,1,0,0:0:0:0:
402,192,72067,1,0,0:0:0:0:
475,192,72150,1,0,0:0:0:0:
182,192,72234,1,0,0:0:0:0:
256,192,72234,1,0,0:0:0:0:
402,192,72234,1,0,0:0:0:0:
109,192,72318,1,0,0:0:0:0:
36,192,72402,1,0,0:0:0:0:
256,192,72402,1,0,0:0:0:0:
329,192,72402,1,0,0:0:0:0:
475,192,72402,1,0,0:0:0:0:
182,192,72486,1,0,0:0:0:0:
109,192,72569,1,0,0:0:0:0:
256,192,72569,1,0,0:0:0:0:
329,192,72653,1,0,0:0:0:0:
182,192,72737,1,0,0:0:0:0:
402,192,72737,1,0,0:0:0:0:
475,192,72737,1,0,0:0:0:0:
36,192,72821,1,0,0:0:0:0:
182,192,72905,1,0,0:0:0:0:
256,192,72905,1,0,0:0:0:0:
329,192,72905,1,0,0:0:0:0:
109,192,72988,1,0,0:0:0:0:
256,192,73072,1,0,0:0:0:0:
402,192,73072,1,0,0:0:0:0:
475,192,73072,1,0,0:0:0:0:
109,192,73156,1,0,0:0:0:0:
329,192,73156,1,0,0:0:0:0:
256,192,73240,1,0,0:0:0:0:
475,192,73240,1,0,0:0:0:0:
109,192,73324,1,0,0:0:0:0:
402,192,73324,1,0,0:0:0:0:
36,192,73407,1,0,0:0:0:0:
182,192,73407,1,0,0:0:0:0:
329,192,73407,1,0,0:0:0:0:
256,192,73575,1,0,0:0:0:0:
475,192,73575,1,0,0:0:0:0:
109,192,73659,1,0,0:0:0:0:
36,192,73743,1,0,0:0:0:0:
402,192,73743,1,0,0:0:0:0:
475,192,73743,1,0,0:0:0:0:
182,192,73826,1,0,0:0:0:0:
329,192,73826,1,0,0:0:0:0:
109,192,73910,1,0,0:0:0:0:
256,192,73910,1,0,0:0:0:0:
402,192,73994,1,0,0:0:0:0:
36,192,74078,1,0,0:0:0:0:
109,192,74078,1,0,0:0:0:0:
329,192,74078,1,0,0:0:0:0:
256,192,74162,1,0,0:0:0:0:
182,192,74245,1,0,0:0:0:0:
329,192,74245,1,0,0:0:0:0:
475,192,74245,1,0,0:0:0:0:
109,192,74329,1,0,0:0:0:0:
36,192,74413,1,0,0:0:0:0:
256,192,74413,1,0,0:0:0:0:
402,192,74413,1,0,0:0:0:0:
329,192,74497,1,0,0:0:0:0:
109,192,74581,1,0,0:0:0:0:
475,192,74581,1,0,0:0:0:0:
329,192,74664,1,0,0:0:0:0:
36,192,74748,1,0,0:0:0:0:
182,192,74748,1,0,0:0:0:0:
402,192,74748,1,0,0:0:0:0:
109,192,74916,1,0,0:0:0:0:
256,192,74916,1,0,0:0:0:0:
475,192,74916,1,0,0:0:0:0:
329,192,75000,1,0,0:0:0:0:
182,192,75083,1,0,0:0:0:0:
36,192,75167,1,0,0:0:0:0:
109,192,75251,1,0,0:0:0:0:
329,192,75251,1,0,0:0:0:0:
256,192,75335,1,0,0:0:0:0:
402,192,75335,1,0,0:0:0:0:
182,192,75418,1,0,0:0:0:0:
475,192,75418,1,0,0:0:0:0:
36,192,75502,1,0,0:0:0:0:
329,192,75502,1,0,0:0:0:0:
109,192,75586,1,0,0:0:0:0:
402,192,75586,1,0,0:0:0:0:
182,192,75670,1,0,0:0:0:0:
256,192,75754,1,0,0:0:0:0:
402,192,75754,1,0,0:0:0:0:
475,192,75754,1,0,0:0:0:0:
36,192,75837,1,0,0:0:0:0:
182,192,75837,1,0,0:0:0:0:
109,192,75921,1,0,0:0:0:0:
256,192,75921,1,0,0:0:0:0:
402,192,75921,1,0,0:0:0:0:
329,192,76005,1,0,0:0:0:0:
475,192,76005,1,0,0:0:0:0:
36,192,76089,1,0,0:0:0:0:
256,192,76089,1,0,0:0:0:0:
402,192,76089,1,0,0:0:0:0:
109,192,76173,1,0,0:0:0:0:
329,192,76173,1,0,0:0:0:0:
182,192,76256,1,0,0:0:0:0:
475,192,76256,1,0,0:0:0:0:
36,192,76340,1,0,0:0:0:0:
256,192,76340,1,0,0:0:0:0:
402,192,76340,1,0,0:0:0:0:
182,192,76424,1,0,0:0:0:0:
329,192,76424,1,0,0:0:0:0:
475,192,76424,1,0,0:0:0:0:
36,192,76592,1,0,0:0:0:0:
109,192,76592,1,0,0:0:0:0:
402,192,76592,1,0,0:0:0:0:
182,192,76759,1,0,0:0:0:0:
256,192,76759,1,0,0:0:0:0:
329,192,76759,1,0,0:0:0:0:
475,192,76759,1,0,0:0:0:0:
36,192,76927,1,0,0:0:0:0:
109,192,76927,1,0,0:0:0:0:
402,192,76927,1,0,0:0:0:0:
109,192,77094,1,0,0:0:0:0:
182,192,77094,1,0,0:0:0:0:
256,192,77094,1,0,0:0:0:0:
329,192,77094,1,0,0:0:0:0:
36,192,77178,1,0,0:0:0:0:
475,192,77178,1,0,0:0:0:0:
329,192,77262,1,0,0:0:0:0:
402,192,77346,1,0,0:0:0:0:
182,192,77430,1,0,0:0:0:0:
475,192,77430,1,0,0:0:0:0:
256,192,77513,1,0,0:0:0:0:
36,192,77597,1,0,0:0:0:0:
109,192,77597,1,0,0:0:0:0:
329,192,77597,1,0,0:0:0:0:
402,192,77597,1,0,0:0:0:0:
256,192,77681,1,0,0:0:0:0:
402,192,77765,1,0,0:0:0:0:
475,192,77765,1,0,0:0:0:0:
182,192,77849,1,0,0:0:0:0:
36,192,77932,1,0,0:0:0:0:
256,192,77932,1,0,0:0:0:0:
329,192,77932,1,0,0:0:0:0:
182,192,78016,1,0,0:0:0:0:
109,192,78100,1,0,0:0:0:0:
402,192,78100,1,0,0:0:0:0:
475,192,78100,1,0,0:0:0:0:
182,192,78184,1,0,0:0:0:0:
36,192,78268,1,0,0:0:0:0:
256,192,78268,1,0,0:0:0:0:
329,192,78268,1,0,0:0:0:0:
182,192,78351,1,0,0:0:0:0:
109,192,78435,1,0,0:0:0:0:
402,192,78435,1,0,0:0:0:0:
475,192,78435,1,0,0:0:0:0:
182,192,78519,1,0,0:0:0:0:
36,192,78603,1,0,0:0:0:0:
256,192,78603,1,0,0:0:0:0:
329,192,78603,1,0,0:0:0:0:
402,192,78687,1,0,0:0:0:0:
109,192,78770,1,0,0:0:0:0:
182,192,78770,1,0,0:0:0:0:
256,192,78770,1,0,0:0:0:0:
475,192,78770,1,0,0:0:0:0:
36,192,78854,1,0,0:0:0:0:
109,192,78938,1,0,0:0:0:0:
182,192,78938,1,0,0:0:0:0:
329,192,78938,1,0,0:0:0:0:
402,192,78938,1,0,0:0:0:0:
475,192,79022,1,0,0:0:0:0:
36,192,79106,1,0,0:0:0:0:
256,192,79106,1,0,0:0:0:0:
109,192,79189,1,0,0:0:0:0:
329,192,79189,1,0,0:0:0:0:
182,192,79273,1,0,0:0:0:0:
402,192,79273,1,0,0:0:0:0:
256,192,79357,1,0,0:0:0:0:
475,192,79357,1,0,0:0:0:0:
36,192,79441,1,0,0:0:0:0:
329,192,79441,1,0,0:0:0:0:
402,192,79441,1,0,0:0:0:0:
109,192,79525,1,0,0:0:0:0:
182,192,79608,1,0,0:0:0:0:
402,192,79608,1,0,0:0:0:0:
475,192,79608,1,0,0:0:0:0:
256,192,79692,1,0,0:0:0:0:
36,192,79776,1,0,0:0:0:0:
109,192,79776,1,0,0:0:0:0:
329,192,79776,1,0,0:0:0:0:
475,192,79776,1,0,0:0:0:0:
182,192,79860,1,0,0:0:0:0:
109,192,79944,1,0,0:0:0:0:
256,192,79944,1,0,0:0:0:0:
402,192,79944,1,0,0:0:0:0:
475,192,79944,1,0,0:0:0:0:
329,192,80027,1,0,0:0:0:0:
182,192,80111,1,0,0:0:0:0:
402,192,80111,1,0,0:0:0:0:
36,192,80195,1,0,0:0:0:0:
109,192,80279,1,0,0:0:0:0:
256,192,80279,1,0,0:0:0:0:
329,192,80279,1,0,0:0:0:0:
402,192,80279,1,0,0:0:0:0:
182,192,80363,1,0,0:0:0:0:
475,192,80363,1,0,0:0:0:0:
109,192,80446,1,0,0:0:0:0:
329,192,80446,1,0,0:0:0:0:
182,192,80530,1,0,0:0:0:0:
256,192,80614,1,0,0:0:0:0:
402,192,80614,1,0,0:0:0:0:
475,192,80614,1,0,0:0:0:0:
329,192,80698,1,0,0:0:0:0:
36,192,80782,1,0,0:0:0:0:
109,192,80782,1,0,0:0:0:0:
256,192,80782,1,0,0:0:0:0:
475,192,80782,1,0,0:0:0:0:
182,192,80865,1,0,0:0:0:0:
36,192,80949,1,0,0:0:0:0:
256,192,80949,1,0,0:0:0:0:
402,192,80949,1,0,0:0:0:0:
109,192,81033,1,0,0:0:0:0:
182,192,81117,1,0,0:0:0:0:
256,192,81117,1,0,0:0:0:0:
329,192,81117,1,0,0:0:0:0:
475,192,81117,1,0,0:0:0:0:
402,192,81201,1,0,0:0:0:0:
109,192,81284,1,0,0:0:0:0:
329,192,81284,1,0,0:0:0:0:
256,192,81368,1,0,0:0:0:0:
36,192,81452,1,0,0:0:0:0:
109,192,81452,1,0,0:0:0:0:
182,192,81452,1,0,0:0:0:0:
402,192,81452,1,0,0:0:0:0:
256,192,81536,1,0,0:0:0:0:
182,192,81620,1,0,0:0:0:0:
475,192,81620,1,0,0:0:0:0:
109,192,81703,1,0,0:0:0:0:
36,192,81787,1,0,0:0:0:0:
329,192,81787,1,0,0:0:0:0:
402,192,81787,1,0,0:0:0:0:
182,192,81871,1,0,0:0:0:0:
256,192,81955,1,0,0:0:0:0:
475,192,81955,1,0,0:0:0:0:
109,192,82039,1,0,0:0:0:0:
36,192,82122,1,0,0:0:0:0:
182,192,82122,1,0,0:0:0:0:
475,192,82122,1,0,0:0:0:0:
329,192,82206,1,0,0:0:0:0:
109,192,82290,1,0,0:0:0:0:
402,192,82290,1,0,0:0:0:0:
182,192,82374,1,0,0:0:0:0:
329,192,82374,1,0,0:0:0:0:
36,192,82458,1,0,0:0:0:0:
256,192,82458,1,0,0:0:0:0:
402,192,82458,1,0,0:0:0:0:
475,192,82458,1,0,0:0:0:0:
182,192,82541,1,0,0:0:0:0:
109,192,82625,1,0,0:0:0:0:
256,192,82625,1,0,0:0:0:0:
329,192,82625,1,0,0:0:0:0:
402,192,82709,1,0,0:0:0:0:
36,192,82793,1,0,0:0:0:0:
256,192,82793,1,0,0:0:0:0:
475,192,82793,1,0,0:0:0:0:
109,192,82877,1,0,0:0:0:0:
182,192,82960,1,0,0:0:0:0:
329,192,82960,1,0,0:0:0:0:
256,192,83044,1,0,0:0:0:0:
475,192,83044,1,0,0:0:0:0:
109,192,83128,1,0,0:0:0:0:
329,192,83128,1,0,0:0:0:0:
475,192,83128,1,0,0:0:0:0:
182,192,83212,1,0,0:0:0:0:
36,192,83296,1,0,0:0:0:0:
256,192,83296,1,0,0:0:0:0:
402,192,83296,1,0,0:0:0:0:
182,192,83379,1,0,0:0:0:0:
109,192,83463,1,0,0:0:0:0:
329,192,83463,1,0,0:0:0:0:
402,192,83463,1,0,0:0:0:0:
475,192,83463,1,0,0:0:0:0:
182,192,83547,1,0,0:0:0:0:
36,192,83631,1,0,0:0:0:0:
256,192,83631,1,0,0:0:0:0:
475,192,83631,1,0,0:0:0:0:
182,192,83715,1,0,0:0:0:0:
109,192,83798,1,0,0:0:0:0:
329,192,83798,1,0,0:0:0:0:
402,192,83798,1,0,0:0:0:0:
475,192,83798,1,0,0:0:0:0:
182,192,83882,1,0,0:0:0:0:
36,192,83966,1,0,0:0:0:0:
402,192,83966,1,0,0:0:0:0:
256,192,84050,1,0,0:0:0:0:
109,192,84134,1,0,0:0:0:0:
329,192,84134,1,0,0:0:0:0:
475,192,84134,1,0,0:0:0:0:
36,192,84217,1,0,0:0:0:0:
182,192,84301,1,0,0:0:0:0:
256,192,84301,1,0,0:0:0:0:
402,192,84301,1,0,0:0:0:0:
109,192,84385,1,0,0:0:0:0:
329,192,84385,1,0,0:0:0:0:
36,192,84469,1,0,0:0:0:0:
256,192,84469,1,0,0:0:0:0:
475,192,84469,1,0,0:0:0:0:
182,192,84553,1,0,0:0:0:0:
109,192,84636,1,0,0:0:0:0:
329,192,84636,1,0,0:0:0:0:
402,192,84636,1,0,0:0:0:0:
475,192,84720,1,0,0:0:0:0:
256,192,84804,1,0,0:0:0:0:
402,192,84804,1,0,0:0:0:0:
109,192,84888,1,0,0:0:0:0:
329,192,84888,1,0,0:0:0:0:
182,192,84972,1,0,0:0:0:0:
402,192,84972,1,0,0:0:0:0:
36,192,85055,1,0,0:0:0:0:
109,192,85139,1,0,0:0:0:0:
256,192,85139,1,0,0:0:0:0:
475,192,85139,1,0,0:0:0:0:
402,192,85223,1,0,0:0:0:0:
36,192,85307,1,0,0:0:0:0:
182,192,85307,1,0,0:0:0:0:
256,192,85307,1,0,0:0:0:0:
329,192,85307,1,0,0:0:0:0:
475,192,85307,1,0,0:0:0:0:
36,192,85474,1,0,0:0:0:0:
109,192,85474,1,0,0:0:0:0:
256,192,85474,1,0,0:0:0:0:
402,192,85474,1,0,0:0:0:0:
109,192,85642,1,0,0:0:0:0:
182,192,85642,1,0,0:0:0:0:
329,192,85642,1,0,0:0:0:0:
475,192,85642,1,0,0:0:0:0:
402,192,85726,1,0,0:0:0:0:
475,192,85893,1,0,0:0:0:0:
36,192,85977,1,0,0:0:0:0:
109,192,85977,1,0,0:0:0:0:
256,192,85977,1,0,0:0:0:0:
402,192,85977,1,0,0:0:0:0:
475,192,86061,1,0,0:0:0:0:
36,192,86145,1,0,0:0:0:0:
109,192,86145,1,0,0:0:0:0:
256,192,86145,1,0,0:0:0:0:
402,192,86145,1,0,0:0:0:0:
182,192,86229,1,0,0:0:0:0:
109,192,86312,1,0,0:0:0:0:
329,192,86312,1,0,0:0:0:0:
402,192,86312,1,0,0:0:0:0:
475,192,86312,1,0,0:0:0:0:
182,192,86396,1,0,0:0:0:0:
36,192,86480,1,0,0:0:0:0:
256,192,86480,1,0,0:0:0:0:
329,192,86480,1,0,0:0:0:0:
475,192,86480,1,0,0:0:0:0:
109,192,86564,1,0,0:0:0:0:
182,192,86648,1,0,0:0:0:0:
256,192,86731,1,0,0:0:0:0:
329,192,86815,1,0,0:0:0:0:
402,192,86899,1,0,0:0:0:0:
475,192,86983,1,0,0:0:0:0:
36,192,87150,1,0,0:0:0:0:
109,192,87150,1,0,0:0:0:0:
256,192,87150,1,0,0:0:0:0:
182,192,87318,1,0,0:0:0:0:
329,192,87318,1,0,0:0:0:0:
475,192,87318,1,0,0:0:0:0:
36,192,87486,1,0,0:0:0:0:
109,192,87486,1,0,0:0:0:0:
402,192,87486,1,0,0:0:0:0:
256,192,87569,1,0,0:0:0:0:
329,192,87569,1,0,0:0:0:0:
475,192,87569,1,0,0:0:0:0:
109,192,87653,1,0,0:0:0:0:
182,192,87653,1,0,0:0:0:0:
402,192,87653,1,0,0:0:0:0:
36,192,87737,1,0,0:0:0:0:
182,192,87821,1,0,0:0:0:0:
256,192,87821,1,0,0:0:0:0:
329,192,87821,1,0,0:0:0:0:
475,192,87821,1,0,0:0:0:0:
109,192,87988,1,0,0:0:0:0:
402,192,87988,1,0,0:0:0:0:
36,192,88156,1,0,0:0:0:0:
182,192,88156,1,0,0:0:0:0:
329,192,88156,1,0,0:0:0:0:
256,192,88240,1,0,0:0:0:0:
475,192,88240,1,0,0:0:0:0:
109,192,88324,1,0,0:0:0:0:
329,192,88324,1,0,0:0:0:0:
36,192,88407,1,0,0:0:0:0:
182,192,88407,1,0,0:0:0:0:
402,192,88407,1,0,0:0:0:0:
109,192,88491,1,0,0:0:0:0:
256,192,88491,1,0,0:0:0:0:
475,192,88491,1,0,0:0:0:0:
182,192,88659,1,0,0:0:0:0:
329,192,88659,1,0,0:0:0:0:
402,192,88659,1,0,0:0:0:0:
36,192,88826,1,0,0:0:0:0:
256,192,88826,1,0,0:0:0:0:
475,192,88826,1,0,0:0:0:0:
182,192,88910,1,0,0:0:0:0:
402,192,88910,1,0,0:0:0:0:
36,192,88994,1,0,0:0:0:0:
256,192,88994,1,0,0:0:0:0:
182,192,89078,1,0,0:0:0:0:
402,192,89078,1,0,0:0:0:0:
109,192,89162,1,0,0:0:0:0:
329,192,89162,1,0,0:0:0:0:
475,192,89162,1,0,0:0:0:0:
109,192,89245,1,0,0:0:0:0:
36,192,89329,1,0,0:0:0:0:
256,192,89329,1,0,0:0:0:0:
402,192,89329,1,0,0:0:0:0:
182,192,89497,1,0,0:0:0:0:
329,192,89497,1,0,0:0:0:0:
475,192,89497,1,0,0:0:0:0:
109,192,89664,1,0,0:0:0:0:
256,192,89664,1,0,0:0:0:0:
402,192,89664,1,0,0:0:0:0:
329,192,89748,1,0,0:0:0:0:
36,192,89832,1,0,0:0:0:0:
109,192,89832,1,0,0:0:0:0:
256,192,89832,1,0,0:0:0:0:
182,192,90000,1,0,0:0:0:0:
475,192,90000,1,0,0:0:0:0:
109,192,90167,1,0,0:0:0:0:
329,192,90167,1,0,0:0:0:0:
402,192,90167,1,0,0:0:0:0:
182,192,90251,1,0,0:0:0:0:
256,192,90251,1,0,0:0:0:0:
475,192,90251,1,0,0:0:0:0:
109,192,90335,1,0,0:0:0:0:
329,192,90335,1,0,0:0:0:0:
402,192,90335,1,0,0:0:0:0:
36,192,90418,1,0,0:0:0:0:
256,192,90502,1,0,0:0:0:0:
475,192,90502,1,0,0:0:0:0:
182,192,90670,1,0,0:0:0:0:
402,192,90670,1,0,0:0:0:0:
109,192,90837,1,0,0:0:0:0:
329,192,90837,1,0,0:0:0:0:
256,192,90921,1,0,0:0:0:0:
475,192,90921,1,0,0:0:0:0:
109,192,91005,1,0,0:0:0:0:
329,192,91005,1,0,0:0:0:0:
36,192,91089,1,0,0:0:0:0:
182,192,91089,1,0,0:0:0:0:
109,192,91173,1,0,0:0:0:0:
256,192,91173,1,0,0:0:0:0:
402,192,91173,1,0,0:0:0:0:
475,192,91173,1,0,0:0:0:0:
182,192,91340,1,0,0:0:0:0:
329,192,91340,1,0,0:0:0:0:
36,192,91508,1,0,0:0:0:0:
256,192,91508,1,0,0:0:0:0:
475,192,91508,1,0,0:0:0:0:
182,192,91592,1,0,0:0:0:0:
402,192,91592,1,0,0:0:0:0:
36,192,91675,1,0,0:0:0:0:
256,192,91675,1,0,0:0:0:0:
182,192,91759,1,0,0:0:0:0:
402,192,91759,1,0,0:0:0:0:
109,192,91843,1,0,0:0:0:0:
329,192,91843,1,0,0:0:0:0:
475,192,91843,1,0,0:0:0:0:
36,192,92011,1,0,0:0:0:0:
256,192,92011,1,0,0:0:0:0:
402,192,92011,1,0,0:0:0:0:
109,192,92178,1,0,0:0:0:0:
182,192,92178,1,0,0:0:0:0:
329,192,92178,1,0,0:0:0:0:
256,192,92346,1,0,0:0:0:0:
402,192,92346,1,0,0:0:0:0:
475,192,92346,1,0,0:0:0:0:
36,192,92513,1,0,0:0:0:0:
109,192,92513,1,0,0:0:0:0:
329,192,92513,1,0,0:0:0:0:
256,192,92681,1,0,0:0:0:0:
402,192,92681,1,0,0:0:0:0:
475,192,92681,1,0,0:0:0:0:
109,192,92849,1,0,0:0:0:0:
182,192,92849,1,0,0:0:0:0:
329,192,92849,1,0,0:0:0:0:
256,192,92932,1,0,0:0:0:0:
402,192,92932,1,0,0:0:0:0:
475,192,92932,1,0,0:0:0:0:
109,192,93016,1,0,0:0:0:0:
182,192,93016,1,0,0:0:0:0:
329,192,93016,1,0,0:0:0:0:
36,192,93100,1,0,0:0:0:0:
256,192,93184,1,0,0:0:0:0:
475,192,93184,1,0,0:0:0:0:
182,192,93351,1,0,0:0:0:0:
402,192,93351,1,0,0:0:0:0:
109,192,93519,1,0,0:0:0:0:
329,192,93519,1,0,0:0:0:0:
256,192,93603,1,0,0:0:0:0:
475,192,93603,1,0,0:0:0:0:
109,192,93687,1,0,0:0:0:0:
329,192,93687,1,0,0:0:0:0:
36,192,93770,1,0,0:0:0:0:
182,192,93770,1,0,0:0:0:0:
402,192,93770,1,0,0:0:0:0:
109,192,93854,1,0,0:0:0:0:
256,192,93854,1,0,0:0:0:0:
475,192,93854,1,0,0:0:0:0:
182,192,94022,1,0,0:0:0:0:
329,192,94022,1,0,0:0:0:0:
402,192,94022,1,0,0:0:0:0:
36,192,94189,1,0,0:0:0:0:
256,192,94189,1,0,0:0:0:0:
475,192,94189,1,0,0:0:0:0:
182,192,94273,1,0,0:0:0:0:
402,192,94273,1,0,0:0:0:0:
36,192,94357,1,0,0:0:0:0:
256,192,94357,1,0,0:0:0:0:
182,192,94441,1,0,0:0:0:0:
402,192,94441,1,0,0:0:0:0:
109,192,94525,1,0,0:0:0:0:
329,192,94525,1,0,0:0:0:0:
475,192,94525,1,0,0:0:0:0:
182,192,94608,1,0,0:0:0:0:
109,192,94692,1,0,0:0:0:0:
402,192,94692,1,0,0:0:0:0:
475,192,94734,1,0,0:0:0:0:
402,192,94776,1,0,0:0:0:0:
329,192,94818,1,0,0:0:0:0:
36,192,94860,1,0,0:0:0:0:
182,192,94860,1,0,0:0:0:0:
256,192,94860,1,0,0:0:0:0:
109,192,95027,1,0,0:0:0:0:
329,192,95027,1,0,0:0:0:0:
475,192,95027,1,0,0:0:0:0:
182,192,95111,1,0,0:0:0:0:
36,192,95195,1,0,0:0:0:0:
109,192,95195,1,0,0:0:0:0:
256,192,95195,1,0,0:0:0:0:
402,192,95195,1,0,0:0:0:0:
36,192,95363,1,0,0:0:0:0:
182,192,95363,1,0,0:0:0:0:
475,192,95363,1,0,0:0:0:0:
256,192,95446,1,0,0:0:0:0:
402,192,95446,1,0,0:0:0:0:
109,192,95530,1,0,0:0:0:0:
182,192,95530,1,0,0:0:0:0:
36,192,95698,1,0,0:0:0:0:
256,192,95698,1,0,0:0:0:0:
402,192,95698,1,0,0:0:0:0:
182,192,95782,1,0,0:0:0:0:
109,192,95865,1,0,0:0:0:0:
256,192,95865,1,0,0:0:0:0:
329,192,95865,1,0,0:0:0:0:
475,192,95865,1,0,0:0:0:0:
36,192,96033,1,0,0:0:0:0:
182,192,96033,1,0,0:0:0:0:
256,192,96117,1,0,0:0:0:0:
402,192,96117,1,0,0:0:0:0:
109,192,96201,1,0,0:0:0:0:
182,192,96201,1,0,0:0:0:0:
36,192,96368,1,0,0:0:0:0:
256,192,96368,1,0,0:0:0:0:
402,192,96368,1,0,0:0:0:0:
109,192,96536,1,0,0:0:0:0:
329,192,96536,1,0,0:0:0:0:
475,192,96536,1,0,0:0:0:0:
36,192,96703,1,0,0:0:0:0:
182,192,96703,1,0,0:0:0:0:
329,192,96703,1,0,0:0:0:0:
256,192,96787,1,0,0:0:0:0:
402,192,96787,1,0,0:0:0:0:
109,192,96871,1,0,0:0:0:0:
182,192,96871,1,0,0:0:0:0:
329,192,96871,1,0,0:0:0:0:
256,192,97039,1,0,0:0:0:0:
402,192,97039,1,0,0:0:0:0:
475,192,97039,1,0,0:0:0:0:
36,192,97206,1,0,0:0:0:0:
109,192,97206,1,0,0:0:0:0:
329,192,97206,1,0,0:0:0:0:
475,192,97206,1,0,0:0:0:0:
182,192,97374,1,0,0:0:0:0:
402,192,97374,1,0,0:0:0:0:
256,192,97541,1,0,0:0:0:0:
475,192,97541,1,0,0:0:0:0:
109,192,97709,1,0,0:0:0:0:
36,192,97877,1,0,0:0:0:0:
182,192,97877,1,0,0:0:0:0:
329,192,97877,1,0,0:0:0:0:
475,192,97877,1,0,0:0:0:0:
109,192,98044,1,0,0:0:0:0:
256,192,98044,1,0,0:0:0:0:
402,192,98044,1,0,0:0:0:0:
36,192,98212,1,0,0:0:0:0:
109,192,98212,1,0,0:0:0:0:
329,192,98212,1,0,0:0:0:0:
182,192,98296,1,0,0:0:0:0:
256,192,98296,1,0,0:0:0:0:
475,192,98296,1,0,0:0:0:0:
36,192,98379,1,0,0:0:0:0:
109,192,98379,1,0,0:0:0:0:
329,192,98379,1,0,0:0:0:0:
182,192,98547,1,0,0:0:0:0:
329,192,98547,1,0,0:0:0:0:
475,192,98547,1,0,0:0:0:0:
109,192,98715,1,0,0:0:0:0:
256,192,98715,1,0,0:0:0:0:
402,192,98715,1,0,0:0:0:0:
36,192,98882,1,0,0:0:0:0:
109,192,98882,1,0,0:0:0:0:
329,192,98882,1,0,0:0:0:0:
182,192,98966,1,0,0:0:0:0:
256,192,98966,1,0,0:0:0:0:
475,192,98966,1,0,0:0:0:0:
36,192,99050,1,0,0:0:0:0:
109,192,99050,1,0,0:0:0:0:
329,192,99050,1,0,0:0:0:0:
256,192,99134,1,0,0:0:0:0:
402,192,99134,1,0,0:0:0:0:
475,192,99134,1,0,0:0:0:0:
36,192,99217,1,0,0:0:0:0:
182,192,99217,1,0,0:0:0:0:
329,192,99217,1,0,0:0:0:0:
109,192,99385,1,0,0:0:0:0:
256,192,99385,1,0,0:0:0:0:
402,192,99385,1,0,0:0:0:0:
36,192,99553,1,0,0:0:0:0:
402,192,99553,1,0,0:0:0:0:
475,192,99553,1,0,0:0:0:0:
109,192,99636,1,0,0:0:0:0:
256,192,99636,1,0,0:0:0:0:
329,192,99636,1,0,0:0:0:0:
36,192,99720,1,0,0:0:0:0:
402,192,99720,1,0,0:0:0:0:
475,192,99720,1,0,0:0:0:0:
109,192,99804,1,0,0:0:0:0:
256,192,99804,1,0,0:0:0:0:
329,192,99804,1,0,0:0:0:0:
182,192,99888,1,0,0:0:0:0:
402,192,99888,1,0,0:0:0:0:
475,192,99888,1,0,0:0:0:0:
36,192,99972,1,0,0:0:0:0:
109,192,100055,1,0,0:0:0:0:
256,192,100055,1,0,0:0:0:0:
329,192,100055,1,0,0:0:0:0:
36,192,100223,1,0,0:0:0:0:
182,192,100223,1,0,0:0:0:0:
402,192,100223,1,0,0:0:0:0:
256,192,100391,1,0,0:0:0:0:
329,192,100391,1,0,0:0:0:0:
475,192,100391,1,0,0:0:0:0:
36,192,100558,1,0,0:0:0:0:
182,192,100558,1,0,0:0:0:0:
329,192,100558,1,0,0:0:0:0:
109,192,100726,1,0,0:0:0:0:
256,192,100726,1,0,0:0:0:0:
402,192,100726,1,0,0:0:0:0:
36,192,100893,1,0,0:0:0:0:
109,192,100893,1,0,0:0:0:0:
329,192,100893,1,0,0:0:0:0:
182,192,100977,1,0,0:0:0:0:
256,192,100977,1,0,0:0:0:0:
475,192,100977,1,0,0:0:0:0:
36,192,101061,1,0,0:0:0:0:
109,192,101061,1,0,0:0:0:0:
329,192,101061,1,0,0:0:0:0:
182,192,101229,1,0,0:0:0:0:
329,192,101229,1,0,0:0:0:0:
475,192,101229,1,0,0:0:0:0:
109,192,101396,1,0,0:0:0:0:
256,192,101396,1,0,0:0:0:0:
402,192,101396,1,0,0:0:0:0:
36,192,101564,1,0,0:0:0:0:
109,192,101564,1,0,0:0:0:0:
329,192,101564,1,0,0:0:0:0:
182,192,101648,1,0,0:0:0:0:
256,192,101648,1,0,0:0:0:0:
475,192,101648,1,0,0:0:0:0:
36,192,101731,1,0,0:0:0:0:
109,192,101731,1,0,0:0:0:0:
329,192,101731,1,0,0:0:0:0:
256,192,101815,1,0,0:0:0:0:
402,192,101815,1,0,0:0:0:0:
475,192,101815,1,0,0:0:0:0:
36,192,101899,1,0,0:0:0:0:
182,192,101899,1,0,0:0:0:0:
329,192,101899,1,0,0:0:0:0:
109,192,102067,1,0,0:0:0:0:
256,192,102067,1,0,0:0:0:0:
402,192,102067,1,0,0:0:0:0:
36,192,102234,1,0,0:0:0:0:
182,192,102234,1,0,0:0:0:0:
402,192,102234,1,0,0:0:0:0:
475,192,102234,1,0,0:0:0:0:
256,192,102318,1,0,0:0:0:0:
329,192,102318,1,0,0:0:0:0:
109,192,102402,1,0,0:0:0:0:
402,192,102402,1,0,0:0:0:0:
475,192,102402,1,0,0:0:0:0:
256,192,102486,1,0,0:0:0:0:
329,192,102486,1,0,0:0:0:0:
36,192,102569,1,0,0:0:0:0:
182,192,102569,1,0,0:0:0:0:
402,192,102569,1,0,0:0:0:0:
475,192,102569,1,0,0:0:0:0:
109,192,102737,1,0,0:0:0:0:
256,192,102737,1,0,0:0:0:0:
329,192,102737,1,0,0:0:0:0:
36,192,102905,1,0,0:0:0:0:
182,192,102905,1,0,0:0:0:0:
402,192,102905,1,0,0:0:0:0:
256,192,103072,1,0,0:0:0:0:
329,192,103072,1,0,0:0:0:0:
475,192,103072,1,0,0:0:0:0:
402,192,103156,1,0,0:0:0:0:
36,192,103240,1,0,0:0:0:0:
182,192,103240,1,0,0:0:0:0:
329,192,103240,1,0,0:0:0:0:
109,192,103407,1,0,0:0:0:0:
256,192,103407,1,0,0:0:0:0:
402,192,103407,1,0,0:0:0:0:
36,192,103575,1,0,0:0:0:0:
109,192,103575,1,0,0:0:0:0:
329,192,103575,1,0,0:0:0:0:
182,192,103659,1,0,0:0:0:0:
256,192,103659,1,0,0:0:0:0:
475,192,103659,1,0,0:0:0:0:
36,192,103743,1,0,0:0:0:0:
109,192,103743,1,0,0:0:0:0:
329,192,103743,1,0,0:0:0:0:
182,192,103910,1,0,0:0:0:0:
329,192,103910,1,0,0:0:0:0:
475,192,103910,1,0,0:0:0:0:
109,192,104078,1,0,0:0:0:0:
256,192,104078,1,0,0:0:0:0:
402,192,104078,1,0,0:0:0:0:
36,192,104245,1,0,0:0:0:0:
109,192,104245,1,0,0:0:0:0:
329,192,104245,1,0,0:0:0:0:
182,192,104329,1,0,0:0:0:0:
256,192,104329,1,0,0:0:0:0:
475,192,104329,1,0,0:0:0:0:
36,192,104413,1,0,0:0:0:0:
109,192,104413,1,0,0:0:0:0:
329,192,104413,1,0,0:0:0:0:
256,192,104497,1,0,0:0:0:0:
402,192,104497,1,0,0:0:0:0:
475,192,104497,1,0,0:0:0:0:
36,192,104581,1,0,0:0:0:0:
182,192,104581,1,0,0:0:0:0:
329,192,104581,1,0,0:0:0:0:
109,192,104748,1,0,0:0:0:0:
256,192,104748,1,0,0:0:0:0:
402,192,104748,1,0,0:0:0:0:
36,192,104916,1,0,0:0:0:0:
402,192,104916,1,0,0:0:0:0:
475,192,104916,1,0,0:0:0:0:
109,192,105000,1,0,0:0:0:0:
256,192,105000,1,0,0:0:0:0:
329,192,105000,1,0,0:0:0:0:
36,192,105083,1,0,0:0:0:0:
402,192,105083,1,0,0:0:0:0:
475,192,105083,1,0,0:0:0:0:
109,192,105167,1,0,0:0:0:0:
256,192,105167,1,0,0:0:0:0:
329,192,105167,1,0,0:0:0:0:
182,192,105251,1,0,0:0:0:0:
402,192,105251,1,0,0:0:0:0:
475,192,105251,1,0,0:0:0:0:
36,192,105335,1,0,0:0:0:0:
109,192,105418,1,0,0:0:0:0:
329,192,105418,1,0,0:0:0:0:
402,192,105460,1,0,0:0:0:0:
329,192,105502,1,0,0:0:0:0:
256,192,105544,1,0,0:0:0:0:
36,192,105586,1,0,0:0:0:0:
182,192,105586,1,0,0:0:0:0:
475,192,105586,1,0,0:0:0:0:
109,192,105754,1,0,0:0:0:0:
256,192,105754,1,0,0:0:0:0:
402,192,105754,1,0,0:0:0:0:
329,192,105837,1,0,0:0:0:0:
36,192,105921,1,0,0:0:0:0:
109,192,105921,1,0,0:0:0:0:
182,192,105921,1,0,0:0:0:0:
475,192,105921,1,0,0:0:0:0:
256,192,106089,1,0,0:0:0:0:
402,192,106089,1,0,0:0:0:0:
475,192,106089,1,0,0:0:0:0:
36,192,106173,1,0,0:0:0:0:
109,192,106173,1,0,0:0:0:0:
182,192,106173,1,0,0:0:0:0:
256,192,106256,1,0,0:0:0:0:
402,192,106256,1,0,0:0:0:0:
475,192,106256,1,0,0:0:0:0:
36,192,106424,1,0,0:0:0:0:
109,192,106424,1,0,0:0:0:0:
182,192,106424,1,0,0:0:0:0:
329,192,106592,1,0,0:0:0:0:
402,192,106592,1,0,0:0:0:0:
475,192,106592,1,0,0:0:0:0:
36,192,106759,1,0,0:0:0:0:
109,192,106759,1,0,0:0:0:0:
256,192,106759,1,0,0:0:0:0:
329,192,106843,1,0,0:0:0:0:
402,192,106843,1,0,0:0:0:0:
475,192,106843,1,0,0:0:0:0:
36,192,106927,1,0,0:0:0:0:
109,192,106927,1,0,0:0:0:0:
256,192,106927,1,0,0:0:0:0:
182,192,107094,1,0,0:0:0:0:
329,192,107094,1,0,0:0:0:0:
402,192,107094,1,0,0:0:0:0:
475,192,107094,1,0,0:0:0:0:
36,192,107262,1,0,0:0:0:0:
256,192,107262,1,0,0:0:0:0:
109,192,107430,1,0,0:0:0:0:
402,192,107430,1,0,0:0:0:0:
256,192,107513,1,0,0:0:0:0:
475,192,107513,1,0,0:0:0:0:
36,192,107597,1,0,0:0:0:0:
182,192,107597,1,0,0:0:0:0:
329,192,107597,1,0,0:0:0:0:
109,192,107765,1,0,0:0:0:0:
256,192,107765,1,0,0:0:0:0:
402,192,107765,1,0,0:0:0:0:
182,192,107932,1,0,0:0:0:0:
329,192,107932,1,0,0:0:0:0:
475,192,107932,1,0,0:0:0:0:
256,192,108100,1,0,0:0:0:0:
402,192,108100,1,0,0:0:0:0:
36,192,108268,1,0,0:0:0:0:
109,192,108268,1,0,0:0:0:0:
182,192,108268,1,0,0:0:0:0:
329,192,108268,1,0,0:0:0:0:
475,192,108268,1,0,0:0:0:0:
36,192,108603,1,0,0:0:0:0:
109,192,108603,1,0,0:0:0:0:
402,192,108603,1,0,0:0:0:0:
182,192,108770,1,0,0:0:0:0:
329,192,108770,1,0,0:0:0:0:
475,192,108770,1,0,0:0:0:0:
36,192,108938,1,0,0:0:0:0:
109,192,108938,1,0,0:0:0:0:
256,192,108938,1,0,0:0:0:0:
402,192,108938,1,0,0:0:0:0:
182,192,109022,1,0,0:0:0:0:
329,192,109022,1,0,0:0:0:0:
475,192,109022,1,0,0:0:0:0:
109,192,109106,1,0,0:0:0:0:
256,192,109106,1,0,0:0:0:0:
402,192,109106,1,0,0:0:0:0:
36,192,109189,1,0,0:0:0:0:
182,192,109273,1,0,0:0:0:0:
329,192,109273,1,0,0:0:0:0:
475,192,109273,1,0,0:0:0:0:
36,192,109441,1,0,0:0:0:0:
256,192,109441,1,0,0:0:0:0:
329,192,109441,1,0,0:0:0:0:
109,192,109608,1,0,0:0:0:0:
256,192,109608,1,0,0:0:0:0:
402,192,109608,1,0,0:0:0:0:
182,192,109692,1,0,0:0:0:0:
329,192,109692,1,0,0:0:0:0:
475,192,109692,1,0,0:0:0:0:
109,192,109776,1,0,0:0:0:0:
256,192,109776,1,0,0:0:0:0:
402,192,109776,1,0,0:0:0:0:
36,192,109860,1,0,0:0:0:0:
182,192,109860,1,0,0:0:0:0:
475,192,109860,1,0,0:0:0:0:
109,192,109944,1,0,0:0:0:0:
329,192,109944,1,0,0:0:0:0:
182,192,110111,1,0,0:0:0:0:
402,192,110111,1,0,0:0:0:0:
36,192,110279,1,0,0:0:0:0:
256,192,110279,1,0,0:0:0:0:
475,192,110279,1,0,0:0:0:0:
182,192,110363,1,0,0:0:0:0:
329,192,110363,1,0,0:0:0:0:
402,192,110363,1,0,0:0:0:0:
36,192,110446,1,0,0:0:0:0:
256,192,110446,1,0,0:0:0:0:
475,192,110446,1,0,0:0:0:0:
109,192,110530,1,0,0:0:0:0:
182,192,110530,1,0,0:0:0:0:
329,192,110530,1,0,0:0:0:0:
256,192,110614,1,0,0:0:0:0:
402,192,110614,1,0,0:0:0:0:
475,192,110614,1,0,0:0:0:0:
109,192,110698,1,0,0:0:0:0:
182,192,110782,1,0,0:0:0:0:
329,192,110782,1,0,0:0:0:0:
402,192,110782,1,0,0:0:0:0:
36,192,110949,1,0,0:0:0:0:
109,192,110949,1,0,0:0:0:0:
256,192,110949,1,0,0:0:0:0:
475,192,110949,1,0,0:0:0:0:
109,192,111117,1,0,0:0:0:0:
182,192,111117,1,0,0:0:0:0:
329,192,111117,1,0,0:0:0:0:
402,192,111117,1,0,0:0:0:0:
475,192,111201,1,0,0:0:0:0:
36,192,111284,1,0,0:0:0:0:
256,192,111284,1,0,0:0:0:0:
329,192,111284,1,0,0:0:0:0:
109,192,111452,1,0,0:0:0:0:
182,192,111452,1,0,0:0:0:0:
475,192,111452,1,0,0:0:0:0:
36,192,111620,1,0,0:0:0:0:
109,192,111620,1,0,0:0:0:0:
256,192,111620,1,0,0:0:0:0:
402,192,111620,1,0,0:0:0:0:
182,192,111703,1,0,0:0:0:0:
329,192,111703,1,0,0:0:0:0:
475,192,111703,1,0,0:0:0:0:
109,192,111787,1,0,0:0:0:0:
256,192,111787,1,0,0:0:0:0:
402,192,111787,1,0,0:0:0:0:
182,192,111871,1,0,0:0:0:0:
36,192,111955,1,0,0:0:0:0:
256,192,111955,1,0,0:0:0:0:
402,192,111955,1,0,0:0:0:0:
475,192,111955,1,0,0:0:0:0:
182,192,112122,1,0,0:0:0:0:
329,192,112122,1,0,0:0:0:0:
402,192,112122,1,0,0:0:0:0:
475,192,112122,1,0,0:0:0:0:
36,192,112290,1,0,0:0:0:0:
109,192,112290,1,0,0:0:0:0:
256,192,112290,1,0,0:0:0:0:
402,192,112290,1,0,0:0:0:0:
182,192,112374,1,0,0:0:0:0:
329,192,112374,1,0,0:0:0:0:
475,192,112374,1,0,0:0:0:0:
109,192,112458,1,0,0:0:0:0:
256,192,112458,1,0,0:0:0:0:
402,192,112458,1,0,0:0:0:0:
36,192,112541,1,0,0:0:0:0:
182,192,112541,1,0,0:0:0:0:
475,192,112541,1,0,0:0:0:0:
109,192,112625,1,0,0:0:0:0:
329,192,112625,1,0,0:0:0:0:
182,192,112793,1,0,0:0:0:0:
256,192,112793,1,0,0:0:0:0:
402,192,112793,1,0,0:0:0:0:
36,192,112960,1,0,0:0:0:0:
109,192,112960,1,0,0:0:0:0:
256,192,112960,1,0,0:0:0:0:
475,192,112960,1,0,0:0:0:0:
182,192,113044,1,0,0:0:0:0:
329,192,113044,1,0,0:0:0:0:
36,192,113128,1,0,0:0:0:0:
109,192,113128,1,0,0:0:0:0:
402,192,113128,1,0,0:0:0:0:
475,192,113128,1,0,0:0:0:0:
182,192,113212,1,0,0:0:0:0:
329,192,113212,1,0,0:0:0:0:
109,192,113296,1,0,0:0:0:0:
256,192,113296,1,0,0:0:0:0:
402,192,113296,1,0,0:0:0:0:
475,192,113296,1,0,0:0:0:0:
36,192,113463,1,0,0:0:0:0:
182,192,113463,1,0,0:0:0:0:
329,192,113463,1,0,0:0:0:0:
109,192,113631,1,0,0:0:0:0:
256,192,113631,1,0,0:0:0:0:
402,192,113631,1,0,0:0:0:0:
475,192,113631,1,0,0:0:0:0:
36,192,113798,1,0,0:0:0:0:
182,192,113798,1,0,0:0:0:0:
256,192,113798,1,0,0:0:0:0:
329,192,113798,1,0,0:0:0:0:
402,192,113882,1,0,0:0:0:0:
36,192,113966,1,0,0:0:0:0:
109,192,113966,1,0,0:0:0:0:
329,192,113966,1,0,0:0:0:0:
182,192,114134,1,0,0:0:0:0:
256,192,114134,1,0,0:0:0:0:
402,192,114134,1,0,0:0:0:0:
475,192,114134,1,0,0:0:0:0:
36,192,114301,1,0,0:0:0:0:
109,192,114301,1,0,0:0:0:0:
256,192,114301,1,0,0:0:0:0:
402,192,114301,1,0,0:0:0:0:
182,192,114385,1,0,0:0:0:0:
329,192,114385,1,0,0:0:0:0:
475,192,114385,1,0,0:0:0:0:
109,192,114469,1,0,0:0:0:0:
256,192,114469,1,0,0:0:0:0:
402,192,114469,1,0,0:0:0:0:
329,192,114553,1,0,0:0:0:0:
36,192,114636,1,0,0:0:0:0:
109,192,114636,1,0,0:0:0:0:
182,192,114636,1,0,0:0:0:0:
475,192,114636,1,0,0:0:0:0:
36,192,114804,1,0,0:0:0:0:
256,192,114804,1,0,0:0:0:0:
329,192,114804,1,0,0:0:0:0:
402,192,114804,1,0,0:0:0:0:
36,192,114972,1,0,0:0:0:0:
109,192,114972,1,0,0:0:0:0:
402,192,114972,1,0,0:0:0:0:
475,192,114972,1,0,0:0:0:0:
182,192,115055,1,0,0:0:0:0:
256,192,115055,1,0,0:0:0:0:
329,192,115055,1,0,0:0:0:0:
109,192,115139,1,0,0:0:0:0:
402,192,115139,1,0,0:0:0:0:
36,192,115223,1,0,0:0:0:0:
182,192,115223,1,0,0:0:0:0:
475,192,115223,1,0,0:0:0:0:
109,192,115307,1,0,0:0:0:0:
256,192,115307,1,0,0:0:0:0:
329,192,115307,1,0,0:0:0:0:
402,192,115307,1,0,0:0:0:0:
182,192,115474,1,0,0:0:0:0:
329,192,115474,1,0,0:0:0:0:
475,192,115474,1,0,0:0:0:0:
36,192,115642,1,0,0:0:0:0:
109,192,115642,1,0,0:0:0:0:
402,192,115642,1,0,0:0:0:0:
475,192,115642,1,0,0:0:0:0:
182,192,115726,1,0,0:0:0:0:
256,192,115726,1,0,0:0:0:0:
329,192,115726,1,0,0:0:0:0:
36,192,115810,1,0,0:0:0:0:
109,192,115810,1,0,0:0:0:0:
402,192,115810,1,0,0:0:0:0:
475,192,115810,1,0,0:0:0:0:
182,192,115893,1,0,0:0:0:0:
329,192,115893,1,0,0:0:0:0:
109,192,115977,1,0,0:0:0:0:
256,192,115977,1,0,0:0:0:0:
402,192,115977,1,0,0:0:0:0:
36,192,116061,1,0,0:0:0:0:
109,192,116145,1,0,0:0:0:0:
182,192,116145,1,0,0:0:0:0:
402,192,116145,1,0,0:0:0:0:
475,192,116187,1,0,0:0:0:0:
402,192,116229,1,0,0:0:0:0:
329,192,116270,1,0,0:0:0:0:
36,192,116312,1,0,0:0:0:0:
109,192,116312,1,0,0:0:0:0:
256,192,116312,1,0,0:0:0:0:
182,192,116480,1,0,0:0:0:0:
329,192,116480,1,0,0:0:0:0:
475,192,116480,1,0,0:0:0:0:
256,192,116564,1,0,0:0:0:0:
36,192,116648,1,0,0:0:0:0:
109,192,116648,1,0,0:0:0:0:
329,192,116648,1,0,0:0:0:0:
402,192,116648,1,0,0:0:0:0:
182,192,116815,1,0,0:0:0:0:
256,192,116815,1,0,0:0:0:0:
402,192,116815,1,0,0:0:0:0:
329,192,116899,1,0,0:0:0:0:
475,192,116899,1,0,0:0:0:0:
109,192,116983,1,0,0:0:0:0:
256,192,116983,1,0,0:0:0:0:
182,192,117150,1,0,0:0:0:0:
329,192,117150,1,0,0:0:0:0:
402,192,117150,1,0,0:0:0:0:
475,192,117150,1,0,0:0:0:0:
256,192,117234,1,0,0:0:0:0:
36,192,117318,1,0,0:0:0:0:
109,192,117318,1,0,0:0:0:0:
329,192,117318,1,0,0:0:0:0:
475,192,117318,1,0,0:0:0:0:
109,192,117486,1,0,0:0:0:0:
256,192,117486,1,0,0:0:0:0:
402,192,117486,1,0,0:0:0:0:
182,192,117569,1,0,0:0:0:0:
329,192,117569,1,0,0:0:0:0:
109,192,117653,1,0,0:0:0:0:
256,192,117653,1,0,0:0:0:0:
182,192,117821,1,0,0:0:0:0:
329,192,117821,1,0,0:0:0:0:
402,192,117821,1,0,0:0:0:0:
475,192,117821,1,0,0:0:0:0:
109,192,117988,1,0,0:0:0:0:
256,192,117988,1,0,0:0:0:0:
402,192,117988,1,0,0:0:0:0:
36,192,118156,1,0,0:0:0:0:
182,192,118156,1,0,0:0:0:0:
329,192,118156,1,0,0:0:0:0:
256,192,118240,1,0,0:0:0:0:
402,192,118240,1,0,0:0:0:0:
36,192,118324,1,0,0:0:0:0:
182,192,118324,1,0,0:0:0:0:
475,192,118324,1,0,0:0:0:0:
109,192,118491,1,0,0:0:0:0:
256,192,118491,1,0,0:0:0:0:
402,192,118491,1,0,0:0:0:0:
36,192,118659,1,0,0:0:0:0:
109,192,118659,1,0,0:0:0:0:
329,192,118659,1,0,0:0:0:0:
475,192,118659,1,0,0:0:0:0:
182,192,118826,1,0,0:0:0:0:
402,192,118826,1,0,0:0:0:0:
256,192,118994,1,0,0:0:0:0:
475,192,118994,1,0,0:0:0:0:
182,192,119162,1,0,0:0:0:0:
36,192,119329,1,0,0:0:0:0:
256,192,119329,1,0,0:0:0:0:
402,192,119329,1,0,0:0:0:0:
109,192,119497,1,0,0:0:0:0:
182,192,119497,1,0,0:0:0:0:
329,192,119497,1,0,0:0:0:0:
475,192,119497,1,0,0:0:0:0:
36,192,119664,1,0,0:0:0:0:
256,192,119664,1,0,0:0:0:0:
402,192,119664,1,0,0:0:0:0:
109,192,119748,1,0,0:0:0:0:
329,192,119748,1,0,0:0:0:0:
475,192,119748,1,0,0:0:0:0:
36,192,119832,1,0,0:0:0:0:
182,192,119832,1,0,0:0:0:0:
256,192,119832,1,0,0:0:0:0:
402,192,119832,1,0,0:0:0:0:
109,192,120000,1,0,0:0:0:0:
256,192,120000,1,0,0:0:0:0:
475,192,120000,1,0,0:0:0:0:
182,192,120167,1,0,0:0:0:0:
329,192,120167,1,0,0:0:0:0:
402,192,120167,1,0,0:0:0:0:
36,192,120335,1,0,0:0:0:0:
256,192,120335,1,0,0:0:0:0:
402,192,120335,1,0,0:0:0:0:
109,192,120418,1,0,0:0:0:0:
329,192,120418,1,0,0:0:0:0:
475,192,120418,1,0,0:0:0:0:
36,192,120502,1,0,0:0:0:0:
256,192,120502,1,0,0:0:0:0:
402,192,120502,1,0,0:0:0:0:
109,192,120586,1,0,0:0:0:0:
182,192,120586,1,0,0:0:0:0:
329,192,120586,1,0,0:0:0:0:
36,192,120670,1,0,0:0:0:0:
256,192,120670,1,0,0:0:0:0:
402,192,120670,1,0,0:0:0:0:
109,192,120837,1,0,0:0:0:0:
329,192,120837,1,0,0:0:0:0:
475,192,120837,1,0,0:0:0:0:
36,192,121005,1,0,0:0:0:0:
182,192,121005,1,0,0:0:0:0:
475,192,121005,1,0,0:0:0:0:
109,192,121089,1,0,0:0:0:0:
256,192,121089,1,0,0:0:0:0:
402,192,121089,1,0,0:0:0:0:
36,192,121173,1,0,0:0:0:0:
182,192,121173,1,0,0:0:0:0:
475,192,121173,1,0,0:0:0:0:
109,192,121256,1,0,0:0:0:0:
256,192,121256,1,0,0:0:0:0:
402,192,121256,1,0,0:0:0:0:
36,192,121340,1,0,0:0:0:0:
329,192,121340,1,0,0:0:0:0:
475,192,121340,1,0,0:0:0:0:
182,192,121424,1,0,0:0:0:0:
109,192,121508,1,0,0:0:0:0:
256,192,121508,1,0,0:0:0:0:
329,192,121508,1,0,0:0:0:0:
402,192,121508,1,0,0:0:0:0:
36,192,121675,1,0,0:0:0:0:
109,192,121675,1,0,0:0:0:0:
256,192,121675,1,0,0:0:0:0:
475,192,121675,1,0,0:0:0:0:
182,192,121843,1,0,0:0:0:0:
329,192,121843,1,0,0:0:0:0:
402,192,121843,1,0,0:0:0:0:
475,192,121843,1,0,0:0:0:0:
36,192,122011,1,0,0:0:0:0:
109,192,122011,1,0,0:0:0:0:
256,192,122011,1,0,0:0:0:0:
402,192,122011,1,0,0:0:0:0:
182,192,122178,1,0,0:0:0:0:
329,192,122178,1,0,0:0:0:0:
475,192,122178,1,0,0:0:0:0:
36,192,122346,1,0,0:0:0:0:
256,192,122346,1,0,0:0:0:0:
402,192,122346,1,0,0:0:0:0:
109,192,122430,1,0,0:0:0:0:
329,192,122430,1,0,0:0:0:0:
475,192,122430,1,0,0:0:0:0:
36,192,122513,1,0,0:0:0:0:
256,192,122513,1,0,0:0:0:0:
402,192,122513,1,0,0:0:0:0:
109,192,122681,1,0,0:0:0:0:
256,192,122681,1,0,0:0:0:0:
475,192,122681,1,0,0:0:0:0:
182,192,122849,1,0,0:0:0:0:
329,192,122849,1,0,0:0:0:0:
402,192,122849,1,0,0:0:0:0:
36,192,123016,1,0,0:0:0:0:
256,192,123016,1,0,0:0:0:0:
402,192,123016,1,0,0:0:0:0:
109,192,123100,1,0,0:0:0:0:
329,192,123100,1,0,0:0:0:0:
475,192,123100,1,0,0:0:0:0:
36,192,123184,1,0,0:0:0:0:
256,192,123184,1,0,0:0:0:0:
402,192,123184,1,0,0:0:0:0:
109,192,123268,1,0,0:0:0:0:
182,192,123268,1,0,0:0:0:0:
329,192,123268,1,0,0:0:0:0:
36,192,123351,1,0,0:0:0:0:
256,192,123351,1,0,0:0:0:0:
402,192,123351,1,0,0:0:0:0:
109,192,123519,1,0,0:0:0:0:
329,192,123519,1,0,0:0:0:0:
475,192,123519,1,0,0:0:0:0:
36,192,123687,1,0,0:0:0:0:
182,192,123687,1,0,0:0:0:0:
402,192,123687,1,0,0:0:0:0:
109,192,123770,1,0,0:0:0:0:
256,192,123770,1,0,0:0:0:0:
36,192,123854,1,0,0:0:0:0:
182,192,123854,1,0,0:0:0:0:
475,192,123854,1,0,0:0:0:0:
109,192,123938,1,0,0:0:0:0:
256,192,123938,1,0,0:0:0:0:
182,192,124022,1,0,0:0:0:0:
329,192,124022,1,0,0:0:0:0:
402,192,124022,1,0,0:0:0:0:
109,192,124189,1,0,0:0:0:0:
256,192,124189,1,0,0:0:0:0:
402,192,124189,1,0,0:0:0:0:
475,192,124189,1,0,0:0:0:0:
36,192,124357,1,0,0:0:0:0:
329,192,124357,1,0,0:0:0:0:
402,192,124357,1,0,0:0:0:0:
36,192,124525,1,0,0:0:0:0:
182,192,124525,1,0,0:0:0:0:
475,192,124525,1,0,0:0:0:0:
109,192,124608,1,0,0:0:0:0:
256,192,124608,1,0,0:0:0:0:
36,192,124692,1,0,0:0:0:0:
182,192,124692,1,0,0:0:0:0:
329,192,124692,1,0,0:0:0:0:
475,192,124692,1,0,0:0:0:0:
402,192,124776,1,0,0:0:0:0:
109,192,124860,1,0,0:0:0:0:
256,192,124860,1,0,0:0:0:0:
329,192,124944,1,0,0:0:0:0:
36,192,125027,1,0,0:0:0:0:
182,192,125027,1,0,0:0:0:0:
475,192,125027,1,0,0:0:0:0:
256,192,125111,1,0,0:0:0:0:
329,192,125111,1,0,0:0:0:0:
36,192,125195,1,0,0:0:0:0:
109,192,125195,1,0,0:0:0:0:
402,192,125195,1,0,0:0:0:0:
182,192,125279,1,0,0:0:0:0:
475,192,125279,1,0,0:0:0:0:
109,192,125363,1,0,0:0:0:0:
256,192,125363,1,0,0:0:0:0:
402,192,125363,1,0,0:0:0:0:
475,192,125446,1,0,0:0:0:0:
36,192,125530,1,0,0:0:0:0:
182,192,125530,1,0,0:0:0:0:
256,192,125530,1,0,0:0:0:0:
329,192,125530,1,0,0:0:0:0:
402,192,125614,1,0,0:0:0:0:
109,192,125698,1,0,0:0:0:0:
256,192,125698,1,0,0:0:0:0:
329,192,125698,1,0,0:0:0:0:
182,192,125865,1,0,0:0:0:0:
329,192,125865,1,0,0:0:0:0:
402,192,125865,1,0,0:0:0:0:
475,192,125865,1,0,0:0:0:0:
256,192,125949,1,0,0:0:0:0:
36,192,126033,1,0,0:0:0:0:
182,192,126033,1,0,0:0:0:0:
402,192,126033,1,0,0:0:0:0:
109,192,126201,1,0,0:0:0:0:
256,192,126201,1,0,0:0:0:0:
402,192,126201,1,0,0:0:0:0:
36,192,126284,1,0,0:0:0:0:
475,192,126284,1,0,0:0:0:0:
109,192,126368,1,0,0:0:0:0:
182,192,126368,1,0,0:0:0:0:
329,192,126368,1,0,0:0:0:0:
475,192,126452,1,0,0:0:0:0:
36,192,126536,1,0,0:0:0:0:
256,192,126536,1,0,0:0:0:0:
402,192,126536,1,0,0:0:0:0:
182,192,126620,1,0,0:0:0:0:
329,192,126620,1,0,0:0:0:0:
109,192,126703,1,0,0:0:0:0:
256,192,126703,1,0,0:0:0:0:
402,192,126703,1,0,0:0:0:0:
329,192,126787,1,0,0:0:0:0:
475,192,126787,1,0,0:0:0:0:
36,192,126871,1,0,0:0:0:0:
182,192,126871,1,0,0:0:0:0:
256,192,126871,1,0,0:0:0:0:
402,192,126955,1,0,0:0:0:0:
475,192,126955,1,0,0:0:0:0:
109,192,127039,1,0,0:0:0:0:
256,192,127039,1,0,0:0:0:0:
329,192,127039,1,0,0:0:0:0:
36,192,127206,1,0,0:0:0:0:
182,192,127206,1,0,0:0:0:0:
329,192,127206,1,0,0:0:0:0:
475,192,127206,1,0,0:0:0:0:
109,192,127374,1,0,0:0:0:0:
256,192,127374,1,0,0:0:0:0:
402,192,127374,1,0,0:0:0:0:
36,192,127541,1,0,0:0:0:0:
182,192,127541,1,0,0:0:0:0:
329,192,127541,1,0,0:0:0:0:
475,192,127541,1,0,0:0:0:0:
109,192,127625,1,0,0:0:0:0:
256,192,127625,1,0,0:0:0:0:
402,192,127625,1,0,0:0:0:0:
36,192,127709,1,0,0:0:0:0:
182,192,127709,1,0,0:0:0:0:
329,192,127709,1,0,0:0:0:0:
109,192,127877,1,0,0:0:0:0:
256,192,127877,1,0,0:0:0:0:
402,192,127877,1,0,0:0:0:0:
182,192,127960,1,0,0:0:0:0:
36,192,128044,1,0,0:0:0:0:
256,192,128044,1,0,0:0:0:0:
329,192,128044,1,0,0:0:0:0:
402,192,128044,1,0,0:0:0:0:
109,192,128212,1,0,0:0:0:0:
329,192,128212,1,0,0:0:0:0:
475,192,128212,1,0,0:0:0:0:
182,192,128296,1,0,0:0:0:0:
36,192,128379,1,0,0:0:0:0:
256,192,128379,1,0,0:0:0:0:
475,192,128379,1,0,0:0:0:0:
109,192,128463,1,0,0:0:0:0:
182,192,128463,1,0,0:0:0:0:
402,192,128463,1,0,0:0:0:0:
36,192,128547,1,0,0:0:0:0:
329,192,128547,1,0,0:0:0:0:
36,192,128715,1,0,0:0:0:0:
182,192,128715,1,0,0:0:0:0:
402,192,128715,1,0,0:0:0:0:
475,192,128715,1,0,0:0:0:0:
109,192,128798,1,0,0:0:0:0:
256,192,128798,1,0,0:0:0:0:
182,192,128882,1,0,0:0:0:0:
329,192,128882,1,0,0:0:0:0:
256,192,128966,1,0,0:0:0:0:
402,192,128966,1,0,0:0:0:0:
36,192,129050,1,0,0:0:0:0:
475,192,129050,1,0,0:0:0:0:
182,192,129134,1,0,0:0:0:0:
329,192,129134,1,0,0:0:0:0:
109,192,129217,1,0,0:0:0:0:
256,192,129217,1,0,0:0:0:0:
475,192,129217,1,0,0:0:0:0:
36,192,129301,1,0,0:0:0:0:
329,192,129301,1,0,0:0:0:0:
182,192,129385,1,0,0:0:0:0:
475,192,129385,1,0,0:0:0:0:
256,192,129469,1,0,0:0:0:0:
109,192,129553,1,0,0:0:0:0:
402,192,129553,1,0,0:0:0:0:
182,192,129636,1,0,0:0:0:0:
329,192,129720,1,0,0:0:0:0:
475,192,129720,1,0,0:0:0:0:
109,192,129804,1,0,0:0:0:0:
256,192,129888,1,0,0:0:0:0:
402,192,129888,1,0,0:0:0:0:
36,192,129972,1,0,0:0:0:0:
109,192,130055,1,0,0:0:0:0:
329,192,130055,1,0,0:0:0:0:
402,192,130055,1,0,0:0:0:0:
475,192,130055,1,0,0:0:0:0:
182,192,130139,1,0,0:0:0:0:
36,192,130223,1,0,0:0:0:0:
256,192,130223,1,0,0:0:0:0:
109,192,130307,1,0,0:0:0:0:
182,192,130391,1,0,0:0:0:0:
329,192,130391,1,0,0:0:0:0:
402,192,130391,1,0,0:0:0:0:
475,192,130391,1,0,0:0:0:0:
256,192,130474,1,0,0:0:0:0:
109,192,130558,1,0,0:0:0:0:
182,192,130642,1,0,0:0:0:0:
329,192,130642,1,0,0:0:0:0:
36,192,130726,1,0,0:0:0:0:
256,192,130726,1,0,0:0:0:0:
402,192,130726,1,0,0:0:0:0:
475,192,130726,1,0,0:0:0:0:
109,192,130810,1,0,0:0:0:0:
182,192,130893,1,0,0:0:0:0:
329,192,130893,1,0,0:0:0:0:
475,192,130893,1,0,0:0:0:0:
109,192,130977,1,0,0:0:0:0:
256,192,130977,1,0,0:0:0:0:
402,192,130977,1,0,0:0:0:0:
36,192,131061,1,0,0:0:0:0:
182,192,131061,1,0,0:0:0:0:
36,192,131229,1,0,0:0:0:0:
256,192,131229,1,0,0:0:0:0:
402,192,131229,1,0,0:0:0:0:
475,192,131229,1,0,0:0:0:0:
109,192,131312,1,0,0:0:0:0:
182,192,131396,1,0,0:0:0:0:
329,192,131396,1,0,0:0:0:0:
256,192,131480,1,0,0:0:0:0:
36,192,131564,1,0,0:0:0:0:
329,192,131564,1,0,0:0:0:0:
182,192,131648,1,0,0:0:0:0:
109,192,131731,1,0,0:0:0:0:
256,192,131731,1,0,0:0:0:0:
402,192,131731,1,0,0:0:0:0:
475,192,131731,1,0,0:0:0:0:
329,192,131815,1,0,0:0:0:0:
36,192,131899,1,0,0:0:0:0:
182,192,131899,1,0,0:0:0:0:
256,192,131983,1,0,0:0:0:0:
109,192,132067,1,0,0:0:0:0:
402,192,132067,1,0,0:0:0:0:
475,192,132067,1,0,0:0:0:0:
329,192,132150,1,0,0:0:0:0:
36,192,132234,1,0,0:0:0:0:
109,192,132234,1,0,0:0:0:0:
182,192,132234,1,0,0:0:0:0:
475,192,132234,1,0,0:0:0:0:
256,192,132318,1,0,0:0:0:0:
402,192,132318,1,0,0:0:0:0:
329,192,132402,1,0,0:0:0:0:
475,192,132402,1,0,0:0:0:0:
36,192,132486,1,0,0:0:0:0:
182,192,132486,1,0,0:0:0:0:
256,192,132569,1,0,0:0:0:0:
402,192,132569,1,0,0:0:0:0:
109,192,132653,1,0,0:0:0:0:
182,192,132653,1,0,0:0:0:0:
329,192,132653,1,0,0:0:0:0:
36,192,132737,1,0,0:0:0:0:
256,192,132737,1,0,0:0:0:0:
402,192,132737,1,0,0:0:0:0:
475,192,132737,1,0,0:0:0:0:
329,192,132821,1,0,0:0:0:0:
109,192,132905,1,0,0:0:0:0:
402,192,132905,1,0,0:0:0:0:
182,192,132988,1,0,0:0:0:0:
36,192,133072,1,0,0:0:0:0:
109,192,133072,1,0,0:0:0:0:
256,192,133072,1,0,0:0:0:0:
329,192,133072,1,0,0:0:0:0:
182,192,133156,1,0,0:0:0:0:
329,192,133240,1,0,0:0:0:0:
475,192,133240,1,0,0:0:0:0:
402,192,133324,1,0,0:0:0:0:
36,192,133407,1,0,0:0:0:0:
109,192,133407,1,0,0:0:0:0:
182,192,133407,1,0,0:0:0:0:
329,192,133407,1,0,0:0:0:0:
402,192,133491,1,0,0:0:0:0:
109,192,133575,1,0,0:0:0:0:
182,192,133575,1,0,0:0:0:0:
256,192,133575,1,0,0:0:0:0:
475,192,133575,1,0,0:0:0:0:
402,192,133659,1,0,0:0:0:0:
36,192,133743,1,0,0:0:0:0:
329,192,133743,1,0,0:0:0:0:
256,192,133826,1,0,0:0:0:0:
109,192,133910,1,0,0:0:0:0:
182,192,133910,1,0,0:0:0:0:
329,192,133910,1,0,0:0:0:0:
475,192,133910,1,0,0:0:0:0:
256,192,133994,1,0,0:0:0:0:
402,192,133994,1,0,0:0:0:0:
182,192,134078,1,0,0:0:0:0:
475,192,134078,1,0,0:0:0:0:
109,192,134162,1,0,0:0:0:0:
329,192,134162,1,0,0:0:0:0:
36,192,134245,1,0,0:0:0:0:
256,192,134245,1,0,0:0:0:0:
402,192,134245,1,0,0:0:0:0:
109,192,134329,1,0,0:0:0:0:
475,192,134329,1,0,0:0:0:0:
36,192,134413,1,0,0:0:0:0:
256,192,134413,1,0,0:0:0:0:
329,192,134413,1,0,0:0:0:0:
402,192,134413,1,0,0:0:0:0:
182,192,134497,1,0,0:0:0:0:
475,192,134497,1,0,0:0:0:0:
36,192,134581,1,0,0:0:0:0:
109,192,134581,1,0,0:0:0:0:
402,192,134581,1,0,0:0:0:0:
256,192,134664,1,0,0:0:0:0:
329,192,134664,1,0,0:0:0:0:
36,192,134748,1,0,0:0:0:0:
182,192,134748,1,0,0:0:0:0:
402,192,134748,1,0,0:0:0:0:
475,192,134748,1,0,0:0:0:0:
109,192,134832,1,0,0:0:0:0:
256,192,134832,1,0,0:0:0:0:
182,192,134916,1,0,0:0:0:0:
329,192,134916,1,0,0:0:0:0:
402,192,134916,1,0,0:0:0:0:
256,192,135000,1,0,0:0:0:0:
475,192,135000,1,0,0:0:0:0:
36,192,135083,1,0,0:0:0:0:
109,192,135083,1,0,0:0:0:0:
182,192,135083,1,0,0:0:0:0:
329,192,135083,1,0,0:0:0:0:
402,192,135167,1,0,0:0:0:0:
475,192,135167,1,0,0:0:0:0:
36,192,135251,1,0,0:0:0:0:
109,192,135251,1,0,0:0:0:0:
256,192,135251,1,0,0:0:0:0:
182,192,135335,1,0,0:0:0:0:
329,192,135335,1,0,0:0:0:0:
256,192,135418,1,0,0:0:0:0:
402,192,135418,1,0,0:0:0:0:
475,192,135418,1,0,0:0:0:0:
36,192,135502,1,0,0:0:0:0:
182,192,135586,1,0,0:0:0:0:
329,192,135586,1,0,0:0:0:0:
109,192,135670,1,0,0:0:0:0:
475,192,135670,1,0,0:0:0:0:
36,192,135754,1,0,0:0:0:0:
256,192,135754,1,0,0:0:0:0:
182,192,135837,1,0,0:0:0:0:
109,192,135921,1,0,0:0:0:0:
329,192,135921,1,0,0:0:0:0:
475,192,136005,1,0,0:0:0:0:
36,192,136089,1,0,0:0:0:0:
182,192,136089,1,0,0:0:0:0:
402,192,136089,1,0,0:0:0:0:
256,192,136173,1,0,0:0:0:0:
109,192,136256,1,0,0:0:0:0:
182,192,136256,1,0,0:0:0:0:
329,192,136256,1,0,0:0:0:0:
475,192,136256,1,0,0:0:0:0:
402,192,136340,1,0,0:0:0:0:
36,192,136424,1,0,0:0:0:0:
256,192,136424,1,0,0:0:0:0:
329,192,136508,1,0,0:0:0:0:
109,192,136592,1,0,0:0:0:0:
182,192,136592,1,0,0:0:0:0:
402,192,136592,1,0,0:0:0:0:
475,192,136592,1,0,0:0:0:0:
256,192,136675,1,0,0:0:0:0:
36,192,136759,1,0,0:0:0:0:
475,192,136759,1,0,0:0:0:0:
329,192,136843,1,0,0:0:0:0:
182,192,136927,1,0,0:0:0:0:
402,192,136927,1,0,0:0:0:0:
329,192,137011,1,0,0:0:0:0:
36,192,137094,1,0,0:0:0:0:
109,192,137094,1,0,0:0:0:0:
475,192,137094,1,0,0:0:0:0:
182,192,137178,1,0,0:0:0:0:
256,192,137262,1,0,0:0:0:0:
402,192,137262,1,0,0:0:0:0:
475,192,137346,1,0,0:0:0:0:
36,192,137430,1,0,0:0:0:0:
109,192,137430,1,0,0:0:0:0:
402,192,137430,1,0,0:0:0:0:
329,192,137513,1,0,0:0:0:0:
182,192,137597,1,0,0:0:0:0:
475,192,137597,1,0,0:0:0:0:
256,192,137681,1,0,0:0:0:0:
36,192,137765,1,0,0:0:0:0:
182,192,137765,1,0,0:0:0:0:
329,192,137765,1,0,0:0:0:0:
402,192,137765,1,0,0:0:0:0:
109,192,137932,1,0,0:0:0:0:
256,192,137932,1,0,0:0:0:0:
402,192,137932,1,0,0:0:0:0:
475,192,137932,1,0,0:0:0:0:
36,192,138100,1,0,0:0:0:0:
182,192,138100,1,0,0:0:0:0:
329,192,138100,1,0,0:0:0:0:
475,192,138100,1,0,0:0:0:0:
36,192,138268,1,0,0:0:0:0:
109,192,138268,1,0,0:0:0:0:
256,192,138268,1,0,0:0:0:0:
402,192,138268,1,0,0:0:0:0:
109,192,138435,1,0,0:0:0:0:
182,192,138435,1,0,0:0:0:0:
329,192,138435,1,0,0:0:0:0:
475,192,138435,1,0,0:0:0:0:
36,192,138603,1,0,0:0:0:0:
182,192,138603,1,0,0:0:0:0:
256,192,138603,1,0,0:0:0:0:
402,192,138603,1,0,0:0:0:0:
109,192,138770,1,0,0:0:0:0:
36,192,138938,1,0,0:0:0:0:
109,192,138938,1,0,0:0:0:0:
182,192,138938,1,0,0:0:0:0:
329,192,138938,1,0,0:0:0:0:
475,192,138938,1,0,0:0:0:0:
36,192,139106,1,0,0:0:0:0:
256,192,139106,1,0,0:0:0:0:
402,192,139106,1,0,0:0:0:0:
109,192,139273,1,0,0:0:0:0:
329,192,139273,1,0,0:0:0:0:
475,192,139273,1,0,0:0:0:0:
256,192,139441,1,0,0:0:0:0:
36,192,139608,1,0,0:0:0:0:
109,192,139608,1,0,0:0:0:0:
182,192,139608,1,0,0:0:0:0:
329,192,139608,1,0,0:0:0:0:
109,192,139776,1,0,0:0:0:0:
256,192,139776,1,0,0:0:0:0:
402,192,139776,1,0,0:0:0:0:
475,192,139776,1,0,0:0:0:0:
36,192,139944,1,0,0:0:0:0:
182,192,139944,1,0,0:0:0:0:
329,192,139944,1,0,0:0:0:0:
475,192,139944,1,0,0:0:0:0:
109,192,140111,1,0,0:0:0:0:
256,192,140111,1,0,0:0:0:0:
402,192,140111,1,0,0:0:0:0:
475,192,140111,1,0,0:0:0:0:
36,192,140279,1,0,0:0:0:0:
182,192,140279,1,0,0:0:0:0:
256,192,140279,1,0,0:0:0:0:
329,192,140279,1,0,0:0:0:0:
36,192,140446,1,0,0:0:0:0:
109,192,140446,1,0,0:0:0:0:
402,192,140446,1,0,0:0:0:0:
475,192,140446,1,0,0:0:0:0:
256,192,140530,1,0,0:0:0:0:
182,192,140614,1,0,0:0:0:0:
329,192,140614,1,0,0:0:0:0:
109,192,140698,1,0,0:0:0:0:
36,192,140782,1,0,0:0:0:0:
182,192,140782,1,0,0:0:0:0:
329,192,140782,1,0,0:0:0:0:
475,192,140782,1,0,0:0:0:0:
256,192,140865,1,0,0:0:0:0:
109,192,140949,1,0,0:0:0:0:
402,192,140949,1,0,0:0:0:0:
256,192,141033,1,0,0:0:0:0:
36,192,141117,1,0,0:0:0:0:
109,192,141117,1,0,0:0:0:0:
182,192,141117,1,0,0:0:0:0:
402,192,141117,1,0,0:0:0:0:
475,192,141201,1,0,0:0:0:0:
109,192,141284,1,0,0:0:0:0:
329,192,141284,1,0,0:0:0:0:
182,192,141368,1,0,0:0:0:0:
36,192,141452,1,0,0:0:0:0:
256,192,141452,1,0,0:0:0:0:
402,192,141452,1,0,0:0:0:0:
475,192,141452,1,0,0:0:0:0:
182,192,141536,1,0,0:0:0:0:
109,192,141620,1,0,0:0:0:0:
256,192,141620,1,0,0:0:0:0:
329,192,141620,1,0,0:0:0:0:
475,192,141620,1,0,0:0:0:0:
402,192,141703,1,0,0:0:0:0:
36,192,141787,1,0,0:0:0:0:
329,192,141787,1,0,0:0:0:0:
256,192,141871,1,0,0:0:0:0:
109,192,141955,1,0,0:0:0:0:
182,192,141955,1,0,0:0:0:0:
402,192,141955,1,0,0:0:0:0:
475,192,141955,1,0,0:0:0:0:
256,192,142039,1,0,0:0:0:0:
36,192,142122,1,0,0:0:0:0:
329,192,142122,1,0,0:0:0:0:
109,192,142206,1,0,0:0:0:0:
182,192,142290,1,0,0:0:0:0:
475,192,142290,1,0,0:0:0:0:
256,192,142374,1,0,0:0:0:0:
109,192,142458,1,0,0:0:0:0:
402,192,142458,1,0,0:0:0:0:
182,192,142541,1,0,0:0:0:0:
36,192,142625,1,0,0:0:0:0:
329,192,142625,1,0,0:0:0:0:
109,192,142709,1,0,0:0:0:0:
182,192,142793,1,0,0:0:0:0:
475,192,142793,1,0,0:0:0:0:
256,192,142877,1,0,0:0:0:0:
109,192,142960,1,0,0:0:0:0:
329,192,142960,1,0,0:0:0:0:
402,192,143044,1,0,0:0:0:0:
182,192,143128,1,0,0:0:0:0:
475,192,143128,1,0,0:0:0:0:
329,192,143212,1,0,0:0:0:0:
36,192,143296,1,0,0:0:0:0:
109,192,143296,1,0,0:0:0:0:
402,192,143296,1,0,0:0:0:0:
475,192,143296,1,0,0:0:0:0:
256,192,143379,1,0,0:0:0:0:
36,192,143463,1,0,0:0:0:0:
329,192,143463,1,0,0:0:0:0:
182,192,143547,1,0,0:0:0:0:
109,192,143631,1,0,0:0:0:0:
256,192,143631,1,0,0:0:0:0:
402,192,143631,1,0,0:0:0:0:
329,192,143715,1,0,0:0:0:0:
182,192,143798,1,0,0:0:0:0:
256,192,143798,1,0,0:0:0:0:
475,192,143798,1,0,0:0:0:0:
36,192,143882,1,0,0:0:0:0:
109,192,143966,1,0,0:0:0:0:
402,192,143966,1,0,0:0:0:0:
182,192,144050,1,0,0:0:0:0:
329,192,144050,1,0,0:0:0:0:
36,192,144134,1,0,0:0:0:0:
256,192,144134,1,0,0:0:0:0:
475,192,144134,1,0,0:0:0:0:
109,192,144217,1,0,0:0:0:0:
182,192,144301,1,0,0:0:0:0:
329,192,144301,1,0,0:0:0:0:
402,192,144301,1,0,0:0:0:0:
36,192,144385,1,0,0:0:0:0:
182,192,144469,1,0,0:0:0:0:
256,192,144469,1,0,0:0:0:0:
329,192,144469,1,0,0:0:0:0:
475,192,144469,1,0,0:0:0:0:
36,192,144553,1,0,0:0:0:0:
109,192,144636,1,0,0:0:0:0:
256,192,144636,1,0,0:0:0:0:
402,192,144636,1,0,0:0:0:0:
475,192,144636,1,0,0:0:0:0:
329,192,144720,1,0,0:0:0:0:
182,192,144804,1,0,0:0:0:0:
402,192,144804,1,0,0:0:0:0:
109,192,144888,1,0,0:0:0:0:
36,192,144972,1,0,0:0:0:0:
256,192,144972,1,0,0:0:0:0:
475,192,144972,1,0,0:0:0:0:
109,192,145055,1,0,0:0:0:0:
329,192,145055,1,0,0:0:0:0:
182,192,145139,1,0,0:0:0:0:
402,192,145139,1,0,0:0:0:0:
256,192,145223,1,0,0:0:0:0:
109,192,145307,1,0,0:0:0:0:
329,192,145307,1,0,0:0:0:0:
475,192,145307,1,0,0:0:0:0:
256,192,145391,1,0,0:0:0:0:
36,192,145474,1,0,0:0:0:0:
329,192,145474,1,0,0:0:0:0:
182,192,145558,1,0,0:0:0:0:
36,192,145642,1,0,0:0:0:0:
109,192,145642,1,0,0:0:0:0:
256,192,145642,1,0,0:0:0:0:
402,192,145642,1,0,0:0:0:0:
475,192,145642,1,0,0:0:0:0:
182,192,145726,1,0,0:0:0:0:
109,192,145810,1,0,0:0:0:0:
329,192,145810,1,0,0:0:0:0:
402,192,145810,1,0,0:0:0:0:
475,192,145810,1,0,0:0:0:0:
256,192,145893,1,0,0:0:0:0:
36,192,145977,1,0,0:0:0:0:
182,192,145977,1,0,0:0:0:0:
329,192,145977,1,0,0:0:0:0:
402,192,145977,1,0,0:0:0:0:
109,192,146061,1,0,0:0:0:0:
36,192,146145,1,0,0:0:0:0:
256,192,146145,1,0,0:0:0:0:
329,192,146145,1,0,0:0:0:0:
475,192,146145,1,0,0:0:0:0:
402,192,146229,1,0,0:0:0:0:
109,192,146312,1,0,0:0:0:0:
182,192,146312,1,0,0:0:0:0:
329,192,146396,1,0,0:0:0:0:
182,192,146480,1,0,0:0:0:0:
402,192,146480,1,0,0:0:0:0:
475,192,146480,1,0,0:0:0:0:
109,192,146564,1,0,0:0:0:0:
329,192,146564,1,0,0:0:0:0:
36,192,146648,1,0,0:0:0:0:
182,192,146648,1,0,0:0:0:0:
402,192,146648,1,0,0:0:0:0:
475,192,146648,1,0,0:0:0:0:
109,192,146731,1,0,0:0:0:0:
256,192,146731,1,0,0:0:0:0:
36,192,146815,1,0,0:0:0:0:
182,192,146815,1,0,0:0:0:0:
329,192,146815,1,0,0:0:0:0:
402,192,146815,1,0,0:0:0:0:
475,192,146815,1,0,0:0:0:0:
256,192,146899,1,0,0:0:0:0:
36,192,146983,1,0,0:0:0:0:
109,192,146983,1,0,0:0:0:0:
329,192,146983,1,0,0:0:0:0:
402,192,146983,1,0,0:0:0:0:
182,192,147067,1,0,0:0:0:0:
109,192,147150,1,0,0:0:0:0:
256,192,147150,1,0,0:0:0:0:
402,192,147150,1,0,0:0:0:0:
475,192,147150,1,0,0:0:0:0:
36,192,147318,1,0,0:0:0:0:
182,192,147318,1,0,0:0:0:0:
329,192,147318,1,0,0:0:0:0:
475,192,147318,1,0,0:0:0:0:
256,192,147402,1,0,0:0:0:0:
109,192,147486,1,0,0:0:0:0:
402,192,147486,1,0,0:0:0:0:
36,192,147653,1,0,0:0:0:0:
182,192,147653,1,0,0:0:0:0:
256,192,147653,1,0,0:0:0:0:
329,192,147653,1,0,0:0:0:0:
402,192,147737,1,0,0:0:0:0:
475,192,147737,1,0,0:0:0:0:
36,192,147821,1,0,0:0:0:0:
109,192,147821,1,0,0:0:0:0:
256,192,147821,1,0,0:0:0:0:
329,192,147821,1,0,0:0:0:0:
182,192,147905,1,0,0:0:0:0:
256,192,147988,1,0,0:0:0:0:
329,192,147988,1,0,0:0:0:0:
402,192,147988,1,0,0:0:0:0:
475,192,147988,1,0,0:0:0:0:
36,192,148072,1,0,0:0:0:0:
109,192,148072,1,0,0:0:0:0:
182,192,148156,1,0,0:0:0:0:
329,192,148156,1,0,0:0:0:0:
402,192,148156,1,0,0:0:0:0:
256,192,148240,1,0,0:0:0:0:
475,192,148240,1,0,0:0:0:0:
36,192,148324,1,0,0:0:0:0:
109,192,148324,1,0,0:0:0:0:
329,192,148324,1,0,0:0:0:0:
256,192,148407,1,0,0:0:0:0:
402,192,148407,1,0,0:0:0:0:
36,192,148491,1,0,0:0:0:0:
182,192,148491,1,0,0:0:0:0:
329,192,148491,1,0,0:0:0:0:
475,192,148491,1,0,0:0:0:0:
36,192,148659,1,0,0:0:0:0:
109,192,148659,1,0,0:0:0:0:
256,192,148659,1,0,0:0:0:0:
402,192,148659,1,0,0:0:0:0:
182,192,148826,1,0,0:0:0:0:
256,192,148826,1,0,0:0:0:0:
329,192,148826,1,0,0:0:0:0:
475,192,148826,1,0,0:0:0:0:
36,192,148994,1,0,0:0:0:0:
109,192,148994,1,0,0:0:0:0:
256,192,148994,1,0,0:0:0:0:
402,192,148994,1,0,0:0:0:0:
182,192,149078,1,0,0:0:0:0:
329,192,149078,1,0,0:0:0:0:
475,192,149078,1,0,0:0:0:0:
36,192,149162,1,0,0:0:0:0:
109,192,149162,1,0,0:0:0:0:
402,192,149162,1,0,0:0:0:0:
109,192,149329,1,0,0:0:0:0:
256,192,149329,1,0,0:0:0:0:
402,192,149329,1,0,0:0:0:0:
182,192,149413,1,0,0:0:0:0:
36,192,149497,1,0,0:0:0:0:
256,192,149497,1,0,0:0:0:0:
329,192,149497,1,0,0:0:0:0:
475,192,149497,1,0,0:0:0:0:
109,192,149664,1,0,0:0:0:0:
182,192,149664,1,0,0:0:0:0:
402,192,149664,1,0,0:0:0:0:
475,192,149664,1,0,0:0:0:0:
256,192,149748,1,0,0:0:0:0:
36,192,149832,1,0,0:0:0:0:
329,192,149832,1,0,0:0:0:0:
36,192,150000,1,0,0:0:0:0:
182,192,150000,1,0,0:0:0:0:
256,192,150000,1,0,0:0:0:0:
402,192,150000,1,0,0:0:0:0:
109,192,150083,1,0,0:0:0:0:
36,192,150167,1,0,0:0:0:0:
182,192,150167,1,0,0:0:0:0:
256,192,150167,1,0,0:0:0:0:
329,192,150167,1,0,0:0:0:0:
402,192,150167,1,0,0:0:0:0:
475,192,150167,1,0,0:0:0:0:
