osu file format v5

[General]
AudioFilename: Yorokobi no Carol.mp3
AudioLeadIn: 0
PreviewTime: 21864
Countdown: 0
SampleSet: Normal
StackLeniency: 0.7
Mode: 0
LetterboxInBreaks: 1

[Metadata]
Title:Yorokobi no Carol
Artist:Iwao Junko
Creator:DJPop
Version:Normal
Source:Card Captor Sakura
Tags:yorokobi no carol kyaroru card captor sakura iwao junko daidouji tomoyo

[Difficulty]
HPDrainRate:5
CircleSize:5
OverallDifficulty:3
SliderMultiplier:1
SliderTickRate:0.5

[Events]
//Background and Video events
0,0,"Yorokobi no Carol.png"
//Break Periods
2,64362,73471
2,117642,133411
//Storyboard Layer 0 (Background)
//Storyboard Layer 1 (Failing)
//Storyboard Layer 2 (Passing)
//Storyboard Layer 3 (Foreground)
//Storyboard Sound Samples
//Background Colour Transformations
3,100,0,0,128

[TimingPoints]
895,666.000666000666,4,1,1,100,1
134761,666.000666000666,4,2,1,50,1
151411,666.000666000666,4,1,1,100,1
200695,666.000666000666,4,2,1,100,1

[Colours]
Combo1 : 0,128,0
Combo2 : 255,255,255
Combo3 : 255,0,0
Combo4 : 255,255,0

[HitObjects]
224,192,11548,1,8
288,192,12214,1,8
224,192,12880,1,8
288,192,13546,1,8
224,192,14212,5,8
288,192,14878,1,8
224,192,15544,1,8
288,192,16210,1,8
224,192,16876,5,8
288,192,17542,1,8
224,192,18208,1,8
288,192,18874,1,8
224,192,19540,5,8
288,192,20206,1,8
224,192,20872,1,8
288,192,21538,1,8
288,128,22204,5,8
352,128,22870,1,8
352,64,23536,1,8
416,64,24202,1,8
416,128,24868,5,8
480,128,25534,1,8
480,192,26200,1,8
416,192,26866,1,8
416,256,27532,5,8
352,256,28198,1,8
352,320,28864,1,8
288,320,29530,1,8
288,256,30196,5,8
224,256,30862,1,8
224,192,31528,1,8
160,192,32194,1,8
160,256,32860,5,8
96,256,33526,1,8
96,192,34192,1,8
32,192,34858,1,8
32,128,35524,5,8
96,128,36190,1,8
96,64,36856,1,8
160,64,37522,1,8
160,128,38188,5,8
224,128,38854,1,8
224,192,39520,1,8
288,192,40186,1,8
288,128,40852,5,8
352,128,41518,1,8
352,64,42184,1,8
416,64,42850,1,8
416,128,43516,5,8
416,192,44182,1,8
416,256,44848,1,8
416,320,45514,1,8
352,320,46180,5,8
288,320,46846,1,8
224,320,47512,1,8
160,320,48178,1,8
96,320,48844,5,8
96,256,49510,1,8
96,192,50176,1,8
96,128,50842,1,8
32,128,51508,5,8
480,224,54172,5,8
416,224,54838,1,8
352,224,55504,1,8
288,224,56170,1,8
224,224,56836,5,8
160,224,57502,1,8
96,224,58168,1,8
32,224,58834,1,8
32,160,59500,5,8
96,160,60166,1,8
160,160,60832,1,8
224,160,61498,1,8
288,160,62164,5,8
352,160,62830,1,8
416,160,63496,1,8
480,160,64162,1,8
256,192,75484,5,8
256,128,76150,1,8
192,128,76816,1,8
192,64,77482,1,8
128,64,78148,5,8
128,128,78814,1,8
64,128,79480,1,8
64,192,80146,1,8
128,192,80812,5,8
128,256,81478,1,8
192,256,82144,1,8
192,320,82810,1,8
256,320,83476,5,8
256,256,84142,1,8
320,256,84808,1,8
320,192,85474,1,8
384,192,86140,5,8
384,128,86806,1,8
320,128,87472,1,8
320,64,88138,1,8
256,64,88804,5,8
256,128,89470,1,8
192,128,90136,1,8
192,192,90802,1,8
128,192,91468,5,8
128,256,92134,1,8
192,256,92800,1,8
192,320,93466,1,8
256,320,94132,5,8
256,256,94798,1,8
320,256,95464,1,8
320,192,96130,1,8
384,192,96796,5,8
384,128,97462,1,8
384,64,98128,1,8
320,64,98794,1,8
256,64,99460,5,8
192,64,100126,1,8
128,64,100792,1,8
128,128,101458,1,8
128,192,102124,5,8
192,192,102790,1,8
256,192,103456,1,8
320,192,104122,1,8
384,192,104788,5,8
32,160,107452,5,8
96,160,108118,1,8
160,160,108784,1,8
224,160,109450,1,8
288,160,110116,5,8
352,160,110782,1,8
416,160,111448,1,8
480,160,112114,1,8
480,224,112780,5,8
416,224,113446,1,8
352,224,114112,1,8
288,224,114778,1,8
224,224,115444,5,8
160,224,116110,1,8
96,224,116776,1,8
32,224,117442,1,8
192,64,135091,5,0
192,192,136423,1,0
320,192,137755,5,0
320,320,139087,1,0
192,320,140419,5,0
192,192,141751,1,0
320,192,143083,5,0
320,64,144415,1,0
224,64,145747,6,0,B|136:68|128:160,1,150
128,224,147079,2,0,B|132:312|224:320,1,150
288,320,148411,6,0,B|376:316|384:224,1,150
384,160,149743,2,0,B|380:72|288:64,1,150
256,192,151408,5,8
208,240,152074,1,8
160,288,152740,1,8
112,336,153406,1,8
64,288,154072,5,8
112,240,154738,1,8
160,192,155404,1,8
208,144,156070,1,8
160,96,156736,5,8
112,48,157402,1,8
64,96,158068,1,8
112,144,158734,1,8
64,192,159400,5,8
112,240,160066,1,8
160,192,160732,1,8
208,144,161398,1,8
256,96,162064,5,8
304,48,162730,1,8
352,96,163396,1,8
400,144,164062,1,8
448,192,164728,5,8
64,192,167392,5,8
112,144,168058,1,8
160,96,168724,1,8
208,144,169390,1,8
256,192,170056,5,8
304,144,170722,1,8
352,96,171388,1,8
400,144,172054,1,8
448,192,172720,5,8
400,240,173386,1,8
352,288,174052,1,8
304,240,174718,1,8
256,192,175384,5,8
208,240,176050,1,8
160,288,176716,1,8
112,240,177382,1,8
64,192,178048,5,8
112,144,178714,1,8
160,192,179380,1,8
208,240,180046,1,8
256,192,180712,5,8
304,144,181378,1,8
352,96,182044,1,8
400,144,182710,1,8
448,192,183376,5,8
400,240,184042,1,8
352,288,184708,1,8
304,240,185374,1,8
256,192,186040,5,8
208,144,186706,1,8
160,96,187372,1,8
112,144,188038,1,8
64,192,188704,5,8
112,240,189370,1,8
160,288,190036,1,8
208,240,190702,1,8
256,192,191368,5,8
256,128,192034,1,8
320,128,192700,1,8
320,192,193366,1,8
320,256,194032,5,8
256,256,194698,1,8
192,256,195364,1,8
192,192,196030,1,8
192,128,196696,5,8
256,128,197362,1,8
320,128,198028,1,8
320,192,198694,1,8
256,192,200692,5,2
256,192,200914,1,2
