osu file format v6

[General]
AudioFilename: Yorokobi no Carol.mp3
AudioLeadIn: 0
PreviewTime: 21864
Countdown: 0
SampleSet: Normal
StackLeniency: 0.7
Mode: 0
LetterboxInBreaks: 1

[Editor]
DistanceSpacing: 1
BeatDivisor: 4
GridSize: 8

[Metadata]
Title:Yorokobi no Carol
Artist:Iwao Junko
Creator:DJPop
Version:Hard
Source:Card Captor Sakura
Tags:yorokobi no carol kyaroru card captor sakura iwao junko daidouji tomoyo

[Difficulty]
HPDrainRate:6
CircleSize:5
OverallDifficulty:7
SliderMultiplier:1.6
SliderTickRate:1

[Events]
//Background and Video events
0,0,"Yorokobi no Carol.png"
//Break Periods
2,65028,74251
2,118308,134191
//Storyboard Layer 0 (Background)
//Storyboard Layer 1 (Fail)
//Storyboard Layer 2 (Pass)
//Storyboard Layer 3 (Foreground)
//Storyboard Sound Samples
//Background Colour Transformations
3,100,0,0,128

[TimingPoints]
895,666.000666000666,4,1,1,100,1,0
21874,666.000666000666,4,2,1,100,1,0
22207,666.000666000666,4,2,1,100,1,0
52399,333.000333000333,4,2,1,100,1,0
52510,666.000666000666,4,2,1,100,1,0
54175,666.000666000666,4,2,1,100,1,0
105679,333.000333000333,4,2,1,100,1,0
105790,666.000666000666,4,2,1,100,1,0
107455,666.000666000666,4,2,1,100,1,0
134761,666.000666000666,4,2,1,50,1,0
151411,666.000666000666,4,2,1,100,1,0
165619,333.000333000333,4,2,1,100,1,0
165730,666.000666000666,4,2,1,100,1,0
167395,666.000666000666,4,2,1,100,1,0
191371,666.000666000666,4,1,1,100,1,0
200695,666.000666000666,4,2,1,100,1,0

[Colours]
Combo1 : 0,128,0
Combo2 : 255,255,255
Combo3 : 255,0,0
Combo4 : 255,255,0

[HitObjects]
192,192,11548,1,8
320,192,12214,1,8
192,192,12880,1,8
320,192,13546,1,8
192,192,14212,5,8
320,192,14878,1,8
192,192,15544,1,8
320,192,16210,1,8
192,192,16876,5,8
320,192,17542,1,8
192,192,18208,1,8
320,192,18874,1,8
192,192,19540,5,8
320,192,20206,1,8
192,192,20872,1,8
320,192,21538,1,8
384,160,21871,5,0
448,192,22204,1,8
416,256,22537,1,0
352,288,22759,1,0
352,288,22870,1,8
288,256,23092,2,0,B|242:221|256:160,1,106.666666666667,0|8
288,96,23869,1,0
256,32,24202,1,8
192,64,24535,1,0
160,128,24868,5,8
128,192,25201,1,0
64,224,25423,1,0
64,224,25534,1,8
32,288,25756,2,0,B|26:356|96:352,1,106.666666666667,0|8
160,320,26422,1,2
160,320,26533,1,0
224,352,26755,1,2
224,352,26866,1,8
288,320,27199,1,0
320,256,27532,5,8
288,192,27865,1,0
224,160,28087,1,0
224,160,28198,1,8
192,96,28420,2,0,B|176:54|224:32,1,80
256,32,28864,1,8
320,64,29197,1,0
384,96,29530,1,8
448,128,29863,2,0,B|492:141|480:192,1,80,0|8
448,224,30418,6,0,B|436:268|384:256,1,80,0|0
352,256,30862,1,8
288,224,31195,1,0
224,256,31528,1,8
192,320,31750,1,2
192,320,31861,1,0
128,352,32083,1,2
128,352,32194,2,0,B|82:366|64:320,1,80,8|0
32,256,32860,5,8
64,192,33193,1,0
128,160,33415,1,0
128,160,33526,1,8
192,128,33748,2,0,B|236:97|224:32,1,106.666666666667,0|8
288,64,34525,1,0
352,96,34858,1,8
416,128,35191,1,0
480,160,35524,6,0,B|498:201|448:224,1,80,8|0
416,256,36079,1,0
416,256,36190,1,8
352,288,36412,2,0,B|280:285|288:352,1,106.666666666667,0|8
256,352,37078,1,2
256,352,37189,1,0
192,320,37411,1,2
192,320,37522,1,8
128,288,37744,1,0
128,288,37855,1,0
64,256,38188,5,8
32,192,38521,1,0
64,128,38854,1,8
128,96,39187,1,0
192,128,39520,1,8
224,192,39853,1,0
192,256,40186,1,8
128,288,40408,1,0
128,288,40519,2,0,B|83:272|96:224,1,80,0|8
128,160,41185,5,0
192,128,41407,1,0
192,128,41518,1,8
256,160,41851,1,0
288,224,42184,1,8
352,256,42406,1,2
352,256,42517,1,0
416,224,42739,1,2
416,224,42850,1,8
448,160,43183,1,0
416,96,43516,6,0,B|404:52|352:64,2,80,8|0|8
384,128,44404,1,0
384,128,44515,2,0,B|333:140|320:96,2,80,0|8|0
416,96,45514,1,8
352,64,45847,1,0
288,96,46180,6,0,B|256:141|224:96,1,80,8|0
192,64,46735,1,0
192,64,46846,1,8
128,32,47068,1,0
128,32,47179,2,0,B|80:18|64:64,3,80,0|8|0|8
32,128,48511,1,0
64,192,48844,5,8
128,224,49177,1,0
192,192,49510,1,8
224,128,49843,1,0
288,96,50176,1,8
352,128,50509,1,0
384,192,50842,1,8
352,256,51175,2,0,B|338:300|288:288,1,80,0|8
224,256,51841,6,0,B|180:243|192:192,1,80
256,192,52396,1,0
256,192,52451,1,0
256,192,52507,1,2
32,352,53173,1,0
64,288,53506,1,0
96,224,53839,1,0
128,160,54061,1,0
128,160,54172,5,8
192,128,54505,1,0
128,96,54838,1,8
64,128,55171,1,0
32,64,55504,1,8
96,32,55837,1,0
160,64,56170,1,8
224,32,56503,1,0
256,96,56836,5,8
288,128,57058,2,0,B|320:173|352:128,1,80
352,128,57502,1,8
416,96,57835,2,0,B|448:51|480:96,1,80,0|8
480,128,58390,1,0
452,153,58584,1,0
416,192,58834,1,8
448,256,59167,1,0
480,320,59389,1,0
480,320,59500,5,8
416,352,59833,1,0
352,320,60166,1,8
416,288,60499,1,0
352,256,60832,1,8
288,288,61165,1,0
256,352,61498,1,8
224,288,61831,1,0
256,224,62164,6,0,B|256:160,2,53.3333333333333,8|0|0
192,192,62830,1,8
128,224,63052,1,0
128,224,63163,1,0
192,256,63385,1,0
192,256,63496,1,8
160,320,63829,1,0
96,352,64162,1,8
64,320,64384,2,0,B|20:272|64:224,1,106.666666666667,0|8
256,192,75151,5,0
320,160,75484,1,8
352,96,75817,1,0
320,32,76039,1,0
320,32,76150,1,8
256,64,76372,2,0,B|200:79|160:32,1,106.666666666667,0|8
96,64,77149,1,0
64,128,77482,1,8
96,192,77815,1,0
160,224,78148,5,8
224,192,78481,1,0
256,128,78703,1,0
256,128,78814,1,8
320,96,79036,2,0,B|378:81|416:128,1,106.666666666667,0|8
448,192,79702,1,2
448,192,79813,1,0
416,256,80035,1,2
416,256,80146,1,8
352,288,80479,1,0
288,256,80812,5,8
256,192,81145,1,0
192,160,81367,1,0
192,160,81478,1,8
128,192,81700,2,0,B|81:211|96:256,1,80
128,288,82144,1,8
192,320,82477,1,0
256,288,82810,1,8
288,224,83143,2,0,B|303:180|256:160,1,80,0|8
224,128,83698,6,0,B|207:86|256:64,1,80,0|0
256,64,84142,1,8
320,32,84475,2,0,B|371:20|384:64,1,80,0|8
416,96,85030,1,2
416,96,85141,1,0
384,160,85363,1,2
384,160,85474,2,0,B|338:192|384:224,1,80,8|0
416,288,86140,5,8
384,352,86473,1,0
320,320,86695,1,0
320,320,86806,1,8
256,352,87028,2,0,B|196:366|160:320,1,106.666666666667,0|8
128,256,87805,1,0
160,192,88138,1,8
224,160,88471,1,0
288,192,88804,5,8
320,256,89137,1,0
384,288,89359,1,0
384,288,89470,1,8
448,256,89692,2,0,B|493:223|480:160,1,106.666666666667,0|8
448,96,90358,1,2
448,96,90469,1,0
384,64,90691,1,2
384,64,90802,1,8
320,96,91024,1,0
320,96,91135,1,0
288,160,91468,5,8
320,224,91801,1,0
288,288,92134,1,8
224,320,92467,1,0
160,288,92800,1,8
128,224,93133,1,0
160,160,93466,1,8
224,128,93688,1,0
224,128,93799,2,0,B|272:114|288:160,1,80,0|8
256,224,94465,5,0
192,256,94687,1,0
192,256,94798,1,8
128,224,95131,1,0
96,160,95464,1,8
128,96,95686,1,2
128,96,95797,1,0
192,64,96019,1,2
192,64,96130,1,8
256,96,96463,1,0
288,160,96796,6,0,B|302:206|256:224,2,80,8|0|8
320,128,97684,1,0
320,128,97795,2,0,B|336:174|384:160,2,80,0|8|0
352,64,98794,1,8
416,32,99127,1,0
480,64,99460,6,0,B|492:116|448:128,1,80,8|0
384,160,100015,1,0
384,160,100126,1,8
352,224,100348,1,0
352,224,100459,2,0,B|307:256|352:288,3,80,0|8|0|8
320,352,101791,1,0
256,320,102124,5,8
224,256,102457,1,0
256,192,102790,1,8
192,160,103123,1,0
128,192,103456,1,8
96,256,103789,1,0
128,320,104122,1,8
192,352,104455,2,0,B|237:367|256:320,1,80,0|8
288,256,105121,6,0,B|332:242|320:192,1,80
256,192,105676,1,0
256,192,105731,1,0
256,192,105787,1,2
480,352,106453,1,0
448,288,106786,1,0
416,224,107119,1,0
384,160,107341,1,0
384,160,107452,5,8
448,128,107785,1,0
416,64,108118,1,8
352,32,108451,1,0
320,96,108784,1,8
352,160,109117,1,0
288,192,109450,1,8
256,256,109783,1,0
288,320,110116,5,8
256,352,110338,2,0,B|208:367|192:320,1,80
192,320,110782,1,8
160,256,111115,2,0,B|177:215|128:192,1,80,0|8
96,160,111670,1,0
64,128,111864,1,0
32,96,112114,1,8
64,32,112447,5,0
128,64,112669,1,0
128,64,112780,1,8
192,32,113113,1,0
224,96,113446,1,8
288,128,113779,1,0
256,192,114112,1,8
192,224,114445,1,0
256,256,114778,1,8
320,224,115111,1,0
352,288,115444,6,0,B|352:352,2,53.3333333333333,8|0|0
384,256,116110,1,8
416,192,116332,1,0
416,192,116443,1,0
384,128,116665,1,0
384,128,116776,1,8
320,96,117109,1,0
352,32,117442,1,8
416,64,117664,2,0,B|492:108|480:32,1,106.666666666667,0|8
32,32,135091,5,0
32,352,135979,1,0
32,352,136090,1,0
32,352,136423,1,0
480,352,137755,5,0
480,32,138643,1,0
480,32,138754,1,0
480,32,139087,1,0
352,160,139642,1,2
352,160,139975,1,2
224,288,140419,5,0
32,32,141307,1,0
32,32,141418,1,0
32,32,141751,1,0
160,160,142417,1,0
288,288,143083,5,0
288,96,143638,1,0
352,160,143971,1,0
352,160,144082,1,0
352,160,144193,1,0
352,160,144304,1,0
352,160,144415,1,2
416,224,144748,1,0
416,224,144970,1,0
480,288,145303,1,0
352,352,145747,5,0
288,288,146080,1,0
224,256,146302,1,0
160,288,146635,1,0
160,288,146746,1,0
96,224,147079,1,0
160,160,147412,1,0
192,96,147634,1,0
192,96,147745,1,0
256,32,148078,1,0
320,96,148411,5,0
384,160,148744,1,0
448,192,148966,1,0
384,256,149299,1,0
320,320,149632,1,0
320,320,149743,1,0
192,256,150298,1,2
128,192,150631,1,2
192,64,151075,1,0
256,128,151408,5,8
320,64,151741,1,0
384,128,152074,1,8
320,192,152407,1,0
384,256,152740,1,8
320,320,153073,1,0
256,256,153406,1,8
192,288,153628,1,0
192,288,153739,2,0,B|145:302|128:256,1,80,0|8
64,192,154405,5,0
96,128,154627,1,0
96,128,154738,1,8
160,64,155071,1,0
224,128,155404,1,8
288,160,155626,1,2
288,160,155737,1,0
352,192,155959,1,2
352,192,156070,1,8
416,256,156403,6,0,B|432:300|384:320,1,80,0|8
320,352,157069,2,0,B|271:365|256:320,1,80,0|8
224,288,157624,1,0
224,288,157735,2,0,B|210:244|160:256,1,80,0|8
96,224,158401,2,0,B|51:209|64:160,1,80,0|8
96,96,159067,6,0,B|105:54|160:64,1,80,0|8
224,96,159733,2,0,B|258:92|256:128,1,53.3333333333333
256,128,160066,1,8
288,160,160288,1,0
288,160,160399,2,0,B|304:205|352:192,2,80,0|8|0
224,224,161398,1,8
160,288,161731,6,0,B|128:334|96:288,1,80,0|8
96,224,162397,2,0,B|64:178|32:224,1,80,0|8
32,288,163063,2,0,B|64:334|96:288,1,80,0|8
96,224,163729,2,0,B|128:178|160:224,1,80,0|8
160,288,164395,6,0,B|192:334|224:288,2,80,0|8|0
192,224,165394,1,0
256,192,165616,1,0
256,192,165671,1,0
256,192,165727,1,2
480,32,166393,1,0
448,96,166726,1,0
416,160,167059,1,0
384,224,167281,1,0
384,224,167392,5,8
320,288,167725,1,0
256,352,168058,1,8
192,288,168391,1,0
128,224,168724,1,8
64,160,169057,1,0
128,96,169390,1,8
192,32,169723,1,0
256,96,170056,5,8
288,128,170278,2,0,B|296:169|352:160,1,80
352,160,170722,1,8
416,224,171055,2,0,B|459:236|448:288,1,80,0|8
416,320,171610,1,0
390,292,171804,1,0
352,256,172054,1,8
288,320,172387,1,0
224,352,172609,1,0
224,352,172720,5,8
160,288,173053,1,0
96,224,173386,1,8
32,160,173719,1,0
96,96,174052,1,8
160,32,174385,1,0
224,96,174718,1,8
288,160,175051,1,0
352,224,175384,6,0,B|416:224,2,53.3333333333333,8|0|0
288,256,176050,1,8
224,288,176272,1,0
224,288,176383,1,0
160,320,176605,1,0
160,320,176716,1,8
96,256,177049,1,0
160,192,177382,1,8
128,160,177604,2,0,B|48:167|96:96,1,106.666666666667,0|8
160,32,178381,5,0
224,64,178603,1,0
224,64,178714,1,8
288,96,178936,1,0
288,96,179047,2,0,B|333:128|288:160,1,80,2|8
224,224,179713,1,2
160,160,180046,1,8
96,224,180379,1,0
32,256,180601,1,0
32,256,180712,5,8
96,320,181045,1,0
160,256,181378,1,8
96,192,181711,1,0
160,128,182044,1,8
224,192,182377,1,0
288,256,182710,1,8
352,192,183043,1,0
288,128,183376,5,8
256,96,183598,2,0,B|244:52|192:64,1,80
192,64,184042,1,8
128,128,184375,2,0,B|83:144|96:192,1,80,0|8
64,240,184930,1,0
90,266,185124,1,0
128,304,185374,1,8
224,256,185707,1,0
288,224,185929,1,0
288,224,186040,5,8
352,288,186373,1,0
416,352,186706,1,8
480,288,187039,1,0
416,224,187372,1,8
480,160,187705,1,0
416,96,188038,1,8
352,160,188371,1,0
288,96,188704,6,0,B|288:32,2,53.3333333333333,8|0|0
256,160,189370,1,8
192,192,189592,1,0
192,192,189703,1,0
160,128,189925,1,0
160,128,190036,1,8
96,96,190369,1,0
64,160,190702,1,8
96,192,190924,2,0,B|126:237|160:192,1,80
160,192,191368,5,8
352,192,192034,1,8
160,192,192700,1,8
352,192,193366,1,8
160,192,194032,5,8
352,192,194698,1,8
160,192,195364,1,8
352,192,196030,1,8
160,192,196696,5,8
352,192,197362,1,8
160,192,198028,1,8
352,192,198694,1,8
416,128,199027,5,0
256,64,199582,5,0
96,128,200026,5,0
256,256,200692,5,2
256,192,200914,1,2
