osu file format v12

[General]
AudioFilename: Dr_Nyanpasu-.mp3
AudioLeadIn: 0
PreviewTime: 47659
Countdown: 0
SampleSet: Normal
StackLeniency: 0.7
Mode: 0
LetterboxInBreaks: 1
WidescreenStoryboard: 0

[Editor]
DistanceSpacing: 2
BeatDivisor: 4
GridSize: 8

[Metadata]
Title:Dr. Nyanpasu-
TitleUnicode:Dr.にゃんぱすー
Artist:Iwana
ArtistUnicode:いわな
Creator:HICARI
Version:Nyan
Source:Nico Nico Douga
Tags:のんのんびより non biyori miyauchi renge doctor mario fever niconicodouga
BeatmapID:322130
BeatmapSetID:126832

[Difficulty]
HPDrainRate:7
CircleSize:4
OverallDifficulty:7
ApproachRate:8
SliderMultiplier:1.7
SliderTickRate:1

[Events]
//Background and Video events
0,0,"BG.jpg",0,0
Video,0,"Dr.Nyanpasu-.avi"
//Break Periods
//Storyboard Layer 0 (Background)
//Storyboard Layer 1 (Fail)
//Storyboard Layer 2 (Pass)
//Storyboard Layer 3 (Foreground)
//Storyboard Sound Samples
//Background Colour Transformations
3,100,163,162,255

[TimingPoints]
650,365.474812694159,4,1,0,60,1,0
9055,-50,4,1,0,60,0,0
9421,-100,4,1,0,60,0,0
16730,-100,4,1,0,30,0,0
18192,-100,4,1,0,60,0,0
29887,372.670807453416,4,1,0,60,1,0
29887,-200,4,1,0,40,0,0
41812,365.474812694159,4,1,0,60,1,0
65202,-100,4,1,0,30,0,0
71049,-100,4,1,0,60,0,0
73608,-50,4,1,0,60,0,0
73973,-100,4,1,0,60,0,0
81283,-100,4,1,0,30,0,0
82745,-100,4,1,0,60,0,0

[HitObjects]
192,136,6497,1,0,0:0:0:0:
320,136,6680,1,0,0:0:0:0:
160,184,6863,1,0,0:0:0:0:
352,88,7045,1,0,0:0:0:0:
128,232,7228,2,0,P|115:275|152:304,1,85
208,352,7594,1,0,0:0:0:0:
256,64,7776,1,0,0:0:0:0:
384,232,7959,2,0,P|397:275|360:304,1,85
208,352,8324,1,0,0:0:0:0:
184,312,8507,1,0,0:0:0:0:
160,272,8690,1,0,0:0:0:0:
64,264,9055,6,2,B|53:234|53:234|89:234|89:234|67:205|67:205|103:205|103:205|81:177|81:177|117:176|117:176|95:148|95:148|131:147|131:147|109:119|109:119|131:112,1,340
296,64,9604,1,0,0:0:0:0:
392,176,9786,1,0,0:0:0:0:
160,152,9969,1,0,0:0:0:0:
376,88,10152,1,0,0:0:0:0:
192,288,10335,1,0,0:0:0:0:
432,296,10517,1,0,0:0:0:0:
152,56,10700,1,0,0:0:0:0:
80,240,10883,5,8,0:0:0:0:
72,224,10974,1,8,0:0:0:0:
80,208,11066,1,8,0:0:0:0:
192,112,11248,5,8,0:0:0:0:
204,140,11340,1,8,0:0:0:0:
192,168,11431,1,8,0:0:0:0:
328,304,11614,5,8,0:0:0:0:
312,264,11705,1,8,0:0:0:0:
328,224,11796,1,8,0:0:0:0:
432,74,11979,5,8,0:0:0:0:
455,129,12071,1,8,0:0:0:0:
432,184,12162,1,8,0:0:0:0:
264,80,12345,5,0,0:0:0:0:
184,256,12527,1,0,0:0:0:0:
240,120,12710,1,0,0:0:0:0:
144,328,12893,1,0,0:0:0:0:
400,264,13076,2,0,P|389:303|349:313,1,85
392,136,13441,1,0,0:0:0:0:
144,328,13624,1,0,0:0:0:0:
96,80,13807,2,0,P|117:114|157:113,1,85
272,40,14172,1,0,0:0:0:0:
312,64,14355,1,0,0:0:0:0:
352,88,14538,1,0,0:0:0:0:
144,328,14903,5,2,0:0:0:0:
160,120,15268,5,0,0:0:0:0:
352,168,15451,1,0,0:0:0:0:
136,208,15634,2,0,L|176:304,1,85
168,286,15999,1,0,0:0:0:0:
336,88,16182,1,0,0:0:0:0:
336,88,16365,2,0,L|288:176,1,85
438,244,16730,5,8,0:0:0:0:
408,280,16822,1,8,0:0:0:0:
368,304,16913,1,8,0:0:0:0:
320,320,17004,1,8,0:0:0:0:
272,320,17096,1,8,0:0:0:0:
256,280,17187,1,8,0:0:0:0:
259,232,17279,1,8,0:0:0:0:
224,216,17370,1,8,0:0:0:0:
176,224,17461,1,8,0:0:0:0:
136,248,17553,1,8,0:0:0:0:
96,264,17644,1,8,0:0:0:0:
48,256,17735,1,8,0:0:0:0:
40,208,17827,1,8,0:0:0:0:
62,164,17918,1,8,0:0:0:0:
102,131,18010,1,8,0:0:0:0:
184,32,18192,5,0,0:0:0:0:
368,184,18375,1,0,0:0:0:0:
344,72,18558,1,0,0:0:0:0:
256,280,18741,1,0,0:0:0:0:
104,112,18923,2,0,P|138:140|123:185,1,85
408,112,19289,2,0,P|373:140|388:185,1,85
152,248,19654,2,0,L|216:192,1,85
360,136,20020,2,0,L|296:192,1,85
252,226,20385,1,0,0:0:0:0:
400,360,20751,5,2,0:0:0:0:
104,320,21116,5,0,0:0:0:0:
136,192,21299,1,0,0:0:0:0:
267,191,21482,1,0,0:0:0:0:
189,257,21664,1,0,0:0:0:0:
320,256,21847,1,0,0:0:0:0:
352,127,22030,1,0,0:0:0:0:
432,240,22213,1,0,0:0:0:0:
272,16,22395,1,0,0:0:0:0:
272,16,22578,5,0,0:0:0:0:
176,80,22761,1,0,0:0:0:0:
344,168,22943,1,0,0:0:0:0:
96,216,23126,1,0,0:0:0:0:
400,312,23309,1,0,0:0:0:0:
48,352,23674,1,2,0:0:0:0:
64,88,24040,6,0,L|88:144,1,42.5
120,104,24223,2,0,L|144:160,1,42.5,0|0,0:0|0:0,0:0:0:0:
176,120,24405,2,0,L|200:176,1,42.5
232,136,24588,2,0,L|256:192,1,42.5,0|0,0:0|0:0,0:0:0:0:
288,152,24771,1,0,0:0:0:0:
432,64,25136,5,2,0:0:0:0:
448,296,25502,6,0,L|424:240,1,42.5
392,280,25685,2,0,L|368:224,1,42.5,0|0,0:0|0:0,0:0:0:0:
336,264,25867,2,0,L|312:208,1,42.5
280,248,26050,2,0,L|256:192,1,42.5,0|0,0:0|0:0,0:0:0:0:
224,232,26233,1,0,0:0:0:0:
80,320,26598,5,2,0:0:0:0:
408,56,26964,5,0,0:0:0:0:
467,178,27146,1,0,0:0:0:0:
332,159,27329,1,0,0:0:0:0:
273,37,27512,1,0,0:0:0:0:
373,110,27695,5,0,0:0:0:0:
282,213,27877,1,0,0:0:0:0:
148,193,28060,1,0,0:0:0:0:
239,91,28243,1,0,0:0:0:0:
352,304,28426,5,8,0:0:0:0:
352,304,28517,1,8,0:0:0:0:
352,304,28608,1,8,0:0:0:0:
160,304,28791,1,8,0:0:0:0:
160,304,28882,1,8,0:0:0:0:
160,304,28974,1,8,0:0:0:0:
256,136,29157,1,4,0:0:0:0:
408,224,29887,6,0,L|328:256,2,85
328,152,31005,1,0,0:0:0:0:
200,216,31377,2,0,L|248:288,1,85
160,144,32123,2,0,L|112:224,1,85
248,112,32868,6,0,L|328:64,2,85
144,112,33986,1,0,0:0:0:0:
128,240,34359,2,0,L|200:288,1,85
304,168,35104,2,0,L|224:216,1,85
384,280,35849,6,0,L|416:232,3,42.5
320,240,36595,2,0,L|280:216,1,42.5
368,184,36967,2,0,L|400:136,1,42.5
264,72,37340,2,0,L|232:120,3,42.5
328,112,38086,2,0,L|368:136,1,42.5
280,168,38458,2,0,L|248:216,1,42.5
96,296,38831,6,0,L|184:240,1,85
272,304,39576,1,0,0:0:0:0:
384,208,39949,1,0,0:0:0:0:
352,72,40321,2,2,B|256:152|208:24|192:8|120:32|120:48,1,255
192,232,41812,5,0,0:0:0:0:
320,152,41994,1,0,0:0:0:0:
200,96,42177,1,0,0:0:0:0:
312,288,42360,1,0,0:0:0:0:
424,96,42542,1,0,0:0:0:0:
88,288,42908,5,2,0:0:0:0:
392,216,43273,5,0,0:0:0:0:
120,168,43456,1,0,0:0:0:0:
232,352,43639,1,0,0:0:0:0:
280,32,43822,1,0,0:0:0:0:
48,208,44004,1,0,0:0:0:0:
464,176,44370,5,2,0:0:0:0:
283,116,44735,5,0,0:0:0:0:
228,267,44918,1,0,0:0:0:0:
323,122,45101,1,0,0:0:0:0:
188,261,45284,1,0,0:0:0:0:
364,129,45466,1,0,0:0:0:0:
147,254,45649,1,0,0:0:0:0:
404,135,45832,1,0,0:0:0:0:
107,248,46014,1,0,0:0:0:0:
120,64,46197,5,8,0:0:0:0:
152,64,46289,1,8,0:0:0:0:
192,64,46380,1,8,0:0:0:0:
168,168,46563,1,8,0:0:0:0:
200,179,46654,1,8,0:0:0:0:
238,191,46745,1,8,0:0:0:0:
424,120,46928,1,4,0:0:0:0:
216,296,47111,1,0,0:0:0:0:
216,296,47202,1,0,0:0:0:0:
216,296,47294,1,0,0:0:0:0:
352,120,47659,6,0,L|400:208,1,85
320,296,48025,1,0,0:0:0:0:
430,312,48207,1,0,0:0:0:0:
160,264,48390,2,0,L|112:176,1,85
192,88,48756,1,0,0:0:0:0:
82,72,48938,1,0,0:0:0:0:
368,56,49121,6,0,P|407:71|427:114,1,85
427,276,49486,2,0,P|406:312|368:328,1,85
144,328,49852,2,0,P|105:312|84:276,1,85
84,107,50217,2,0,P|105:71|144:55,1,85
456,88,50583,6,0,B|442:46|442:46|390:31,1,85
109,34,50948,2,0,B|69:46|69:46|56:88,1,85
56,296,51314,2,0,B|69:337|69:337|109:349,1,85
402,349,51679,2,0,B|442:337|442:337|456:296,1,85
448,48,52045,5,8,0:0:0:0:
400,160,52228,1,8,0:0:0:0:
336,80,52410,1,8,0:0:0:0:
288,208,52593,1,8,0:0:0:0:
224,112,52776,1,8,0:0:0:0:
176,256,52958,1,8,0:0:0:0:
112,144,53141,1,8,0:0:0:0:
64,304,53324,1,8,0:0:0:0:
304,336,53507,6,0,L|368:256,1,85
440,192,53872,1,0,0:0:0:0:
384,96,54055,1,0,0:0:0:0:
168,64,54238,2,0,L|272:128,1,85
336,192,54603,1,0,0:0:0:0:
344,40,54786,1,0,0:0:0:0:
208,152,54969,6,0,L|120:200,1,85
80,320,55334,1,0,0:0:0:0:
80,320,55517,1,0,0:0:0:0:
208,248,55700,2,0,L|288:328,1,85
392,232,56065,1,0,0:0:0:0:
392,232,56248,1,0,0:0:0:0:
184,104,56430,5,0,0:0:0:0:
152,232,56613,1,0,0:0:0:0:
304,128,56796,1,0,0:0:0:0:
88,192,56979,1,0,0:0:0:0:
304,288,57161,1,0,0:0:0:0:
240,40,57344,1,0,0:0:0:0:
168,336,57527,1,0,0:0:0:0:
448,96,57710,1,0,0:0:0:0:
440,240,57892,5,8,0:0:0:0:
320,320,58075,1,8,0:0:0:0:
160,320,58258,1,8,0:0:0:0:
64,232,58441,1,8,0:0:0:0:
64,88,58623,1,8,0:0:0:0:
184,16,58806,1,8,0:0:0:0:
344,16,58989,1,8,0:0:0:0:
448,96,59172,1,8,0:0:0:0:
136,256,59354,5,4,0:0:0:0:
136,256,59537,1,4,0:0:0:0:
304,56,60816,6,4,L|408:56,1,85
368,56,62278,5,12,0:0:0:0:
144,328,62461,1,12,0:0:0:0:
80,104,63649,5,12,0:0:0:0:
256,96,65202,5,0,0:0:0:0:
160,191,65385,1,0,0:0:0:0:
256,288,65567,1,0,0:0:0:0:
352,191,65750,1,0,0:0:0:0:
229,99,65933,5,0,0:0:0:0:
348,165,66116,1,0,0:0:0:0:
282,284,66298,1,0,0:0:0:0:
163,218,66481,1,0,0:0:0:0:
208,108,66664,5,0,0:0:0:0:
172,239,66847,1,0,0:0:0:0:
304,275,67029,1,0,0:0:0:0:
339,143,67212,1,0,0:0:0:0:
188,124,67395,5,0,0:0:0:0:
323,124,67578,1,0,0:0:0:0:
323,259,67760,1,0,0:0:0:0:
188,259,67943,1,0,0:0:0:0:
172,144,68126,5,0,0:0:0:0:
207,275,68309,1,0,0:0:0:0:
304,108,68491,1,0,0:0:0:0:
339,240,68674,1,0,0:0:0:0:
163,167,68857,5,0,0:0:0:0:
280,99,69040,1,0,0:0:0:0:
231,284,69222,1,0,0:0:0:0:
348,216,69405,1,0,0:0:0:0:
160,192,69588,5,0,0:0:0:0:
256,288,69771,1,0,0:0:0:0:
256,96,69953,1,0,0:0:0:0:
352,191,70136,1,0,0:0:0:0:
163,216,70319,5,0,0:0:0:0:
231,99,70502,1,0,0:0:0:0:
280,284,70684,1,0,0:0:0:0:
348,167,70867,1,0,0:0:0:0:
192,248,71049,5,0,0:0:0:0:
320,248,71232,1,0,0:0:0:0:
160,200,71415,1,0,0:0:0:0:
352,296,71597,1,0,0:0:0:0:
128,152,71780,2,0,P|115:109|152:80,1,85
208,32,72146,1,0,0:0:0:0:
256,320,72328,1,0,0:0:0:0:
384,152,72511,2,0,P|397:109|360:80,1,85
208,32,72876,1,0,0:0:0:0:
184,72,73059,1,0,0:0:0:0:
160,112,73242,1,0,0:0:0:0:
64,120,73608,6,2,B|53:150|53:150|89:150|89:150|67:179|67:179|103:179|103:179|81:207|81:207|117:208|117:208|95:236|95:236|131:237|131:237|109:265|109:265|131:272,1,340
296,320,74156,1,0,0:0:0:0:
392,208,74338,1,0,0:0:0:0:
160,232,74521,1,0,0:0:0:0:
376,296,74704,1,0,0:0:0:0:
192,96,74887,1,0,0:0:0:0:
432,88,75069,1,0,0:0:0:0:
152,328,75252,1,0,0:0:0:0:
80,144,75435,5,8,0:0:0:0:
72,160,75526,1,8,0:0:0:0:
80,176,75618,1,8,0:0:0:0:
192,272,75800,5,8,0:0:0:0:
204,244,75892,1,8,0:0:0:0:
192,216,75983,1,8,0:0:0:0:
328,80,76166,5,8,0:0:0:0:
312,120,76257,1,8,0:0:0:0:
328,160,76348,1,8,0:0:0:0:
432,310,76531,5,8,0:0:0:0:
455,255,76623,1,8,0:0:0:0:
432,200,76714,1,8,0:0:0:0:
264,304,76897,5,0,0:0:0:0:
184,128,77079,1,0,0:0:0:0:
240,264,77262,1,0,0:0:0:0:
144,56,77445,1,0,0:0:0:0:
400,120,77628,2,0,P|389:81|349:71,1,85
392,248,77993,1,0,0:0:0:0:
144,56,78176,1,0,0:0:0:0:
96,304,78359,2,0,P|117:270|157:271,1,85
272,344,78724,1,0,0:0:0:0:
312,320,78907,1,0,0:0:0:0:
352,296,79090,1,0,0:0:0:0:
144,56,79455,5,2,0:0:0:0:
160,264,79820,5,0,0:0:0:0:
352,216,80003,1,0,0:0:0:0:
136,176,80186,2,0,L|176:80,1,85
168,98,80551,1,0,0:0:0:0:
336,296,80734,1,0,0:0:0:0:
336,296,80917,2,0,L|288:208,1,85
438,140,81282,5,8,0:0:0:0:
408,104,81374,1,8,0:0:0:0:
368,80,81465,1,8,0:0:0:0:
320,64,81556,1,8,0:0:0:0:
272,64,81648,1,8,0:0:0:0:
256,104,81739,1,8,0:0:0:0:
259,152,81831,1,8,0:0:0:0:
224,168,81922,1,8,0:0:0:0:
176,160,82013,1,8,0:0:0:0:
136,136,82105,1,8,0:0:0:0:
96,120,82196,1,8,0:0:0:0:
48,128,82287,1,8,0:0:0:0:
40,176,82379,1,8,0:0:0:0:
62,220,82470,1,8,0:0:0:0:
102,253,82562,1,8,0:0:0:0:
184,352,82744,5,0,0:0:0:0:
368,200,82927,1,0,0:0:0:0:
344,312,83110,1,0,0:0:0:0:
256,104,83293,1,0,0:0:0:0:
104,272,83475,2,0,P|138:244|123:199,1,85
408,272,83841,2,0,P|373:244|388:199,1,85
152,136,84206,2,0,L|216:192,1,85
360,248,84572,2,0,L|296:192,1,85
252,158,84937,1,0,0:0:0:0:
400,24,85303,5,2,0:0:0:0:
104,64,85668,5,0,0:0:0:0:
136,192,85851,1,0,0:0:0:0:
267,193,86034,1,0,0:0:0:0:
189,127,86216,1,0,0:0:0:0:
320,128,86399,1,0,0:0:0:0:
352,257,86582,1,0,0:0:0:0:
432,144,86765,1,0,0:0:0:0:
272,368,86947,1,0,0:0:0:0:
272,368,87130,5,0,0:0:0:0:
176,304,87313,1,0,0:0:0:0:
344,216,87495,1,0,0:0:0:0:
96,168,87678,1,0,0:0:0:0:
400,72,87861,1,0,0:0:0:0:
48,32,88226,1,2,0:0:0:0:
64,296,88592,6,0,L|88:240,1,42.5
120,280,88775,2,0,L|144:224,1,42.5,0|0,0:0|0:0,0:0:0:0:
176,264,88957,2,0,L|200:208,1,42.5
232,248,89140,2,0,L|256:192,1,42.5,0|0,0:0|0:0,0:0:0:0:
288,232,89323,1,0,0:0:0:0:
432,320,89688,5,2,0:0:0:0:
448,88,90054,6,0,L|424:144,1,42.5
392,104,90237,2,0,L|368:160,1,42.5,0|0,0:0|0:0,0:0:0:0:
336,120,90419,2,0,L|312:176,1,42.5
280,136,90602,2,0,L|256:192,1,42.5,0|0,0:0|0:0,0:0:0:0:
224,152,90785,1,0,0:0:0:0:
80,64,91150,5,2,0:0:0:0:
408,328,91516,5,0,0:0:0:0:
467,206,91698,1,0,0:0:0:0:
332,225,91881,1,0,0:0:0:0:
273,347,92064,1,0,0:0:0:0:
373,274,92247,5,0,0:0:0:0:
282,171,92429,1,0,0:0:0:0:
148,191,92612,1,0,0:0:0:0:
239,293,92795,1,0,0:0:0:0:
432,48,92978,5,8,0:0:0:0:
80,48,93343,5,8,0:0:0:0:
256,256,93709,5,4,0:0:0:0:
