osu file format v11

[General]
AudioFilename: Moy miliy.mp3
AudioLeadIn: 1500
PreviewTime: 39800
Countdown: 0
SampleSet: Soft
StackLeniency: 0.5
Mode: 0
LetterboxInBreaks: 0
StoryFireInFront: 0

[Editor]
DistanceSpacing: 0.5
BeatDivisor: 2
GridSize: 16

[Metadata]
Title:Moy miliy (My darling)
TitleUnicode:Мой милый (My darling)
Artist:Ivasi
ArtistUnicode:Иваси
Creator:heu3becteh
Version:Normal
Source:
Tags:russian acoustic guitar bards Ivashchenko Vasiliev Byousoku 5 Centimeter Five Centimeters Per Second
BeatmapID:202973
BeatmapSetID:70559

[Difficulty]
HPDrainRate:5
CircleSize:5
OverallDifficulty:5
ApproachRate:5
SliderMultiplier:0.500000005960464
SliderTickRate:1

[Events]
//Background and Video events
0,0,"BG.jpg"
//Break Periods
2,46875,49530
2,89550,93337
2,132450,136400
//Storyboard Layer 0 (Background)
//Storyboard Layer 1 (Fail)
//Storyboard Layer 2 (Pass)
//Storyboard Layer 3 (Foreground)
//Storyboard Sound Samples
//Background Colour Transformations
3,100,255,255,255

[TimingPoints]
4950,500,4,2,1,20,1,0
8500,500,4,2,1,20,1,0
18450,500,4,2,1,20,1,0
22450,500,4,2,1,20,1,0
26550,500,4,2,1,20,1,0
28475,500,4,2,1,20,1,0
32500,500,4,2,1,20,1,0
33550,500,4,2,1,20,1,0
41675,500,4,2,1,20,1,0
49730,500,4,2,1,20,1,0
53300,500,4,2,1,20,1,0
57400,500,4,2,1,20,1,0
61470,500,4,2,1,20,1,0
65260,500,4,2,1,20,1,0
69500,500,4,2,1,20,1,0
73650,500,4,2,1,20,1,0
75225,500,4,2,1,20,1,0
83775,500,4,2,1,20,1,0
87850,500,4,2,1,20,1,0
90910,500,4,2,1,20,1,0
92850,500,4,2,1,20,1,0
96050,500,4,2,1,20,1,0
100125,500,4,2,1,20,1,0
104000,500,4,2,1,20,1,0
110200,500,4,2,1,20,1,0
113100,500,4,2,1,20,1,0
114300,500,4,2,1,20,1,0
117950,500,4,2,1,20,1,0
124000,500,4,2,1,20,1,0
125750,500,4,2,1,20,1,0
132850,500,4,2,1,20,1,0
139150,500,4,2,1,20,1,0
143300,500,4,2,1,20,1,0
151100,500,4,2,1,20,1,0
155300,500,4,2,1,20,1,0
161600,500,4,2,1,20,1,0
167550,500,4,2,1,20,1,0
169300,500,4,2,1,20,1,0
177250,500,4,2,1,20,1,0
177900,500,4,2,1,20,1,0
184800,500,4,2,1,20,1,0
185500,500,4,2,1,20,1,0
186450,500,4,2,1,20,1,0
186890,500,4,2,1,20,1,0

[Colours]
Combo1 : 255,128,255
Combo2 : 128,128,255
Combo3 : 128,255,128
Combo4 : 255,128,128

[HitObjects]
256,192,8500,1,2,0:0:0
304,192,9500,1,2,0:0:0
352,192,10500,5,2,0:0:0
400,192,11500,1,2,0:0:0
448,192,12500,5,2,0:0:0
448,144,13500,1,2,0:0:0
448,96,14500,5,2,0:0:0
448,48,15500,1,2,0:0:0
400,48,16500,5,2,0:0:0
352,48,17500,1,2,0:0:0
304,48,18450,5,2,0:0:0
256,48,19450,1,2,0:0:0
208,48,20450,5,2,0:0:0
160,48,21450,1,2,0:0:0
160,96,22450,6,2,P|160:208,2,100.000001192093
112,96,25450,1,2,0:0:0
160,96,26450,5,2,0:0:0
208,96,27550,1,2,0:0:0
256,96,28475,5,2,0:0:0
256,144,29475,1,2,0:0:0
256,192,30475,5,2,0:0:0
256,240,31475,1,2,0:0:0
256,288,32500,5,2,0:0:0
256,336,33550,2,2,P|320:336,2,50.0000005960464
256,336,35550,6,2,P|192:336,2,50.0000005960464
256,288,37550,5,2,0:0:0
256,256,38050,1,2,0:0:0
256,224,38550,1,2,0:0:0
256,176,39550,5,2,0:0:0
256,128,40550,1,2,0:0:0
256,64,41675,6,2,P|320:64,2,50.0000005960464
256,64,43675,6,2,P|192:64,2,50.0000005960464
256,112,45675,5,2,0:0:0
256,144,46175,1,2,0:0:0
256,176,46675,1,2,0:0:0
48,192,50730,6,2,P|112:192,1,50.0000005960464
128,192,51730,2,2,P|192:192,1,50.0000005960464
224,192,53300,6,2,P|288:192,3,50.0000005960464
320,192,55800,5,2,0:0:0
320,240,56800,1,2,0:0:0
320,272,57400,6,2,P|256:272,3,50.0000005960464
224,272,59900,5,2,0:0:0
176,272,60900,1,2,0:0:0
144,272,61470,6,2,P|144:208,3,50.0000005960464
144,176,63970,1,2,0:0:0
144,112,65260,6,2,P|352:112,1,200.000002384186
384,112,68010,1,2,0:0:0
432,112,69010,1,2,0:0:0
432,144,69500,6,2,P|432:208,3,50.0000005960464
432,240,72125,5,2,0:0:0
432,288,73125,1,2,0:0:0
432,320,73650,2,2,P|320:320,1,100.000001192093
304,320,75225,5,2,0:0:0
256,320,76225,1,2,0:0:0
256,272,77225,5,2,0:0:0
256,224,78225,1,2,0:0:0
256,176,79225,1,2,0:0:0
256,128,80225,5,2,0:0:0
256,96,80725,1,2,0:0:0
256,64,81225,1,2,0:0:0
160,64,83225,5,2,0:0:0
112,64,84275,1,2,0:0:0
64,64,85275,1,2,0:0:0
16,64,86275,1,2,0:0:0
16,112,87275,1,2,0:0:0
64,112,88350,5,2,0:0:0
96,112,88850,1,2,0:0:0
128,112,89350,1,2,0:0:0
256,192,94537,5,2,0:0:0
304,192,95537,1,2,0:0:0
336,192,96050,6,2,P|400:192,3,50.0000005960464
432,192,98612,5,2,0:0:0
480,192,99612,1,2,0:0:0
480,160,100125,6,2,P|480:96,3,50.0000005960464
480,48,102708,1,2,0:0:0
416,48,104000,6,2,P|256:48,1,150.000001788139
224,48,106666,1,2,0:0:0
160,48,108000,6,2,P|160:224,1,175.000002086163
160,272,110700,5,2,0:0:0
208,272,111700,1,2,0:0:0
256,272,112700,5,2,0:0:0
304,272,113766,1,2,0:0:0
352,272,114800,5,2,0:0:0
400,272,115800,1,2,0:0:0
448,272,116800,1,2,0:0:0
448,208,117800,5,2,0:0:0
448,160,118950,1,2,0:0:0
448,112,119950,1,2,0:0:0
448,64,120950,6,2,P|512:64,2,50.0000005960464
400,64,122950,5,2,0:0:0
368,64,123450,1,2,0:0:0
336,64,124000,1,2,0:0:0
288,64,125000,5,2,0:0:0
240,64,126083,1,2,0:0:0
192,64,127166,1,2,0:0:0
144,64,128250,1,2,0:0:0
96,64,129250,6,2,P|96:0,2,50.0000005960464
96,112,131250,5,2,0:0:0
96,144,131750,1,2,0:0:0
96,176,132250,1,2,0:0:0
368,192,137600,5,2,0:0:0
320,192,138600,1,2,0:0:0
288,192,139150,6,2,P|224:192,3,50.0000005960464
192,192,141712,5,2,0:0:0
128,192,142775,1,2,0:0:0
128,160,143300,6,2,P|128:96,3,50.0000005960464
128,64,145800,5,2,0:0:0
176,64,146800,1,2,0:0:0
224,64,147800,5,2,0:0:0
272,64,148800,1,2,0:0:0
320,64,149800,1,2,0:0:0
384,64,151100,6,2,P|384:240,1,175.000002086162
384,288,153787,1,2,0:0:0
304,288,155300,6,2,P|240:288,3,50.0000005960464
208,288,157800,5,2,0:0:0
160,288,158800,1,2,0:0:0
112,288,159800,1,2,0:0:0
64,288,160800,6,2,P|64:352,2,50.0000005960464
64,240,162850,2,2,P|0:240,2,50.0000005960464
96,240,164225,1,2,0:0:0
160,240,165725,5,2,0:0:0
192,240,166225,1,2,0:0:0
224,240,166725,1,2,0:0:0
256,192,168300,12,2,174800,0:0:0
