osu file format v9

[General]
AudioFilename: 01 Spring has come!!.mp3
AudioLeadIn: 0
PreviewTime: -1
Countdown: 0
SampleSet: Normal
StackLeniency: 0.7
Mode: 0
LetterboxInBreaks: 1

[Editor]
DistanceSpacing: 1.3
BeatDivisor: 4
GridSize: 4

[Metadata]
Title:Spring has come!!
Artist:Itou Shizuka
Creator:sm000001
Version:Insane
Source:
Tags:Itou Shizuka

[Difficulty]
HPDrainRate:6
CircleSize:4
OverallDifficulty:7
ApproachRate:9
SliderMultiplier:2
SliderTickRate:1

[Events]
//Background and Video events
0,0,"cover2.jpg"
//Break Periods
2,24357,28851
2,185651,194733
//Storyboard Layer 0 (Background)
//Storyboard Layer 1 (Fail)
//Storyboard Layer 2 (Pass)
//Storyboard Layer 3 (Foreground)
//Storyboard Sound Samples
//Background Colour Transformations
3,100,163,162,255

[TimingPoints]
7922,352.941176470588,4,1,0,100,1,0

[Colours]
Combo1 : 64,0,64
Combo2 : 255,0,128
Combo3 : 5,5,240
Combo4 : 240,5,5

[HitObjects]
64,160,14980,2,0,B|96:64|256:64,1,200
320,64,15510,1,0
416,96,15686,1,0
480,224,15863,5,0
480,224,15951,1,0
480,224,16039,2,0,B|480:288|384:320,1,100
256,192,16392,1,0
32,128,16569,2,0,B|32:64|128:64,1,100
192,32,16921,1,0
288,64,17098,1,0
384,128,17274,1,0
448,224,17451,1,4
480,32,17804,5,4
448,128,17980,1,0
416,32,18157,1,0
384,128,18333,1,0
352,32,18510,2,0,B|224:32|160:160,1,200
96,128,19216,5,0
192,64,19392,1,0
288,32,19569,1,0
416,32,19745,1,0
416,32,19833,1,0
416,32,19921,2,0,B|480:64|416:160|416:160,1,100
416,224,20274,5,0
384,320,20451,1,0
352,224,20627,2,0,B|224:224,1,100
320,320,20980,2,0,B|192:320,1,100
128,224,21333,2,0,B|256:224,1,100
96,320,21686,2,0,B|224:320,1,100
288,320,22039,5,0
384,256,22216,1,0
416,160,22392,1,0
384,64,22569,1,0
288,32,22745,2,0,B|224:64|160:32,1,100
190,43,23010,1,0
190,43,23098,1,4
256,192,23451,12,0,24157
384,192,29451,5,4
480,256,29627,1,0
384,288,29804,2,0,B|320:320|256:288,1,100
286,299,30069,1,0
286,299,30157,1,0
192,320,30333,5,0
96,288,30510,1,0
64,192,30686,1,0
64,96,30863,2,0,B|64:32|160:32,2,100
32,32,31569,5,4
480,32,31921,1,4
32,128,32274,1,4
480,128,32627,1,4
32,224,32980,1,4
480,224,33333,1,4
32,320,33686,1,4
480,320,34039,1,4
32,224,34392,5,0
32,192,34480,1,0
32,160,34569,1,0
32,128,34657,1,0
32,96,34745,1,8
32,96,34921,1,0
32,96,35098,6,0,B|128:32,1,100
160,96,35451,2,0,B|64:160,1,100
76,151,35716,1,0
76,151,35804,1,0
32,224,35980,6,0,B|160:320|352:224,1,300
416,192,36686,1,0
448,96,36863,1,0
352,64,37039,1,0
256,96,37216,1,0
320,160,37392,1,0
352,256,37569,6,0,B|480:256,2,100
256,256,38098,2,0,B|128:256,3,100
256,192,38804,12,0,40392
32,64,40745,5,0
128,32,40921,1,0
64,128,41098,1,0
160,96,41274,1,0
96,192,41451,1,0
96,192,41539,1,0
96,192,41627,2,0,B|128:32|352:32,1,300
416,96,42333,1,0
480,192,42510,1,0
416,288,42686,1,0
320,352,42863,1,0
224,352,43039,5,0
128,320,43216,2,0,B|64:320|64:224,1,100
128,224,43569,2,0,B|224:256|192:320,1,100
128,320,43921,2,0,B|64:320|64:224,1,100
128,224,44274,2,0,B|224:256|192:320,1,100
295,253,44628,5,0
320,224,44716,1,0
352,192,44804,1,0
384,160,44892,1,0
416,128,44981,1,0
320,64,45157,5,4
256,128,45333,5,0
224,160,45422,1,0
192,192,45510,1,0
160,224,45598,1,0
128,256,45686,1,0
64,320,45863,1,4
32,224,46039,5,0
32,192,46127,1,0
32,160,46216,1,0
32,128,46304,1,0
32,96,46392,6,0,B|64:32|128:32,1,100
192,32,46745,1,0
288,32,46921,1,0
384,96,47098,1,0
448,192,47274,2,0,B|384:320,2,100
384,96,47804,5,0
288,128,47980,1,0
224,224,48157,1,0
256,320,48333,2,0,B|352:352|352:256,1,100
256,192,48863,12,0,49745
64,96,50098,5,4
480,160,50451,1,4
64,224,50804,1,4
480,288,51157,1,4
384,224,51333,5,0
320,224,51421,1,0
256,224,51510,1,0
192,224,51598,1,0
128,224,51686,1,4
96,64,52039,2,0,B|224:64,3,100
224,128,52745,1,0
256,32,52922,1,0
288,128,53098,1,0
320,32,53274,1,0
352,128,53451,1,0
384,32,53627,1,4
32,32,54157,5,0
32,32,54333,1,0
32,32,54510,1,0
96,352,54863,1,4
160,32,55216,1,4
224,352,55569,1,4
288,32,55921,1,4
352,352,56274,1,4
416,32,56627,1,4
480,352,56980,1,4
96,192,57333,5,0
52,168,57421,1,0
40,120,57510,1,0
60,72,57598,1,0
100,44,57686,1,0
200,36,57863,1,0
300,36,58039,1,0
400,48,58216,2,8,B|470:42|481:130,1,100
460,200,58569,1,0
392,276,58745,2,8,B|364:325|284:344,1,100
220,296,59098,1,0
152,224,59274,1,0
228,160,59451,1,0
328,144,59627,1,0
412,195,59804,1,0
448,352,60157,5,4
64,352,60510,1,4
256,32,60863,1,4
448,32,61216,1,4
64,32,61569,1,4
256,352,61921,1,4
64,192,62274,1,4
448,192,62627,1,4
192,192,63333,5,0
320,192,63510,1,0
96,192,63686,1,0
416,192,63863,1,0
448,96,64039,1,0
480,32,64216,2,0,B|480:160,1,100
32,128,64745,1,4
480,192,65098,1,0
32,224,65451,1,4
480,288,65804,1,4
256,192,66157,12,0,67039
64,96,67921,5,0
160,64,68098,1,0
224,128,68274,1,0
192,224,68451,1,0
128,160,68627,1,0
128,192,68716,1,0
128,224,68804,1,0
128,256,68892,1,0
128,288,68980,1,0
224,288,69157,5,0
320,256,69333,1,0
352,224,69421,1,0
384,192,69510,1,0
416,160,69598,1,0
448,128,69686,1,0
352,96,69863,1,4
256,64,70039,1,4
160,64,70216,1,4
64,128,70392,1,4
32,224,70569,1,4
256,192,71098,12,0,72686
64,128,73921,5,4
128,32,74098,1,4
192,128,74274,1,4
256,32,74451,1,4
320,128,74627,1,4
384,32,74804,1,4
448,128,74980,1,4
384,224,75157,5,4
256,192,75333,2,0,B|256:128,2,50
256,256,75686,2,0,B|256:320,2,50
160,224,76039,2,0,B|32:224,2,100
32,96,76745,6,0,B|64:32|128:32,1,100
384,32,77098,2,0,B|448:32|480:96,1,100
480,288,77451,2,0,B|480:352|384:352,1,100
96,352,77804,2,0,B|0:352|32:256,1,100
32,192,78157,6,0,B|32:128|128:128,1,100
192,64,78510,1,0
320,96,78686,1,0
416,192,78863,1,0
416,320,79039,1,0
416,320,79127,1,0
416,320,79216,1,8
64,64,79569,6,0,B|160:160,1,100
448,64,79921,2,0,B|352:160,1,100
160,256,80274,2,0,B|64:352,1,100
352,256,80627,2,0,B|448:352,2,100
288,192,81157,1,0
256,160,81245,1,0
224,128,81333,1,0
128,64,81510,1,0
96,96,81598,1,0
64,128,81686,2,0,B|0:192|64:256,2,100
320,160,82392,6,0,B|384:160|384:256,1,100
382,225,82745,1,8
256,192,82921,2,0,B|256:256|160:288,1,100
201,270,83274,1,8
192,160,83451,2,0,B|128:160|96:64,1,100
113,105,83804,1,8
256,128,83980,2,0,B|256:64|352:32,2,100
256,128,84421,1,0
256,128,84510,1,8
128,64,84863,5,4
256,32,85039,1,4
384,32,85216,2,0,B|448:32|512:96,2,100
256,32,85745,1,4
128,64,85921,1,4
32,160,86098,1,4
128,256,86274,1,4
256,288,86451,1,4
384,224,86627,1,4
320,96,86804,1,4
192,128,86980,1,4
224,256,87157,1,4
320,192,87333,2,0,B|416:128,2,100
96,64,88039,6,0,B|160:128,2,50
416,64,88392,6,0,B|352:128,2,50
96,288,88745,6,0,B|160:224,2,50
345,210,89098,5,0
331,217,89186,1,0
320,224,89274,2,0,B|224:288,2,100
448,160,89804,1,4
352,64,89980,1,4
256,160,90157,1,4
352,256,90333,1,4
448,160,90510,1,4
451,43,90863,5,0
335,101,91039,1,0
204,97,91216,2,0,B|110:40,2,100
314,166,91745,1,0
314,166,91921,2,0,B|429:238,2,100
202,96,92451,1,0
87,38,92627,1,0
70,69,92716,1,0
61,102,92804,1,0
61,136,92892,1,0
75,167,92980,1,8
98,193,93069,1,0
130,206,93157,1,8
353,59,93686,6,0,B|378:99|418:162,1,100
172,300,94039,2,0,B|120:212,1,100
396,248,94392,2,0,B|300:312,1,100
160,104,94745,2,0,B|264:44,1,100
44,108,95098,1,0
44,108,95186,1,0
44,108,95274,2,4,B|160:0|352:64,1,300
320,192,95980,1,0
192,256,96157,1,0
448,96,96510,6,0,B|241:-1|47:122,1,400
32,224,97392,1,0
144,292,97569,1,0
272,284,97745,1,0
184,188,97921,1,0
220,312,98098,1,0
348,316,98274,2,0,B|444:344|424:240,3,100
372,168,98980,1,4
240,168,99157,1,4
148,256,99333,1,4
256,192,99598,12,8,100921
232,156,102510,5,0
192,216,102686,1,0
264,220,102863,1,0
304,164,103039,1,0
204,120,103216,1,0
152,240,103392,1,0
288,256,103569,1,0
340,140,103745,1,0
176,84,103921,1,0
112,264,104098,1,0
316,292,104274,1,0
384,112,104451,1,0
256,192,104627,1,4
256,192,104804,1,0
256,192,104980,1,4
256,192,105333,5,0
216,192,105510,1,0
296,192,105686,1,0
176,192,105863,1,0
336,192,106039,1,0
132,192,106216,1,0
376,192,106392,1,0
96,192,106569,1,0
416,192,106745,2,0,B|416:56|256:56,1,200
96,192,107451,2,0,B|96:312|256:312,1,200
328,312,107980,5,0
408,252,108157,1,0
444,160,108333,1,0
396,72,108510,1,0
304,36,108686,1,0
204,36,108863,1,0
112,76,109039,1,0
48,152,109216,1,0
140,192,109392,2,0,B|284:192,1,100
340,192,109745,2,0,B|440:192,2,100
340,192,110274,1,0
340,192,110451,1,0
340,192,110627,1,0
252,36,110980,5,0
56,192,111157,1,0
256,332,111333,1,0
256,332,111686,1,0
460,192,111863,1,0
252,36,112039,1,0
256,192,112216,12,0,113451
60,108,114157,6,0,B|60:48|168:36,2,100
160,108,114686,1,0
260,108,114863,1,0
360,112,115039,2,0,B|380:176|276:184,4,100
260,108,115921,5,0
160,108,116098,1,0
60,108,116274,2,0,B|60:228,2,100
60,108,116804,1,0
60,208,116980,2,0,B|168:208,2,100
60,208,117510,1,0
160,208,117686,2,0,B|160:88,2,100
160,208,118216,1,0
160,108,118392,2,0,B|48:108,2,100
160,108,118921,5,0
232,36,119098,1,0
271,66,119186,1,0
310,96,119274,1,0
350,126,119363,1,0
388,158,119451,1,0
463,222,119627,5,0
394,295,119804,1,0
323,224,119980,2,0,B|405:136,2,100
244,284,120510,2,0,B|128:284,1,100
44,284,120863,1,0
40,184,121039,2,0,B|168:184,1,100
240,188,121392,1,0
240,88,121569,2,0,B|128:88,1,100
40,88,121921,1,0
76,124,122010,1,0
112,160,122098,1,0
148,196,122186,1,0
188,228,122274,1,0
256,300,122451,6,0,B|340:228,1,100
412,176,122804,1,0
420,76,122980,2,0,B|308:76,2,100
256,192,123510,12,0,124745
64,44,125451,5,0
160,68,125627,2,0,B|68:160,1,100
32,220,125980,1,0
32,220,126069,1,0
32,220,126157,1,0
116,272,126333,1,0
212,296,126510,5,0
388,204,126686,1,0
272,40,126863,1,0
108,156,127039,1,0
256,192,127216,1,0
256,192,127569,1,4
256,192,127921,2,0,B|336:112,2,100
256,192,128627,2,0,B|152:108,2,100
256,192,129333,2,0,B|164:284,2,100
256,192,130039,2,0,B|348:276,2,100
256,192,130480,1,0
256,192,130569,1,4
256,192,130657,1,0
256,192,130745,1,0
36,192,131098,5,0
100,116,131274,1,0
200,116,131451,1,0
256,192,131627,1,0
320,268,131804,1,0
420,268,131980,1,0
480,192,132157,1,0
416,116,132333,1,0
316,112,132510,1,0
256,192,132686,1,0
196,272,132863,1,0
96,272,133039,1,0
36,192,133216,1,0
136,192,133392,5,0
236,192,133568,1,0
276,164,133656,1,0
316,196,133745,1,0
356,164,133833,1,0
392,196,133921,1,0
432,164,134010,1,0
468,200,134098,2,0,B|468:76,3,100
468,100,134804,5,4
104,64,135157,1,4
72,288,135510,1,4
432,324,135863,1,4
384,192,136039,5,0
320,192,136127,1,0
256,192,136215,1,0
192,192,136303,1,0
128,192,136392,1,4
112,80,136745,5,0
205,44,136921,1,0
250,133,137098,1,0
159,174,137274,1,0
71,223,137451,1,0
125,306,137627,2,0,B|229:249,3,100
212,257,138245,1,4
212,257,138333,1,0
444,72,138686,5,0
444,72,138863,2,0,B|416:8|316:72,2,100
344,108,139392,1,0
344,108,139569,2,0,B|364:164|424:136,2,100
440,192,140098,1,0
440,192,140274,1,0
256,312,140451,1,0
80,192,140627,1,0
80,192,140804,1,0
80,192,140980,1,0
256,48,141157,1,0
440,192,141333,1,0
368,192,141686,5,0
348,148,141774,1,0
308,116,141863,1,0
260,108,141951,1,0
212,104,142039,1,0
116,132,142216,1,0
64,220,142392,2,0,B|184:252,3,100
160,245,143098,6,0,B|196:140,2,100
224,244,143804,1,0
288,244,144157,1,0
352,244,144510,1,0
416,244,144863,1,0
408,64,145569,6,0,B|304:64,1,100
208,64,145921,1,0
108,64,146098,2,0,B|108:168,1,100
108,264,146451,1,0
208,264,146627,2,0,B|308:264,2,100
208,264,147333,1,0
72,200,147686,5,0
44,160,147774,1,0
48,108,147863,1,0
88,80,147951,1,0
136,72,148039,2,0,B|196:60|216:144,3,100
164,212,148745,1,0
72,176,148921,1,0
112,84,149098,1,0
208,116,149274,1,0
164,212,149451,1,0
72,176,149627,1,0
112,84,149804,2,0,B|216:116,1,100
208,116,150157,2,0,B|316:152,1,100
303,148,150510,2,0,B|424:188,2,100
397,179,151039,5,0
332,256,151216,1,0
236,284,151392,1,0
188,268,151480,1,0
160,228,151569,1,0
156,180,151657,1,0
184,136,151745,1,0
264,60,152098,1,0
264,60,152274,1,0
448,56,152627,6,0,B|340:56,2,100
452,156,153157,1,0
352,156,153333,2,0,B|216:156,3,100
252,56,154039,1,0
156,88,154216,1,0
120,180,154392,1,0
84,272,154569,6,0,B|68:200|156:184,1,100
224,168,154921,1,0
316,204,155098,1,0
284,300,155274,1,0
188,272,155451,1,0
160,232,155539,1,0
168,184,155627,1,0
200,144,155716,1,0
240,116,155804,1,0
256,192,155980,12,0,157921
36,260,158627,5,0
256,192,158804,1,0
472,116,158980,1,0
460,300,159333,1,0
96,60,159686,1,0
64,192,160039,1,0
448,192,160216,1,0
448,192,160569,1,0
256,68,160745,1,0
64,192,160921,1,0
256,320,161098,1,0
120,300,161451,5,0
204,88,161627,1,0
408,196,161804,1,0
240,208,162157,1,0
84,192,162510,1,0
84,192,162686,1,0
256,192,163039,1,0
108,104,163393,1,0
328,44,163569,1,0
440,244,163746,1,0
216,292,163922,1,0
256,64,164274,5,0
256,112,164451,1,0
256,164,164627,1,0
256,260,164980,1,0
256,260,165333,1,0
88,192,165686,1,0
420,192,165863,1,0
48,192,166216,1,0
460,192,166392,1,0
48,192,166569,1,0
460,192,166745,1,0
148,80,167098,5,0
392,312,167274,1,0
148,80,167451,1,0
148,80,167804,1,0
144,312,168157,1,0
384,88,168333,1,0
384,88,168686,1,0
384,88,169039,1,0
144,312,169216,1,0
112,68,169921,5,0
420,68,170098,1,0
256,328,170274,1,0
256,168,170627,1,0
256,168,170980,1,0
104,320,171333,1,0
412,292,171510,1,0
104,244,171863,1,0
412,220,172039,1,0
104,172,172216,1,0
412,148,172392,1,0
104,44,172745,5,0
412,80,172921,1,0
104,112,173098,1,0
256,168,173451,1,0
256,48,173804,1,0
256,336,173980,1,0
256,168,174333,1,0
324,88,174686,1,0
408,168,174863,1,0
220,304,175039,1,0
72,92,175216,1,0
72,92,175569,5,0
256,96,175745,1,0
440,96,175921,1,0
72,92,176274,1,0
440,96,176627,1,0
132,272,176980,1,0
388,276,177157,1,0
388,276,177510,1,0
132,272,177686,1,0
256,80,177863,1,0
448,48,178392,5,0
416,308,178569,1,0
376,48,178745,1,0
376,48,179098,1,0
344,308,179451,1,0
304,48,179627,1,0
304,48,179980,1,0
272,308,180333,1,0
236,48,180510,1,0
384,72,181216,5,0
384,72,181392,1,0
384,72,181569,2,0,B|168:324,1,300
132,264,182274,2,0,B|336:32,1,300
428,252,182980,2,0,B|168:32,1,300
148,96,183686,2,0,B|400:312,1,300
256,192,184392,12,0,185451
152,56,195333,5,0
364,52,195510,1,0
80,104,195686,2,0,B|184:204,1,100
424,328,196039,2,0,B|320:232,1,100
212,176,196392,1,0
68,64,196569,2,0,B|168:64,1,100
432,164,196921,2,0,B|296:164,1,100
72,320,197274,2,0,B|192:320,1,100
432,164,197627,2,0,B|288:164,1,100
68,192,197980,1,0
68,192,198157,2,0,B|272:192,1,200
100,80,198686,5,0
296,56,198863,1,0
340,248,199039,1,0
160,280,199216,1,0
64,68,199392,2,0,B|168:128,1,100
424,256,199745,2,0,B|308:196,1,100
256,156,200098,1,0
256,224,200274,1,0
148,192,200451,1,0
352,192,200627,1,0
256,336,200804,1,0
256,48,200980,1,0
80,76,201157,5,0
80,76,201333,2,0,B|192:76,1,100
388,168,201686,2,0,B|504:168,1,100
248,212,202039,1,0
40,312,202216,2,0,B|172:312,1,100
476,192,202569,2,0,B|332:192,1,100
48,80,202921,2,0,B|152:80,1,100
368,304,203274,2,0,B|484:304,1,100
60,164,203627,1,0
60,164,203804,2,0,B|176:164,1,100
60,164,204157,2,0,B|472:164,1,400
60,164,205216,5,0
460,164,205569,1,0
60,164,205921,1,0
460,164,206274,1,0
60,164,206627,1,0
256,192,206804,12,0,208216
256,192,208392,5,0
80,144,209451,5,0
196,64,209627,1,0
328,116,209804,1,0
366,174,209892,1,0
407,230,209980,1,0
289,306,210157,1,0
253,245,210245,1,0
219,183,210333,1,0
82,215,210510,1,0
113,277,210598,1,0
150,336,210686,1,0
289,318,210863,1,0
351,287,210951,1,0
416,261,211039,1,0
444,123,211216,1,0
331,40,211392,1,0
190,37,211569,1,0
85,129,211745,1,0
130,260,211921,1,0
363,105,212274,6,0,B|266:186,2,100
454,212,212804,1,0
329,275,212980,1,0
267,309,213069,1,0
197,302,213157,1,0
69,244,213333,1,0
78,103,213510,1,0
138,67,213598,1,0
207,65,213686,1,0
346,83,213863,2,0,B|382:136|279:192,1,100
199,91,214216,1,0
255,218,214392,1,0
146,129,214569,1,0
201,257,214745,1,0
169,159,215098,5,0
307,137,215274,1,0
445,113,215451,2,0,B|330:137,1,100
208,154,215804,1,0
139,167,215892,1,0
70,182,215980,1,0
90,320,216157,2,0,B|171:358|202:290,1,100
313,264,216510,1,0
417,171,216686,2,0,B|437:93|339:75,1,100
244,120,217039,1,0
310,243,217216,1,0
441,194,217392,1,0
370,72,217569,1,0
97,75,217921,5,0
235,50,218098,1,0
198,184,218274,2,0,B|150:263|228:277,1,100
344,280,218627,2,0,B|403:222|338:176,1,100
241,112,218980,1,0
113,169,219157,1,0
73,226,219245,1,0
103,288,219333,1,0
242,299,219510,1,0
286,245,219598,1,0
258,180,219686,1,0
170,69,219863,1,0
170,69,220039,1,0
28,143,220745,5,0
28,143,220921,1,0
28,143,221098,2,0,B|-16:192|28:231,1,100
256,192,221451,1,0
484,235,221628,2,0,B|541:185|462:130,1,100
485,149,221892,1,0
485,149,221980,1,0
203,91,222157,1,0
307,91,222333,1,0
151,161,222510,1,0
359,160,222686,1,0
90,230,222863,1,0
416,232,223039,1,0
256,302,223216,1,0
89,76,223569,5,0
227,59,223745,1,0
365,43,223921,2,0,B|421:32,2,50
298,166,224274,1,0
434,133,224451,2,0,B|501:117,2,50
437,280,224804,1,0
348,124,224980,1,0
189,210,225157,1,0
101,54,225333,1,0
26,218,225510,1,0
192,149,225686,1,0
354,228,225863,1,0
178,263,226039,1,0
426,41,226392,6,0,B|338:129,1,100
257,191,226745,1,0
103,327,226921,2,0,B|195:245,1,100
441,333,227274,2,0,B|351:254,1,100
257,191,227627,1,0
95,37,227804,2,0,B|174:110,1,100
345,81,228157,1,0
161,205,228333,1,0
474,179,228510,1,0
309,296,228686,1,0
74,113,229216,6,0,B|171:41,1,100
257,190,229569,1,0
473,273,229745,2,0,B|381:349,1,100
256,324,230098,1,0
197,286,230186,1,0
147,236,230274,1,0
35,150,230451,1,0
147,67,230627,1,0
214,44,230716,1,0
283,38,230804,1,0
408,98,230980,1,0
313,202,231157,1,0
449,230,231333,1,0
51,78,232039,5,0
51,78,232216,1,0
51,78,232392,2,0,B|377:12,1,300
478,286,233098,2,0,B|152:358,1,300
375,21,233804,2,0,B|487:299,1,300
135,340,234510,2,0,B|35:54,1,300
256,192,235216,12,0,238039
