osu file format v12

[General]
AudioFilename: 06 - Merry-go-round Mellow.mp3
AudioLeadIn: 0
PreviewTime: 68480
Countdown: 0
SampleSet: Soft
StackLeniency: 0.7
Mode: 0
LetterboxInBreaks: 1

[Editor]
Bookmarks: 232096
DistanceSpacing: 1
BeatDivisor: 4
GridSize: 4

[Metadata]
Title:Merry-go-round Mellow
TitleUnicode:メリーゴーランドメロウ
Artist:Itou Shizuka
ArtistUnicode:伊藤 静
Creator:termerys
Version:Normal
Source:HiNA2 Spring has come!!
Tags:katsura hinagiku roxkyuubiforever kantokun
BeatmapID:165207
BeatmapSetID:42310

[Difficulty]
HPDrainRate:3
CircleSize:3
OverallDifficulty:3
ApproachRate:5
SliderMultiplier:1.4
SliderTickRate:1

[Events]
//Background and Video events
0,0,"hina_bg.png",0,0
//Break Periods
2,34478,44714
2,92660,102896
2,162478,178533
//Storyboard Layer 0 (Background)
//Storyboard Layer 1 (Fail)
//Storyboard Layer 2 (Pass)
//Storyboard Layer 3 (Foreground)
//Storyboard Sound Samples
//Background Colour Transformations
3,100,163,162,255

[TimingPoints]
16824,363.636363636364,4,1,1,60,1,0
45914,-100,4,1,1,60,0,0
68460,-100,4,1,1,30,0,0
69187,-100,4,1,1,80,0,1
69278,-100,4,1,1,60,0,1
92460,-100,4,1,1,80,0,0
104096,-133.333333333333,4,2,0,80,0,0
104187,-133.333333333333,4,2,1,50,0,0
109914,-133.333333333333,4,1,1,40,0,0
115733,-100,4,1,1,50,0,0
139005,-100,4,1,1,80,0,1
139096,-100,4,1,1,60,0,1
141187,-100,4,1,1,70,0,1
141914,-100,4,1,1,60,0,1
144096,-100,4,1,1,70,0,1
144824,-100,4,1,1,60,0,1
147733,-100,4,1,1,60,0,0
149914,-100,4,1,1,55,0,0
150278,-100,4,1,1,50,0,0
150642,-100,4,1,1,60,0,1
156096,-100,4,1,1,55,0,1
156460,-100,4,1,1,60,0,1
162187,-100,4,1,1,60,0,0
162278,-100,4,1,1,80,0,1
162369,-100,4,1,1,50,0,0
179733,-133.333333333333,4,2,0,50,0,0
185551,-100,4,1,1,50,0,0
190824,-100,4,1,1,45,0,0
191005,-100,4,1,1,40,0,0
191187,-100,4,1,1,50,0,0
201005,-133.333333333333,4,2,1,50,0,0
203005,-100,4,1,1,80,0,1
203096,-100,4,1,1,70,0,1
211733,-100,4,1,1,60,0,0
213914,-100,4,1,1,55,0,0
214278,-100,4,1,1,50,0,0
214642,-100,4,1,1,70,0,1
220096,-100,4,1,1,60,0,1
220460,-100,4,1,1,70,0,1
226278,-133.333333333333,4,2,1,60,0,0
229733,-133.333333333333,4,1,1,30,0,0
230096,-133.333333333333,4,1,1,35,0,0
230460,-133.333333333333,4,1,1,40,0,0
230824,-133.333333333333,4,1,1,45,0,0
231187,-133.333333333333,4,1,1,50,0,0
231369,-133.333333333333,4,1,1,55,0,0
231733,-133.333333333333,4,1,1,60,0,0
232096,-100,4,1,1,90,0,1
232187,-100,4,1,1,60,0,0

[Colours]
Combo1 : 111,255,183
Combo2 : 255,0,128
Combo3 : 142,34,34
Combo4 : 254,51,22
Combo5 : 255,255,130
Combo6 : 11,233,244
Combo7 : 191,191,191
Combo8 : 255,187,250

[HitObjects]
72,332,16824,2,0,B|24:192|72:52,2,280,4|0|4,0:0|0:0|0:0,0:0:0:0:
160,224,18642,2,0,B|224:192|300:224,2,140
180,84,19733,6,0,B|281:18|452:77,1,280,4|0,0:0|0:0,0:0:0:0:
452,288,21005,1,0,0:0:0:0:
452,288,21187,2,0,B|312:216|179:282,1,280,8|0,0:0|0:0,0:0:0:0:
120,316,22096,1,8,0:0:0:0:
60,113,22642,6,0,B|191:60,1,140,0|8,0:0|0:0,0:0:0:0:
215,126,23187,2,0,B|84:179,1,140
44,316,23914,2,0,B|144:373|270:328,2,210,0|8|0,0:0|0:0|0:0,0:0:0:0:
44,316,25187,1,8,0:0:0:0:
72,168,25551,5,0,0:0:0:0:
72,168,25733,2,0,B|72:96,1,70,0|8,0:0|0:0,0:0:0:0:
140,104,26096,2,0,B|212:64|284:112,1,140
412,100,26824,2,0,B|449:240|335:358,1,280
264,344,27733,2,0,B|196:344,1,70,8|0,0:0|0:0,0:0:0:0:
192,272,28096,2,0,B|268:272,1,70,8|0,0:0|0:0,0:0:0:0:
264,200,28460,70,0,B|264:48,1,140,0|8,0:0|0:0,0:0:0:0:
200,32,29005,1,0,0:0:0:0:
60,48,29369,2,0,B|72:120|152:164,1,140
140,228,29914,1,0,0:0:0:0:
140,228,30278,2,0,B|72:266|60:338,2,140,8|0|8,0:0|0:0|0:0,0:0:0:0:
252,312,31369,6,0,B|328:312|380:260,1,140,0|8,0:0|0:0,0:0:0:0:
400,196,31914,2,0,B|432:128|408:52,2,140
256,192,32824,12,4,34278,0:0:0:0:
116,312,45914,6,0,B|80:248|84:176,1,140,4|8,0:0|0:0,0:0:0:0:
216,224,46642,2,0,B|252:160|248:88,1,140,0|8,0:0|0:0,0:0:0:0:
372,152,47369,2,0,B|436:128|512:136,1,140,0|8,0:0|0:0,0:0:0:0:
476,272,48096,2,0,B|409:289|335:273,1,140,0|8,0:0|0:0,0:0:0:0:
340,204,48642,1,0,0:0:0:0:
336,132,48824,6,0,B|268:88|196:144,1,140,0|8,0:0|0:0,0:0:0:0:
220,204,49369,2,0,B|228:276|296:316,2,140
204,136,50278,1,0,0:0:0:0:
204,136,50460,1,0,0:0:0:0:
80,196,50824,2,0,B|36:132|52:60,2,140
116,256,51733,1,0,0:0:0:0:
256,276,52096,70,0,B|404:276,2,140,8|0|8,0:0|0:0|0:0,0:0:0:0:
192,244,53005,1,0,0:0:0:0:
168,176,53187,1,0,0:0:0:0:
172,108,53369,2,0,B|200:40|268:12,2,140
236,140,54278,2,0,B|312:136,2,70,8|0|0,0:0|0:0|0:0,0:0:0:0:
360,204,55005,6,0,B|284:208,2,70,8|0|0,0:0|0:0|0:0,0:0:0:0:
460,108,55733,2,0,B|484:136|480:176,2,70,8|0|0,0:0|0:0|0:0,0:0:0:0:
404,64,56278,2,0,B|296:36|192:68,2,210
404,64,57551,1,4,0:0:0:0:
320,176,57914,54,0,B|272:236|276:324,2,140,8|0|8,0:0|0:0|0:0,0:0:0:0:
192,176,59005,1,0,0:0:0:0:
192,176,59187,1,0,0:0:0:0:
56,140,59551,2,0,B|100:84|168:48,2,140
56,212,60460,6,0,B|100:268|168:304,1,140,0|8,0:0|0:0,0:0:0:0:
208,248,61005,1,0,0:0:0:0:
256,196,61187,2,0,B|321:167|373:111,2,140,0|8|0,0:0|0:0|0:0,0:0:0:0:
256,196,62096,2,0,B|321:225|373:281,2,140,8|0|8,0:0|0:0|0:0,0:0:0:0:
132,264,63187,1,8,0:0:0:0:
116,196,63369,1,4,0:0:0:0:
176,68,63733,6,0,B|104:44|32:104,2,140,8|0|8,0:0|0:0|0:0,0:0:0:0:
316,68,64824,1,0,0:0:0:0:
320,140,65005,2,0,B|368:196|456:180,2,140
432,56,66096,1,0,0:0:0:0:
432,56,66278,1,0,0:0:0:0:
256,192,66369,12,0,67733,0:0:0:0:
256,336,68460,6,0,B|256:24,1,280,0|4,0:0|0:0,0:0:0:0:
364,144,69551,1,8,0:0:0:0:
428,168,69733,2,0,B|472:108|464:28,2,140
364,144,70642,2,0,B|312:100|216:100,3,140,0|8|0|8,0:0|0:0|0:0|0:0,0:0:0:0:
100,52,72096,6,0,B|80:120|80:204,1,140,4|8,0:0|0:0,0:0:0:0:
44,248,72642,1,0,0:0:0:0:
160,324,73005,1,0,0:0:0:0:
300,308,73369,1,0,0:0:0:0:
340,248,73551,2,0,B|384:172|300:96,2,140
212,192,74642,1,0,0:0:0:0:
204,44,75005,6,0,B|352:44,1,140,4|8,0:0|0:0,0:0:0:0:
388,100,75551,2,0,B|444:152|460:224,2,140
344,156,76460,2,0,B|280:188|192:188,1,140,0|8,0:0|0:0,0:0:0:0:
164,240,77005,1,0,0:0:0:0:
220,284,77187,2,0,B|380:284,1,140,0|8,0:0|0:0,0:0:0:0:
432,284,77733,1,0,0:0:0:0:
500,284,77914,1,4,0:0:0:0:
464,76,78460,53,0,0:0:0:0:
328,44,78824,2,0,B|288:104|180:116,1,140
108,208,79551,1,8,0:0:0:0:
108,208,79733,1,8,0:0:0:0:
192,320,80096,2,0,B|144:332|124:264|56:268,2,140,0|8|4,0:0|0:0|0:0,0:0:0:0:
232,184,81187,21,8,0:0:0:0:
304,188,81369,2,0,B|336:252|428:260,2,140
340,116,82278,2,0,B|376:72|440:120|488:64,3,140,0|8|0|8,0:0|0:0|0:0|0:0,0:0:0:0:
472,220,83733,6,0,B|472:360,1,140,4|8,0:0|0:0,0:0:0:0:
472,360,84278,1,0,0:0:0:0:
352,288,84642,1,0,0:0:0:0:
232,360,85005,2,0,B|164:360|112:296,1,140
156,240,85551,2,8,B|156:172,1,70
216,136,85914,2,8,B|216:204,1,70
280,180,86278,2,8,B|280:112,2,70,8|8|4,0:0|0:0|0:0,0:0:0:0:
224,52,87005,5,8,0:0:0:0:
152,48,87187,2,0,B|88:76|64:168,2,140
176,112,88096,1,0,0:0:0:0:
248,116,88278,2,0,B|320:112|380:180,3,140
416,228,89551,1,4,0:0:0:0:
256,192,89642,12,0,92096,0:0:0:0:
256,284,92460,5,4,0:0:0:0:
116,164,104096,6,0,B|168:224|256:236|340:224|412:160,1,314.999990612269,4|0,0:0|0:0,0:0:0:0:
404,116,105369,2,0,B|404:52,2,52.4999984353781,2|0|0,0:0|0:0|0:0,0:0:0:0:
476,196,106096,1,2,0:0:0:0:
404,272,106460,1,2,0:0:0:0:
300,272,106824,2,0,B|300:328,1,52.4999984353781,2|0,0:0|0:0,0:0:0:0:
216,264,107369,2,0,B|216:212,2,52.4999984353781,2|0|2,0:0|0:0|0:0,0:0:0:0:
112,272,108096,1,2,0:0:0:0:
112,272,108278,1,2,0:0:0:0:
112,272,108460,6,2,B|32:176|128:80,2,210.000008010865
180,184,110278,6,0,B|300:184,1,104.999996870756
380,136,111005,1,0,0:0:0:0:
400,184,111187,1,0,0:0:0:0:
380,232,111369,1,0,0:0:0:0:
380,336,111733,2,0,B|276:336,2,104.999996870756
436,248,112824,6,0,B|468:200|468:132,1,104.999996870756
388,80,113551,2,0,B|356:128|356:196,1,104.999996870756,0|0,0:0|0:0,0:0:0:0:
256,204,114278,5,0,0:0:0:0:
256,344,115369,2,0,L|256:304,4,26.2500010013581
144,256,116096,6,0,B|104:193|103:123,1,140,8|0,0:0|0:0,0:0:0:0:
220,44,116824,2,0,B|292:44,2,70,8|0|0,0:0|0:0|0:0,0:0:0:0:
256,180,117551,2,0,B|256:324,2,140,8|0|8,0:0|0:0|0:0,0:0:0:0:
300,124,118460,1,0,0:0:0:0:
348,76,118642,6,0,B|406:36|479:33,1,140,0|8,0:0|0:0,0:0:0:0:
480,104,119187,1,0,0:0:0:0:
480,176,119369,2,0,B|480:324,1,140,0|8,0:0|0:0,0:0:0:0:
412,304,119914,1,0,0:0:0:0:
340,300,120096,2,0,B|324:264|324:224,1,70
360,172,120460,1,8,0:0:0:0:
396,112,120642,2,0,B|324:72|252:120,2,140
396,112,121551,1,0,0:0:0:0:
412,252,121914,6,0,B|376:272|320:212|264:228,1,140,8|0,0:0|0:0,0:0:0:0:
140,256,122642,2,0,B|112:285|72:285,2,70,8|0|0,0:0|0:0|0:0,0:0:0:0:
152,188,123187,1,0,0:0:0:0:
164,116,123369,2,0,B|196:56|284:32,1,140,8|0,0:0|0:0,0:0:0:0:
396,104,124096,6,0,B|424:136|472:132,2,70,8|0|0,0:0|0:0|0:0,0:0:0:0:
308,212,124824,2,0,B|316:253|359:274,2,70,8|0|0,0:0|0:0|0:0,0:0:0:0:
168,192,125551,1,8,0:0:0:0:
168,192,125733,1,8,0:0:0:0:
168,192,125914,70,0,B|100:180|44:128|44:40,2,210
256,304,127369,1,4,0:0:0:0:
344,192,127733,54,0,B|394:183|436:143|436:81,2,140,8|0|8,0:0|0:0|0:0,0:0:0:0:
256,84,128824,1,0,0:0:0:0:
256,84,129005,1,0,0:0:0:0:
188,204,129369,2,0,B|256:244|328:200,2,140
140,156,130278,6,0,B|72:24,1,140,0|8,0:0|0:0,0:0:0:0:
12,60,130824,1,0,0:0:0:0:
40,124,131005,2,0,B|108:256,1,140,0|8,0:0|0:0,0:0:0:0:
240,276,131733,2,0,B|208:248|212:216,2,70,0|0|8,0:0|0:0|0:0,0:0:0:0:
308,292,132278,1,0,0:0:0:0:
376,304,132460,2,0,B|414:247|398:169,1,140,0|8,0:0|0:0,0:0:0:0:
348,40,133187,1,4,0:0:0:0:
256,144,133551,5,8,0:0:0:0:
328,264,133914,1,0,0:0:0:0:
188,264,134278,1,8,0:0:0:0:
176,124,134642,2,0,B|176:36|260:24,1,140,0|8,0:0|0:0,0:0:0:0:
176,140,135369,2,0,B|88:141|74:57,1,140,0|8,0:0|0:0,0:0:0:0:
176,160,136096,1,4,0:0:0:0:
256,192,136278,12,0,137551,0:0:0:0:
144,252,138278,22,0,B|64:264|52:348,2,140,0|8|4,0:0|0:0|0:0,0:0:0:0:
256,336,139369,2,0,B|256:264,1,70,8|0,0:0|0:0,0:0:0:0:
332,148,139914,1,0,0:0:0:0:
464,192,140278,1,0,0:0:0:0:
464,264,140460,2,0,B|422:339|348:321,3,140,0|8|0|8,0:0|0:0|0:0|0:0,0:0:0:0:
340,180,141914,6,0,B|340:108|284:48,1,140,4|8,0:0|0:0,0:0:0:0:
220,56,142460,2,0,B|168:110|168:182,1,140,0|8,0:0|0:0,0:0:0:0:
256,292,143187,2,0,B|256:76,1,210
120,124,144096,1,0,0:0:0:0:
128,264,144460,1,8,0:0:0:0:
128,264,144824,6,0,B|140:348|236:356,1,140,4|8,0:0|0:0,0:0:0:0:
292,356,145369,2,0,B|372:349|384:265,1,140,0|8,0:0|0:0,0:0:0:0:
340,132,146096,1,0,0:0:0:0:
340,132,146278,2,0,B|352:48|432:41,3,140,0|8|0|8,0:0|0:0|0:0|0:0,0:0:0:0:
432,184,147733,53,4,0:0:0:0:
432,184,147914,1,0,0:0:0:0:
328,276,148278,1,0,0:0:0:0:
188,276,148642,1,0,0:0:0:0:
80,184,149005,1,0,0:0:0:0:
80,184,149187,1,0,0:0:0:0:
188,108,149551,2,0,B|340:108,2,140,8|0|8,0:0|0:0|0:0,0:0:0:0:
256,232,150642,22,0,B|396:232,1,140,4|8,0:0|0:0,0:0:0:0:
468,232,151187,1,0,0:0:0:0:
444,92,151551,2,0,P|364:64|316:96,1,140
268,136,152096,1,0,0:0:0:0:
136,192,152460,2,0,B|108:116|152:40,2,140,8|0|8,0:0|0:0|0:0,0:0:0:0:
200,312,153551,6,0,B|252:336|308:280|368:312,1,140,4|8,0:0|0:0,0:0:0:0:
356,236,154096,1,0,0:0:0:0:
319,99,154460,1,0,0:0:0:0:
220,199,154824,2,0,B|172:252|80:240,1,140
52,184,155369,2,0,B|76:108,1,70,8|0,0:0|0:0,0:0:0:0:
120,64,155733,2,0,B|184:36,1,70,8|0,0:0|0:0,0:0:0:0:
256,32,156096,2,8,B|328:32,2,70,8|8|12,0:0|0:0|0:0,0:0:0:0:
336,148,156824,5,8,0:0:0:0:
376,204,157005,2,0,B|444:228|476:296,2,140
336,260,157914,2,0,B|336:332,2,70,0|0|8,0:0|0:0|0:0,0:0:0:0:
300,200,158460,2,0,B|232:176|200:108,2,140
256,192,159369,12,4,162278,0:0:0:0:
60,212,179733,22,0,B|164:88|360:304|476:160,1,419.999987483025,4|0,0:0|0:0,0:0:0:0:
440,76,181551,1,2,0:0:0:0:
344,116,181914,1,0,0:0:0:0:
256,56,182278,1,2,0:0:0:0:
172,120,182642,6,0,B|144:92|84:128|52:76,3,104.999996870756,0|2|0|2,0:0|0:0|0:0|0:0,0:0:0:0:
44,200,184096,2,0,B|72:228|132:192|164:244,3,104.999996870756,0|2|0|2,0:0|0:0|0:0|0:0,0:0:0:0:
256,312,185551,6,0,B|404:312,1,140
472,196,186278,2,0,B|324:196,1,140
332,124,186824,1,0,0:0:0:0:
332,56,187005,2,0,B|408:56,2,70
256,176,187733,2,0,B|256:252,2,70
220,116,188278,1,0,0:0:0:0:
188,56,188460,6,0,B|32:56,1,140
84,192,189187,2,0,B|0:192,2,70
84,264,189733,2,0,B|232:264,3,140
296,268,191005,1,8,0:0:0:0:
368,268,191187,1,8,0:0:0:0:
440,268,191369,1,4,0:0:0:0:
368,148,191733,6,0,B|412:132|412:88,1,70
280,44,192278,2,0,B|232:104|240:176,1,140
144,276,193005,2,0,B|120:240|176:180|140:128,2,140
268,336,194096,2,0,P|316:340|364:324,1,70
396,208,194642,5,0,0:0:0:0:
368,144,194824,2,0,P|400:124|416:80,2,70
300,176,195369,2,0,B|256:108|184:108,1,140,8|0,0:0|0:0,0:0:0:0:
44,80,196096,2,0,B|-4:144|44:228,2,140,8|0|8,0:0|0:0|0:0,0:0:0:0:
184,68,197187,6,0,B|156:40|104:48,2,70,0|0|8,0:0|0:0|0:0,0:0:0:0:
256,68,197733,1,0,0:0:0:0:
328,68,197914,2,0,B|356:40|408:48,2,70,0|0|8,0:0|0:0|0:0,0:0:0:0:
328,140,198460,2,0,B|328:288,2,140
256,192,199369,12,0,201551,0:0:0:0:
256,236,202278,86,2,B|256:348,2,104.999996870756,0|0|4,0:0|0:0|0:0,0:0:0:0:
256,96,203369,1,8,0:0:0:0:
256,168,203551,2,0,B|328:168|388:100,2,140
184,168,204460,2,0,B|112:168|52:236,3,140
196,260,205914,6,0,B|348:260,1,140,4|8,0:0|0:0,0:0:0:0:
396,216,206460,1,0,0:0:0:0:
464,92,206824,1,0,0:0:0:0:
324,92,207187,1,0,0:0:0:0:
260,124,207369,2,0,B|188:88|116:128,3,140
48,216,208824,6,0,B|68:284|128:332,1,140,4|8,0:0|0:0,0:0:0:0:
196,332,209369,2,0,B|253:286|273:218,2,140
160,272,210278,2,0,B|160:124,1,140,0|8,0:0|0:0,0:0:0:0:
188,68,210824,1,0,0:0:0:0:
248,104,211005,2,0,B|288:124|324:76|368:100,2,105,4|8|4,0:0|0:0|0:0,0:0:0:0:
392,256,212278,53,0,0:0:0:0:
256,220,212642,1,0,0:0:0:0:
160,324,213005,1,0,0:0:0:0:
104,192,213369,1,8,0:0:0:0:
104,192,213551,2,0,B|176:192|196:96,2,140,8|0|0,0:0|0:0|0:0,0:0:0:0:
132,56,214642,22,0,B|208:28|272:80,1,140,4|8,0:0|0:0,0:0:0:0:
340,84,215187,2,0,B|368:176|276:192,1,140
292,332,215914,2,0,B|404:324|456:208,1,210,0|8,0:0|0:0,0:0:0:0:
320,168,216824,6,0,B|372:116|456:108,2,140,0|8|0,0:0|0:0|0:0,0:0:0:0:
256,44,217914,2,0,B|256:128,1,70,8|0,0:0|0:0,0:0:0:0:
256,256,218460,1,0,0:0:0:0:
144,340,218824,2,0,B|60:220|52:68,2,280
216,340,220460,6,0,B|376:340,1,140,0|8,0:0|0:0,0:0:0:0:
356,268,221005,2,0,B|196:268,1,140
356,196,221733,6,0,B|356:56,1,140,0|8,0:0|0:0,0:0:0:0:
216,56,222460,2,0,B|216:208,1,140
76,196,223187,2,0,L|76:116,1,70
256,192,223460,12,0,226278,0:0:0:0:
100,232,226824,38,0,B|100:128,1,104.999996870756
204,128,227551,2,0,B|204:256,1,104.999996870756
308,232,228278,2,0,B|308:120,1,104.999996870756
412,124,229005,2,0,B|412:304,1,157.499995306134
256,192,229733,12,4,232096,0:0:0:0:
