osu file format v12

[General]
AudioFilename: 06 - Merry-go-round Mellow.mp3
AudioLeadIn: 0
PreviewTime: 68480
Countdown: 0
SampleSet: Normal
StackLeniency: 0.7
Mode: 0
LetterboxInBreaks: 1
WidescreenStoryboard: 0

[Editor]
Bookmarks: 258551
DistanceSpacing: 1
BeatDivisor: 4
GridSize: 4

[Metadata]
Title:Merry-go-round Mellow
TitleUnicode:メリーゴーランドメロウ
Artist:Itou Shizuka
ArtistUnicode:伊藤 静
Creator:termerys
Version:HiNA
Source:HiNA2 Spring has come!!
Tags:katsura hinagiku roxkyuubiforever kantokun
BeatmapID:133130
BeatmapSetID:42310

[Difficulty]
HPDrainRate:7
CircleSize:4
OverallDifficulty:8
ApproachRate:9
SliderMultiplier:2
SliderTickRate:1

[Events]
//Background and Video events
0,0,"hina_bg.png",0,0
//Break Periods
2,92659,103496
2,162478,179133
//Storyboard Layer 0 (Background)
//Storyboard Layer 1 (Fail)
//Storyboard Layer 2 (Pass)
//Storyboard Layer 3 (Foreground)
//Storyboard Sound Samples
//Background Colour Transformations
3,100,163,162,255

[TimingPoints]
16824,363.636363636364,4,1,1,50,1,0
27733,-100,4,1,1,45,0,0
27914,-100,4,1,1,40,0,0
28096,-100,4,1,1,35,0,0
28278,-100,4,1,1,30,0,0
28460,-100,4,1,1,50,0,0
33551,-100,4,1,1,45,0,0
33733,-100,4,1,1,40,0,0
33914,-100,4,1,1,35,0,0
34369,-133.333333333333,4,2,1,50,0,0
44460,-133.333333333333,4,1,1,50,0,0
45914,-100,4,1,1,50,0,0
59369,-100,4,1,1,30,0,0
59824,-100,4,1,1,50,0,0
66278,-100,4,1,1,45,0,0
66460,-100,4,1,1,40,0,0
66642,-100,4,1,1,35,0,0
66824,-100,4,1,1,30,0,0
67005,-100,4,1,1,30,0,0
67187,-100,4,1,1,25,0,0
67369,-100,4,1,1,35,0,0
67551,-100,4,1,1,45,0,0
67733,-100,4,1,1,50,0,0
68460,-133.333333333333,4,1,1,30,0,0
69187,-100,4,1,1,70,0,1
69278,-100,4,1,1,50,0,1
79733,-100,4,1,1,40,0,1
80096,-100,4,1,1,35,0,1
80460,-100,4,1,1,30,0,1
80824,-100,4,1,1,50,0,1
85914,-100,4,1,1,45,0,1
86278,-100,4,1,1,40,0,1
86642,-100,4,1,1,50,0,1
90005,-100,4,1,1,40,0,1
92460,-100,4,1,1,70,0,0
104096,-133.333333333333,4,2,0,70,0,0
104187,-133.333333333333,4,2,1,40,0,0
109914,-133.333333333333,4,1,1,30,0,0
110369,-133.333333333333,4,1,1,15,0,0
110551,-133.333333333333,4,1,1,30,0,0
111096,-133.333333333333,4,1,1,15,0,0
111278,-133.333333333333,4,1,1,30,0,0
111824,-133.333333333333,4,1,1,15,0,0
112005,-133.333333333333,4,1,1,30,0,0
112551,-133.333333333333,4,1,1,15,0,0
112733,-133.333333333333,4,1,1,30,0,0
113278,-133.333333333333,4,1,1,15,0,0
113460,-133.333333333333,4,1,1,30,0,0
114005,-133.333333333333,4,1,1,15,0,0
114187,-133.333333333333,4,1,1,30,0,0
114551,-133.333333333333,4,1,1,20,0,0
115369,-133.333333333333,4,1,1,40,0,0
115733,-100,4,1,1,50,0,0
136096,-100,4,1,1,70,0,0
136187,-100,4,1,1,40,0,0
138278,-100,4,1,1,30,0,0
138642,-100,4,1,1,40,0,0
139005,-100,4,1,1,70,0,1
139096,-100,4,1,1,50,0,1
141187,-100,4,1,1,60,0,1
141914,-100,4,1,1,50,0,1
144096,-100,4,1,1,60,0,1
144824,-100,4,1,1,50,0,1
147733,-100,4,1,1,50,0,0
149914,-100,4,1,1,45,0,0
150278,-100,4,1,1,40,0,0
150642,-100,4,1,1,50,0,1
156096,-100,4,1,1,45,0,1
156460,-100,4,1,1,50,0,1
162187,-100,4,1,1,50,0,0
162278,-100,4,1,1,70,0,1
162369,-100,4,1,1,40,0,0
179733,-133.333333333333,4,2,0,40,0,0
185096,-133.333333333333,4,1,1,30,0,0
185551,-100,4,1,1,40,0,0
190824,-100,4,1,1,35,0,0
191005,-100,4,1,1,30,0,0
191187,-100,4,1,1,40,0,0
201005,-133.333333333333,4,2,1,40,0,0
203005,-100,4,1,1,70,0,1
203096,-100,4,1,1,60,0,1
211733,-100,4,1,1,50,0,0
213914,-100,4,1,1,45,0,0
214278,-100,4,1,1,40,0,0
214642,-100,4,1,1,60,0,1
220096,-100,4,1,1,50,0,1
220460,-100,4,1,1,60,0,1
226278,-133.333333333333,4,2,1,50,0,0
229733,-133.333333333333,4,1,1,20,0,0
230096,-133.333333333333,4,1,1,25,0,0
230460,-133.333333333333,4,1,1,30,0,0
230824,-133.333333333333,4,1,1,35,0,0
231187,-133.333333333333,4,1,1,40,0,0
231369,-133.333333333333,4,1,1,45,0,0
231733,-133.333333333333,4,1,1,50,0,0
232096,-100,4,1,1,90,0,1
232187,-100,4,1,1,60,0,1
243369,-100,4,1,1,50,0,1
243642,-100,4,1,1,50,0,0
243733,-100,4,1,1,90,0,1
243824,-100,4,1,1,50,0,1
255187,-100,4,1,1,80,0,0
255278,-100,4,2,1,60,0,0

[Colours]
Combo1 : 111,255,183
Combo2 : 255,0,128
Combo3 : 142,34,34
Combo4 : 254,51,22
Combo5 : 255,255,130
Combo6 : 11,233,244
Combo7 : 191,191,191
Combo8 : 255,187,250

[HitObjects]
304,222,16642,1,0,0:0:0:0:
304,202,16733,1,0,0:0:0:0:
304,180,16824,2,4,B|283:55|168:-12|44:50|28:195,2,400,0|0|0,0:0|0:0|0:0,0:0:0:0:
120,260,18642,1,0,0:0:0:0:
136,248,18733,1,0,0:0:0:0:
156,244,18824,1,0,0:0:0:0:
256,236,19005,5,8,0:0:0:0:
360,196,19187,1,8,0:0:0:0:
272,132,19369,1,8,0:0:0:0:
368,92,19551,5,0,0:0:0:0:
284,32,19733,2,4,B|188:37|87:102|52:193|32:303,2,400
236,112,21369,2,4,B|190:126|144:164|119:208|108:280,1,200,8|0,0:0|0:0,0:0:0:0:
180,256,21914,22,2,B|189:227|200:208|225:186|244:178,1,100
372,36,22460,69,8,0:0:0:0:
392,36,22551,1,8,0:0:0:0:
412,44,22642,2,0,B|472:108|460:232,1,200,4|8,0:0|0:0,0:0:0:0:
416,324,23187,2,0,B|328:280|276:176,2,200
430,224,24096,5,0,0:0:0:0:
420,124,24278,2,0,B|316:124,1,100,0|10,0:0|0:0,0:0:0:0:
256,200,24642,1,0,0:0:0:0:
256,200,24733,1,0,0:0:0:0:
256,200,24824,1,0,0:0:0:0:
192,124,25005,2,0,B|292:124,1,100,2|10,0:0|0:0,0:0:0:0:
224,48,25369,5,0,0:0:0:0:
224,48,25551,2,0,B|176:32|128:56,1,100
127,56,25914,1,8,0:0:0:0:
40,108,26096,2,0,B|32:216|44:320,2,200
116,176,27005,69,0,0:0:0:0:
116,276,27187,2,0,B|172:276|208:220,1,100,2|10,0:0|0:0,0:0:0:0:
284,276,27551,1,0,0:0:0:0:
292,252,27642,1,0,0:0:0:0:
300,228,27733,1,0,0:0:0:0:
308,204,27824,1,0,0:0:0:0:
316,180,27914,1,0,0:0:0:0:
308,156,28005,1,0,0:0:0:0:
300,132,28096,1,0,0:0:0:0:
292,108,28187,1,0,0:0:0:0:
284,84,28278,1,0,0:0:0:0:
380,56,28460,6,0,B|432:64|456:116,1,100,4|0,0:0|0:0,0:0:0:0:
455,114,28824,1,8,0:0:0:0:
400,196,29005,2,0,B|288:216|200:180,2,200
356,108,29914,2,0,B|360:60|424:32,2,100,0|0|10,0:0|0:0|0:0,0:0:0:0:
256,100,30460,1,0,0:0:0:0:
256,100,30551,1,0,0:0:0:0:
256,100,30642,1,0,0:0:0:0:
156,108,30824,2,2,B|152:60|88:32,1,100,2|10,0:0|0:0,0:0:0:0:
94,35,31187,1,0,0:0:0:0:
32,116,31369,6,0,B|32:164|60:216,1,100
57,211,31733,1,8,0:0:0:0:
156,200,31914,2,0,B|268:220|356:184,2,200
116,292,32824,1,0,0:0:0:0:
216,276,33005,2,8,B|252:312|304:328,1,100
300,327,33369,1,0,0:0:0:0:
356,244,33551,1,8,0:0:0:0:
372,224,33642,1,8,0:0:0:0:
380,200,33733,1,8,0:0:0:0:
380,176,33824,1,8,0:0:0:0:
372,152,33914,1,8,0:0:0:0:
276,176,34096,86,8,B|280:124|332:88,1,100,4|4,0:0|0:0,0:0:0:0:
128,56,34642,53,2,0:0:0:0:
32,172,35005,1,0,0:0:0:0:
180,200,35369,2,0,B|136:200|116:232,1,74.9999977648259,2|0,0:0|0:0,0:0:0:0:
116,231,35733,1,0,0:0:0:0:
180,276,35914,1,0,0:0:0:0:
180,276,36096,1,2,0:0:0:0:
252,300,36278,2,0,B|300:244|392:248,2,149.999995529652
232,228,37187,6,0,B|300:184|312:92,1,149.999995529652,0|2,0:0|0:0,0:0:0:0:
384,96,37733,1,0,0:0:0:0:
340,36,37914,2,0,B|264:24|192:64,1,149.999995529652,0|2,0:0|0:0,0:0:0:0:
195,62,38460,1,0,0:0:0:0:
120,48,38642,2,0,B|112:92|140:136,1,74.9999977648259
204,144,39005,1,2,0:0:0:0:
144,188,39187,2,0,B|68:216|40:300,2,149.999995529652
164,220,40005,1,0,0:0:0:0:
180,252,40096,6,0,B|256:224|284:140,1,149.999995529652,4|2,0:0|0:0,0:0:0:0:
332,92,40642,1,0,0:0:0:0:
332,92,40824,2,0,B|408:120|436:204,1,149.999995529652,0|2,0:0|0:0,0:0:0:0:
433,195,41369,1,0,0:0:0:0:
476,256,41551,2,0,B|412:296|328:276,1,149.999995529652,0|2,0:0|0:0,0:0:0:0:
331,276,42096,1,0,0:0:0:0:
180,272,42460,6,2,B|99:252|35:292,1,149.999995529652
32,216,43005,2,0,B|32:140|92:76,1,149.999995529652,0|2,0:0|0:0,0:0:0:0:
144,132,43551,1,0,0:0:0:0:
104,196,43733,2,0,B|176:220|256:204,1,149.999995529652,0|4,0:0|0:0,0:0:0:0:
220,136,44278,1,2,0:0:0:0:
344,48,44460,5,8,0:0:0:0:
352,196,44642,1,8,0:0:0:0:
408,144,44824,21,0,0:0:0:0:
424,216,45005,1,0,0:0:0:0:
368,268,45187,1,0,0:0:0:0:
296,252,45369,1,12,0:0:0:0:
72,52,45914,6,0,B|48:152|60:256,1,200,4|8,0:0|0:0,0:0:0:0:
59,250,46460,1,0,0:0:0:0:
112,336,46642,2,0,B|180:264|176:144,1,200,0|8,0:0|0:0,0:0:0:0:
176,152,47187,1,0,0:0:0:0:
216,60,47369,2,0,B|272:144,1,100
368,164,47733,2,0,B|312:80,2,100,8|0|0,0:0|0:0|0:0,0:0:0:0:
464,132,48278,70,0,B|452:244|380:316,1,200
308,244,48824,2,0,B|208:240|136:148,1,200,0|8,0:0|0:0,0:0:0:0:
72,76,49369,2,0,B|172:32|280:56,1,200
267,53,49914,1,8,0:0:0:0:
267,53,50096,1,0,0:0:0:0:
352,104,50278,5,2,0:0:0:0:
398,227,50460,1,2,0:0:0:0:
275,275,50642,1,8,0:0:0:0:
228,152,50824,1,2,0:0:0:0:
228,20,51005,5,2,0:0:0:0:
49,106,51187,1,0,0:0:0:0:
138,283,51369,1,10,0:0:0:0:
314,193,51551,1,2,0:0:0:0:
440,112,51733,6,0,B|472:208|472:324,1,200,4|8,0:0|0:0,0:0:0:0:
471,308,52278,1,0,0:0:0:0:
372,328,52460,2,0,B|340:232|340:131,1,200,0|8,0:0|0:0,0:0:0:0:
340,131,53005,1,0,0:0:0:0:
244,100,53187,2,0,B|216:144|216:200,1,100
124,236,53551,2,0,B|152:192|152:136,2,100,8|0|0,0:0|0:0|0:0,0:0:0:0:
48,172,54096,2,0,B|76:72|192:28,1,200
280,36,54642,70,0,B|324:128|448:156,1,200,0|8,0:0|0:0,0:0:0:0:
480,64,55187,1,0,0:0:0:0:
384,44,55369,2,0,B|304:116|308:228,1,200,0|8,0:0|0:0,0:0:0:0:
307,221,55914,1,0,0:0:0:0:
256,308,56096,21,10,0:0:0:0:
168,256,56278,1,10,0:0:0:0:
220,172,56460,1,8,0:0:0:0:
84,80,56642,21,10,0:0:0:0:
124,172,56824,1,10,0:0:0:0:
188,96,57005,1,8,0:0:0:0:
332,52,57187,85,10,0:0:0:0:
308,148,57369,1,10,0:0:0:0:
404,124,57551,1,4,0:0:0:0:
344,316,57914,21,0,0:0:0:0:
256,272,58096,1,0,0:0:0:0:
164,316,58278,1,0,0:0:0:0:
76,268,58460,1,0,0:0:0:0:
164,220,58642,1,0,0:0:0:0:
256,176,58824,1,0,0:0:0:0:
344,224,59005,1,0,0:0:0:0:
428,276,59187,1,0,0:0:0:0:
432,176,59369,5,8,0:0:0:0:
432,152,59460,1,8,0:0:0:0:
432,128,59551,1,8,0:0:0:0:
432,104,59642,1,8,0:0:0:0:
432,80,59733,1,8,0:0:0:0:
308,44,59914,1,0,0:0:0:0:
320,144,60096,1,8,0:0:0:0:
224,108,60278,1,0,0:0:0:0:
84,64,60460,102,0,B|60:168|80:268,1,200,0|8,0:0|0:0,0:0:0:0:
256,200,61005,1,0,0:0:0:0:
433,262,61187,2,0,B|452:168|428:64,1,200,8|0,0:0|0:0,0:0:0:0:
256,124,61733,1,8,0:0:0:0:
160,100,61914,5,8,0:0:0:0:
84,168,62096,1,8,0:0:0:0:
176,204,62278,1,8,0:0:0:0:
336,204,62460,101,8,0:0:0:0:
428,168,62642,1,8,0:0:0:0:
352,100,62824,1,8,0:0:0:0:
256,52,63005,6,0,B|256:176,1,100
256,252,63369,2,0,B|340:312|452:312,2,200,4|0|4,0:0|0:0|0:0,0:0:0:0:
256,152,64278,1,0,0:0:0:0:
256,252,64460,2,0,B|172:312|60:312,1,200
68,311,65005,1,0,0:0:0:0:
160,220,65187,1,8,0:0:0:0:
160,220,65278,1,8,0:0:0:0:
160,220,65369,1,8,0:0:0:0:
160,220,65460,1,8,0:0:0:0:
160,220,65551,1,8,0:0:0:0:
60,236,65733,2,0,B|56:176|100:136,1,100
91,144,66096,1,0,0:0:0:0:
140,64,66278,69,8,0:0:0:0:
144,64,66369,1,8,0:0:0:0:
148,64,66460,1,8,0:0:0:0:
152,64,66551,1,8,0:0:0:0:
156,64,66642,1,8,0:0:0:0:
160,64,66733,1,8,0:0:0:0:
164,64,66824,1,8,0:0:0:0:
168,64,66914,1,8,0:0:0:0:
172,64,67005,1,8,0:0:0:0:
176,64,67096,1,8,0:0:0:0:
180,64,67187,1,8,0:0:0:0:
184,64,67278,1,8,0:0:0:0:
188,64,67369,1,8,0:0:0:0:
192,64,67460,1,8,0:0:0:0:
196,64,67551,1,8,0:0:0:0:
200,64,67642,1,8,0:0:0:0:
204,64,67733,5,8,0:0:0:0:
352,80,67914,1,0,0:0:0:0:
252,192,68096,1,0,0:0:0:0:
456,288,68460,22,0,B|304:288,1,149.999995529652
108,304,69187,38,0,B|68:208|88:100,1,200,4|8,0:0|0:0,0:0:0:0:
160,40,69733,1,0,0:0:0:0:
180,136,69914,1,0,0:0:0:0:
156,232,70096,2,0,B|208:248|260:224,1,100,0|8,0:0|0:0,0:0:0:0:
280,128,70460,1,0,0:0:0:0:
256,32,70642,2,0,B|360:28|444:100,1,200,0|8,0:0|0:0,0:0:0:0:
372,172,71187,1,0,0:0:0:0:
324,260,71369,6,0,B|436:256|476:132,2,200,0|8|0,0:0|0:0|0:0,0:0:0:0:
324,260,72278,1,0,0:0:0:0:
256,332,72460,1,8,0:0:0:0:
188,260,72642,2,0,B|88:260|36:132,2,200
188,260,73551,1,0,0:0:0:0:
140,172,73733,1,0,0:0:0:0:
140,172,73914,1,8,0:0:0:0:
256,36,74278,6,0,B|276:108|416:32|416:120,1,200,0|8,0:0|0:0,0:0:0:0:
328,164,74824,1,8,0:0:0:0:
328,164,74914,1,8,0:0:0:0:
328,164,75005,1,12,0:0:0:0:
256,236,75187,1,0,0:0:0:0:
184,164,75369,1,0,0:0:0:0:
96,117,75551,2,0,B|96:32|236:108|256:36,1,200
255,37,76096,1,8,0:0:0:0:
256,136,76278,2,0,B|256:336,1,200
256,336,76824,1,8,0:0:0:0:
156,320,77005,5,0,0:0:0:0:
80,256,77187,2,0,B|72:176|128:116,2,150
48,104,77914,69,12,0:0:0:0:
48,104,78096,1,8,0:0:0:0:
256,336,78460,1,8,0:0:0:0:
464,104,78824,1,8,0:0:0:0:
256,136,79187,6,0,B|256:336,1,200
348,272,79733,1,8,0:0:0:0:
364,268,79824,1,8,0:0:0:0:
376,260,79914,1,8,0:0:0:0:
388,252,80005,1,8,0:0:0:0:
396,240,80096,1,8,0:0:0:0:
404,228,80187,1,8,0:0:0:0:
408,212,80278,1,8,0:0:0:0:
408,196,80369,1,8,0:0:0:0:
404,180,80460,1,8,0:0:0:0:
400,164,80551,1,8,0:0:0:0:
388,152,80642,1,8,0:0:0:0:
376,144,80733,1,8,0:0:0:0:
360,140,80824,6,0,B|292:140|276:80|296:24|368:24,1,200,4|8,0:0|0:0,0:0:0:0:
456,76,81369,2,0,B|496:180|456:280,1,200
360,256,81914,1,8,0:0:0:0:
356,356,82096,2,0,B|256:336|148:356,1,200
152,256,82642,1,8,0:0:0:0:
52,271,82824,1,0,0:0:0:0:
52,271,83005,2,0,B|16:180|56:76,1,200,0|8,0:0|0:0,0:0:0:0:
56,75,83551,1,0,0:0:0:0:
208,72,83733,6,0,B|252:40|304:40,1,100
336,132,84096,5,8,0:0:0:0:
336,132,84278,1,0,0:0:0:0:
176,132,84642,1,0,0:0:0:0:
320,320,85005,54,0,B|228:272|244:136,1,200
242,149,85551,1,0,0:0:0:0:
344,152,85733,1,0,0:0:0:0:
296,64,85914,1,8,0:0:0:0:
280,56,86005,1,8,0:0:0:0:
264,44,86096,1,8,0:0:0:0:
248,36,86187,1,8,0:0:0:0:
228,40,86278,1,8,0:0:0:0:
208,48,86369,1,8,0:0:0:0:
192,56,86460,1,8,0:0:0:0:
176,68,86551,1,8,0:0:0:0:
160,76,86642,6,0,B|80:144|80:264,1,200,4|0,0:0|0:0,0:0:0:0:
104,348,87187,2,0,B|184:280|184:160,1,200
284,156,87733,1,8,0:0:0:0:
248,248,87914,1,8,0:0:0:0:
324,312,88096,6,0,B|416:264,1,100
412,265,88460,1,8,0:0:0:0:
376,172,88642,2,0,B|352:60|216:68,1,200
128,48,89187,1,8,0:0:0:0:
112,60,89278,1,8,0:0:0:0:
100,76,89369,1,8,0:0:0:0:
88,92,89460,1,8,0:0:0:0:
80,108,89551,2,0,B|48:212|60:320,1,200
156,288,90096,5,0,0:0:0:0:
156,288,90278,1,0,0:0:0:0:
176,188,90460,1,0,0:0:0:0:
176,188,90642,1,0,0:0:0:0:
252,256,90824,1,0,0:0:0:0:
252,256,91005,2,0,B|300:256|348:228|376:176|372:120,1,200
280,164,91551,5,0,0:0:0:0:
276,144,91642,1,0,0:0:0:0:
264,128,91733,1,0,0:0:0:0:
248,116,91824,1,0,0:0:0:0:
228,108,91914,1,0,0:0:0:0:
208,104,92005,1,0,0:0:0:0:
188,104,92096,2,0,P|84:128|40:236,1,200,0|4,0:0|0:0,0:0:0:0:
124,280,104096,118,0,B|72:220|80:136,1,149.999995529652,4|2,0:0|0:0,0:0:0:0:
216,204,104824,2,0,B|288:184|312:92,1,149.999995529652,0|2,0:0|0:0,0:0:0:0:
310,96,105369,1,0,0:0:0:0:
364,152,105551,1,0,0:0:0:0:
384,80,105733,2,0,B|420:96|436:136,1,74.9999977648259,0|2,0:0|0:0,0:0:0:0:
416,204,106096,2,0,B|400:280|312:304,2,149.999995529652,0|2|2,0:0|0:0|0:0,0:0:0:0:
340,192,107005,6,0,B|304:192|248:260|248:260|216:260,1,149.999995529652,0|2,0:0|0:0,0:0:0:0:
214,260,107551,1,0,0:0:0:0:
176,192,107733,2,0,B|212:192|268:124|268:124|300:124,1,149.999995529652,0|2,0:0|0:0,0:0:0:0:
301,124,108278,1,0,0:0:0:0:
276,56,108460,6,0,B|244:36|244:36|196:36,1,74.9999977648259
206,36,108824,1,2,0:0:0:0:
132,44,109005,2,0,B|60:84|40:176,2,149.999995529652,0|2|2,0:0|0:0|0:0,0:0:0:0:
124,156,109914,22,0,B|80:304,1,149.999995529652,4|8,0:0|0:0,0:0:0:0:
81,299,110460,1,0,0:0:0:0:
388,156,110642,2,0,B|432:304,1,149.999995529652,4|8,0:0|0:0,0:0:0:0:
430,299,111187,1,0,0:0:0:0:
256,342,111369,6,0,B|256:194,1,149.999995529652,4|8,0:0|0:0,0:0:0:0:
256,192,111914,1,0,0:0:0:0:
256,42,112096,2,0,B|256:190,1,149.999995529652,4|8,0:0|0:0,0:0:0:0:
256,192,112642,1,0,0:0:0:0:
108,268,112824,6,0,B|84:196|108:116,1,149.999995529652,4|8,0:0|0:0,0:0:0:0:
106,120,113369,1,0,0:0:0:0:
405,120,113551,2,0,B|428:196|404:268,1,149.999995529652,4|8,0:0|0:0,0:0:0:0:
404,267,114096,1,0,0:0:0:0:
256,280,114278,69,4,0:0:0:0:
256,280,114460,2,2,P|340:264|392:212,2,150.000005722046
256,200,115369,5,0,0:0:0:0:
256,184,115460,1,0,0:0:0:0:
256,168,115551,1,0,0:0:0:0:
256,152,115642,1,0,0:0:0:0:
256,136,115733,1,4,0:0:0:0:
176,76,115914,5,0,0:0:0:0:
80,104,116096,2,0,B|160:172|156:284,1,200,8|0,0:0|0:0,0:0:0:0:
156,281,116642,1,0,0:0:0:0:
76,344,116824,1,8,0:0:0:0:
56,248,117005,1,0,0:0:0:0:
56,248,117187,2,0,B|144:200|252:220,1,200,0|8,0:0|0:0,0:0:0:0:
304,304,117733,2,0,B|376:236|408:136,2,200
400,336,118642,6,0,B|380:232|272:192,1,200,0|8,0:0|0:0,0:0:0:0:
274,192,119187,1,0,0:0:0:0:
180,180,119369,2,0,B|192:128|236:88|296:92|340:128,1,200
336,125,119914,1,0,0:0:0:0:
256,68,120096,85,2,0:0:0:0:
108,52,120278,1,2,0:0:0:0:
160,192,120460,1,8,0:0:0:0:
112,336,120642,53,2,0:0:0:0:
341,280,120824,1,2,0:0:0:0:
177,107,121005,1,0,0:0:0:0:
204,224,121187,69,10,0:0:0:0:
242,325,121369,1,2,0:3:0:0:
312,241,121551,1,4,0:3:0:0:
80,148,121914,6,0,B|120:52|244:28,1,200,8|0,0:0|0:0,0:0:0:0:
268,124,122460,1,0,0:0:0:0:
360,156,122642,2,0,B|372:104|340:56,2,100,8|0|0,0:0|0:0|0:0,0:0:0:0:
360,156,123187,1,0,0:0:0:0:
444,112,123369,2,0,B|472:212|448:324,1,200,8|0,0:0|0:0,0:0:0:0:
450,310,123914,1,0,0:0:0:0:
364,264,124096,2,0,B|344:312|296:336,1,100,8|0,0:0|0:0,0:0:0:0:
264,240,124460,6,0,B|164:240|164:240|68:188,1,200,0|8,0:0|0:0,0:0:0:0:
76,192,125005,1,0,0:0:0:0:
76,92,125187,2,0,B|176:92|176:92|272:144,1,200,0|8,0:0|0:0,0:0:0:0:
264,140,125733,1,0,0:0:0:0:
360,108,125914,69,10,0:0:0:0:
453,143,126096,1,8,0:0:0:0:
419,232,126278,1,8,0:0:0:0:
325,196,126460,1,10,0:0:0:0:
228,168,126642,5,10,0:0:0:0:
281,285,126824,1,8,0:0:0:0:
168,336,127006,1,8,0:0:0:0:
115,216,127188,1,10,0:0:0:0:
44,148,127369,70,0,B|96:60|208:36,1,200,4|8,0:0|0:0,0:0:0:0:
203,37,127914,1,0,0:0:0:0:
300,60,128096,2,0,B|368:148|480:116,1,200,8|0,0:0|0:0,0:0:0:0:
412,192,128642,1,0,0:0:0:0:
428,292,128824,2,0,B|332:324,1,100,8|8,0:0|0:0,0:0:0:0:
240,284,129187,2,0,B|336:252,1,100,8|0,0:0|0:0,0:0:0:0:
244,212,129551,2,0,B|148:244,2,100,8|0|0,0:0|0:0|0:0,0:0:0:0:
320,148,130096,5,8,0:0:0:0:
320,148,130278,2,0,B|280:56|160:48,1,200,0|0,0:0|0:0,0:0:0:0:
64,76,130824,1,0,0:0:0:0:
64,76,131005,2,0,B|104:168|224:176,1,200,8|0,0:0|0:0,0:0:0:0:
224,176,131551,1,0,0:0:0:0:
304,236,131733,102,0,B|332:276|392:280,1,100,0|8,0:0|0:0,0:0:0:0:
432,188,132096,2,0,B|404:148|344:144,1,100
292,268,132460,6,0,B|320:308|380:312,1,100,8|0,0:0|0:0,0:0:0:0:
444,156,132824,2,8,B|416:116|356:112,1,100
280,48,133187,102,0,B|164:52|88:124,1,200,4|8,0:0|0:0,0:0:0:0:
96,116,133733,1,0,0:0:0:0:
184,160,133914,2,0,B|100:232|76:324,1,200,8|0,0:0|0:0,0:0:0:0:
75,324,134460,1,0,0:0:0:0:
176,320,134642,5,0,0:0:0:0:
264,252,134824,1,8,0:0:0:0:
292,356,135005,1,0,0:0:0:0:
348,172,135187,101,0,0:0:0:0:
376,288,135369,1,8,0:0:0:0:
464,208,135551,1,0,0:0:0:0:
432,80,135733,5,0,0:0:0:0:
320,16,135914,1,0,0:0:0:0:
240,120,136096,1,4,0:0:0:0:
256,192,136187,12,0,137369,0:0:0:0:
256,192,137551,85,0,0:0:0:0:
256,192,137733,1,8,0:0:0:0:
256,192,137914,1,8,0:0:0:0:
136,288,138278,5,8,0:0:0:0:
128,276,138369,1,8,0:0:0:0:
120,264,138460,1,8,0:0:0:0:
112,252,138551,1,8,0:0:0:0:
104,240,138642,1,8,0:0:0:0:
108,228,138733,1,8,0:0:0:0:
116,216,138824,1,8,0:0:0:0:
124,204,138914,1,8,0:0:0:0:
132,192,139005,22,0,B|192:112|192:112|128:28,1,200,4|8,0:0|0:0,0:0:0:0:
72,112,139551,2,0,B|276:112,1,200
272,112,140096,1,8,0:0:0:0:
344,40,140278,2,0,B|440:72|480:188,1,200
477,179,140824,1,8,0:0:0:0:
432,268,141005,1,0,0:0:0:0:
296,328,141187,6,0,B|332:232,1,100,0|0,0:0|0:0,0:0:0:0:
216,56,141551,2,0,B|180:152,1,100,8|0,0:0|0:0,0:0:0:0:
332,140,141914,6,0,B|272:124|256:252|168:260,1,200,0|8,0:0|0:0,0:0:0:0:
108,328,142460,2,0,B|48:240|56:128,1,200
55,138,143005,1,8,0:0:0:0:
148,180,143187,2,0,B|168:80|288:40,1,200
280,42,143733,1,8,0:0:0:0:
352,108,143914,1,0,0:0:0:0:
400,196,144096,6,0,B|392:248|344:280,1,100
112,188,144460,2,0,B|120:136|168:104,1,100,8|8,0:0|0:0,0:0:0:0:
184,100,144733,1,8,0:0:0:0:
204,100,144824,70,0,B|256:104|260:232|348:228,1,200,4|8,0:0|0:0,0:0:0:0:
332,128,145369,2,0,B|448:68|496:200,1,200
491,188,145914,1,8,0:0:0:0:
480,288,146096,2,0,B|392:332|276:328,1,200
286,328,146642,1,8,0:0:0:0:
188,328,146824,5,0,0:0:0:0:
88,304,147005,2,0,B|100:256|156:224,2,100,0|0|8,0:0|0:0|0:0,0:0:0:0:
48,216,147551,1,0,0:0:0:0:
132,36,147733,70,0,B|244:36,1,100,12|0,0:0|0:0,0:0:0:0:
480,352,148278,1,8,0:0:0:0:
32,352,148642,1,8,0:0:0:0:
256,344,149005,6,0,B|228:300|292:204|256:148,1,200
256,48,149551,1,8,0:0:0:0:
276,44,149642,1,8,0:0:0:0:
296,40,149733,1,8,0:0:0:0:
316,36,149824,1,8,0:0:0:0:
336,40,149914,1,8,0:0:0:0:
356,44,150005,1,8,0:0:0:0:
376,48,150096,1,8,0:0:0:0:
396,44,150187,1,8,0:0:0:0:
416,40,150278,2,0,B|480:120|444:240,1,200,0|4,0:0|0:0,0:0:0:0:
380,304,150824,5,0,0:0:0:0:
280,308,151005,2,0,B|280:252|332:216,2,100,8|0|0,0:0|0:0|0:0,0:0:0:0:
200,248,151551,1,0,0:0:0:0:
188,348,151733,2,0,B|92:304|112:180,1,200,8|0,0:0|0:0,0:0:0:0:
40,112,152278,2,0,B|64:64|120:48,1,100,0|8,0:0|0:0,0:0:0:0:
114,49,152642,1,0,0:0:0:0:
200,104,152824,6,0,B|280:32|388:56,2,200,0|8|0,0:0|0:0|0:0,0:0:0:0:
392,156,153914,2,0,B|292:200,1,100,8|4,0:0|0:0,0:0:0:0:
36,348,154460,1,4,0:0:0:0:
36,36,154824,2,0,B|136:28|248:36,1,200,4|0,0:0|0:0,0:0:0:0:
328,72,155369,1,0,0:0:0:0:
328,72,155551,1,0,0:0:0:0:
264,148,155733,1,8,0:0:0:0:
244,144,155824,1,8,0:0:0:0:
224,140,155914,1,8,0:0:0:0:
204,136,156005,1,8,0:0:0:0:
184,132,156096,1,8,0:0:0:0:
164,136,156187,1,8,0:0:0:0:
144,140,156278,1,8,0:0:0:0:
124,148,156369,1,8,0:0:0:0:
104,152,156460,1,4,0:0:0:0:
40,340,156824,6,0,B|140:340,1,100,8|0,0:0|0:0,0:0:0:0:
328,268,157369,1,8,0:0:0:0:
396,196,157551,1,8,0:0:0:0:
324,128,157733,1,8,0:0:0:0:
252,200,157914,1,4,0:0:0:0:
180,132,158096,2,0,B|256:52,1,100,0|8,0:0|0:0,0:0:0:0:
344,52,158460,6,0,B|440:80|476:196,1,200
452,288,159005,1,8,0:0:0:0:
436,296,159096,1,8,0:0:0:0:
416,304,159187,1,8,0:0:0:0:
396,296,159278,1,8,0:0:0:0:
380,288,159369,2,0,B|180:288,1,200,4|8,0:0|0:0,0:0:0:0:
108,216,159914,2,8,B|224:216,1,100
280,144,160278,2,8,B|164:144,1,100
108,72,160642,1,0,0:0:0:0:
108,72,160824,2,0,B|316:72,1,200,4|0,0:0|0:0,0:0:0:0:
404,104,161369,69,0,0:0:0:0:
484,176,161551,2,0,B|452:212|392:212,1,100
292,212,161914,1,8,0:0:0:0:
272,212,162005,1,8,0:0:0:0:
252,212,162096,1,8,0:0:0:0:
232,212,162187,1,8,0:0:0:0:
212,212,162278,1,4,0:0:0:0:
36,112,179733,54,0,B|252:9|484:120,1,449.999986588955,4|2,0:0|0:0,0:0:0:0:
470,113,181005,1,0,0:0:0:0:
472,180,181187,2,0,B|253:284|37:181,1,449.999986588955,0|2,0:0|0:0,0:0:0:0:
37,182,182460,1,2,0:0:0:0:
40,248,182642,6,0,B|84:308|172:308,1,149.999995529652,0|2,0:0|0:0,0:0:0:0:
171,307,183187,1,0,0:0:0:0:
256,288,183369,2,0,B|256:208,1,74.9999977648259
336,228,183733,1,2,0:0:0:0:
340,307,183914,2,0,B|428:308|472:248,3,149.999995529652
472,180,185187,2,8,B|472:104,1,74.9999977648259
384,88,185551,6,0,B|184:88,1,200,4|4,0:0|0:0,0:0:0:0:
36,192,186278,2,0,B|236:192,1,200,4|4,0:0|0:0,0:0:0:0:
236,192,186824,1,0,0:0:0:0:
288,264,187005,2,0,B|88:264,1,200,4|4,0:0|0:0,0:0:0:0:
88,264,187551,1,0,0:0:0:0:
140,336,187733,2,0,B|340:336,1,200,4|4,0:0|0:0,0:0:0:0:
388,260,188278,5,0,0:0:0:0:
388,260,188460,2,0,B|388:56,1,200,4|4,0:0|0:0,0:0:0:0:
388,60,189005,1,0,0:0:0:0:
312,8,189187,2,0,B|312:212,1,200,4|4,0:0|0:0,0:0:0:0:
224,192,189733,2,0,B|128:216|16:188,2,200
176,280,190642,5,8,0:0:0:0:
196,284,190733,1,8,0:0:0:0:
216,284,190824,1,8,0:0:0:0:
236,284,190914,1,8,0:0:0:0:
256,284,191005,1,8,0:0:0:0:
276,284,191096,1,8,0:0:0:0:
296,284,191187,1,8,0:0:0:0:
316,284,191278,1,8,0:0:0:0:
336,280,191369,6,0,B|440:280,1,100
436,280,191733,1,8,0:0:0:0:
392,136,191914,1,0,0:0:0:0:
120,136,192278,1,0,0:0:0:0:
204,84,192460,2,0,B|308:84,1,100,8|0,0:0|0:0,0:0:0:0:
308,344,193005,2,0,B|208:344,1,100,0|8,0:0|0:0,0:0:0:0:
256,256,193369,2,0,B|352:228|456:260,1,200
456,160,193914,1,8,0:0:0:0:
444,144,194005,1,8,0:0:0:0:
432,128,194096,1,8,0:0:0:0:
416,116,194187,1,8,0:0:0:0:
396,108,194278,6,0,B|360:76|264:156|204:112,1,200,4|0,0:0|0:0,0:0:0:0:
120,52,194824,1,8,0:0:0:0:
120,52,194914,1,8,0:0:0:0:
120,52,195005,1,8,0:0:0:0:
108,152,195187,1,0,0:0:0:0:
108,152,195369,2,0,B|72:264|172:340,1,200,8|0,0:0|0:0,0:0:0:0:
220,248,195914,6,0,B|264:216|324:244,1,100,0|8,0:0|0:0,0:0:0:0:
272,332,196278,1,8,0:0:0:0:
272,332,196369,1,8,0:0:0:0:
272,332,196460,1,8,0:0:0:0:
368,304,196642,2,0,B|420:296|436:232,1,100,0|8,0:0|0:0,0:0:0:0:
434,237,197005,1,0,0:0:0:0:
256,44,197369,69,8,0:0:0:0:
256,44,197551,2,0,B|256:192,1,150,8|8,0:0|0:0,0:0:0:0:
256,194,197914,2,0,B|256:296,1,100,8|0,0:0|0:0,0:0:0:0:
160,116,198460,2,0,B|256:88|360:116,1,200,8|0,0:0|0:0,0:0:0:0:
476,212,199005,5,8,0:0:0:0:
348,288,199187,1,8,0:0:0:0:
336,140,199369,1,12,0:0:0:0:
256,192,199460,12,2,201551,0:0:0:0:
32,188,202278,54,0,B|108:124|244:264|324:188,1,299.999991059304,0|4,0:0|0:0,0:0:0:0:
180,340,203369,69,8,0:0:0:0:
84,308,203551,1,0,0:0:0:0:
160,244,203733,2,0,B|140:192|160:144,1,100
159,146,204096,1,8,0:0:0:0:
96,68,204278,1,0,0:0:0:0:
96,68,204460,2,0,B|136:8|228:124|280:56,1,200,0|8,0:0|0:0,0:0:0:0:
278,57,205005,1,0,0:0:0:0:
400,144,205187,5,0,0:0:0:0:
466,257,205369,1,0,0:0:0:0:
352,323,205551,1,8,0:0:0:0:
286,210,205733,1,0,0:0:0:0:
256,304,205914,70,0,B|160:252|64:324,1,200,0|8,0:0|0:0,0:0:0:0:
48,224,206460,2,0,B|8:124|96:20,1,200
82,36,207005,1,0,0:0:0:0:
164,96,207187,2,0,B|196:192,1,100
284,240,207551,2,0,B|252:144,1,100,0|8,0:0|0:0,0:0:0:0:
252,145,207914,1,0,0:0:0:0:
312,64,208096,2,0,B|364:52|412:72,1,100
410,71,208460,1,8,0:0:0:0:
356,156,208642,5,0,0:0:0:0:
356,156,208733,1,0,0:0:0:0:
356,156,208824,2,0,B|444:204|460:320,1,200,4|8,0:0|0:0,0:0:0:0:
360,312,209369,2,0,B|312:320|256:280,1,100
168,308,209733,2,0,B|160:260|204:208,2,100,0|8|0,0:0|0:0|0:0,0:0:0:0:
104,232,210278,2,0,B|124:136|240:96,1,200,0|8,0:0|0:0,0:0:0:0:
238,96,210824,5,0,0:0:0:0:
312,160,211005,2,0,B|364:100|444:96,2,150,0|0|0,0:0|0:0|0:0,0:0:0:0:
256,300,211733,53,4,0:0:0:0:
256,300,211914,1,4,0:0:0:0:
80,56,212278,1,4,0:0:0:0:
432,56,212642,1,4,0:0:0:0:
152,156,213005,6,0,B|352:156,1,200,4|0,0:0|0:0,0:0:0:0:
368,256,213551,1,0,0:0:0:0:
348,256,213642,1,0,0:0:0:0:
328,256,213733,1,0,0:0:0:0:
308,256,213824,1,0,0:0:0:0:
288,256,213914,1,0,0:0:0:0:
268,256,214005,1,0,0:0:0:0:
248,256,214096,1,0,0:0:0:0:
228,256,214187,1,0,0:0:0:0:
208,256,214278,1,0,0:0:0:0:
188,256,214369,1,0,0:0:0:0:
168,256,214460,1,0,0:0:0:0:
148,256,214551,1,0,0:0:0:0:
128,256,214642,6,0,B|68:176|68:176|80:76,1,200,4|8,0:0|0:0,0:0:0:0:
144,152,215187,2,0,B|124:28|256:24,1,200
256,124,215733,1,8,0:0:0:0:
254,24,215914,2,0,B|385:28|365:152,1,200
308,232,216460,1,8,0:0:0:0:
208,232,216642,1,0,0:0:0:0:
156,320,216824,2,0,B|364:320,1,200,0|8,0:0|0:0,0:0:0:0:
356,320,217369,1,0,0:0:0:0:
352,120,217551,6,0,B|144:120,1,200,0|8,0:0|0:0,0:0:0:0:
152,120,218096,1,0,0:0:0:0:
352,120,218460,1,0,0:0:0:0:
260,344,218824,6,0,B|236:300|280:192|256:144,1,200
208,60,219369,2,0,B|256:32|308:64,1,100,8|0,0:0|0:0,0:0:0:0:
404,52,219733,1,8,0:0:0:0:
416,68,219824,1,8,0:0:0:0:
428,84,219914,1,8,0:0:0:0:
416,100,220005,1,8,0:0:0:0:
404,116,220096,1,8,0:0:0:0:
416,132,220187,1,8,0:0:0:0:
428,148,220278,1,8,0:0:0:0:
416,164,220369,1,8,0:0:0:0:
404,180,220460,6,0,B|312:204|484:324|368:348,1,200,4|0,0:0|0:0,0:0:0:0:
280,344,221005,2,0,B|177:323|349:203|257:179,1,200
264,181,221551,1,0,0:0:0:0:
332,108,221733,1,0,0:0:0:0:
236,88,221914,70,0,B|136:56,1,100,4|0,0:0|0:0,0:0:0:0:
52,104,222278,1,0,0:0:0:0:
52,104,222460,2,0,B|244:168,1,200
336,196,223005,1,8,0:0:0:0:
356,204,223096,1,0,0:0:0:0:
372,216,223187,1,0,0:0:0:0:
384,232,223278,1,0,0:0:0:0:
392,252,223369,1,4,0:0:0:0:
256,192,223460,12,0,226278,0:0:0:0:
256,340,226642,5,2,0:0:0:0:
256,264,226824,2,0,B|176:292|100:260,2,149.999995529652
324,236,227733,2,0,B|344:204|340:156,1,74.9999977648259
324,92,228096,1,2,0:0:0:0:
256,56,228278,2,0,B|176:56|104:104,1,149.999995529652
40,88,228824,2,0,B|40:124|68:156,1,74.9999977648259,2|0,0:0|0:0,0:0:0:0:
36,224,229187,6,0,B|64:296|128:348,1,149.999995529652
152,276,229733,1,8,0:0:0:0:
152,276,229914,1,8,0:0:0:0:
104,220,230096,1,8,0:0:0:0:
104,220,230278,1,8,0:0:0:0:
112,144,230460,1,8,0:0:0:0:
112,144,230642,1,8,0:0:0:0:
156,84,230824,1,8,0:0:0:0:
156,84,231005,1,8,0:0:0:0:
228,68,231187,1,8,0:0:0:0:
256,148,231369,69,8,0:0:0:0:
256,164,231460,1,8,0:0:0:0:
256,180,231551,1,8,0:0:0:0:
256,196,231642,1,8,0:0:0:0:
256,212,231733,1,8,0:0:0:0:
256,228,231824,1,8,0:0:0:0:
256,244,231914,1,8,0:0:0:0:
256,260,232005,1,8,0:0:0:0:
256,280,232096,6,0,B|352:324|452:276,1,200,4|8,0:0|0:0,0:0:0:0:
468,180,232642,1,0,0:0:0:0:
388,116,232824,1,0,0:0:0:0:
372,216,233005,1,0,0:0:0:0:
449,277,233187,1,8,0:0:0:0:
388,116,233369,6,0,B|300:68|192:80,1,200
104,36,233914,1,8,0:0:0:0:
112,136,234096,1,0,0:0:0:0:
196,80,234278,1,0,0:0:0:0:
112,136,234460,2,0,B|120:320|328:328,1,300,0|4,0:0|0:0,0:0:0:0:
456,196,235369,5,8,0:0:0:0:
368,244,235551,2,0,B|368:144,1,100
284,92,235914,2,0,B|280:204,1,100,0|8,0:0|0:0,0:0:0:0:
280,292,236278,2,0,B|184:272|152:152,1,200
188,60,236824,2,0,B|136:52|84:80,1,100,8|0,0:0|0:0,0:0:0:0:
92,176,237187,21,8,0:0:0:0:
92,196,237278,1,8,0:0:0:0:
92,216,237369,1,8,0:0:0:0:
92,236,237460,1,8,0:0:0:0:
92,256,237551,1,8,0:0:0:0:
176,312,237733,53,0,0:0:0:0:
272,332,237914,2,0,B|232:236|272:136,1,200,4|8,0:0|0:0,0:0:0:0:
172,136,238460,1,0,0:0:0:0:
220,48,238642,1,0,0:0:0:0:
320,48,238824,1,0,0:0:0:0:
368,136,239005,1,0,0:0:0:0:
408,228,239187,6,0,B|484:160|460:36,1,200
461,44,239733,1,0,0:0:0:0:
372,84,239914,2,0,B|320:88|276:144,1,100
276,236,240278,2,0,B|224:224|192:180,2,100,0|8|0,0:0|0:0|0:0,0:0:0:0:
204,300,240824,5,4,0:0:0:0:
104,316,241005,2,8,B|48:228,1,100
72,132,241369,1,8,0:0:0:0:
72,132,241460,1,0,0:0:0:0:
148,68,241642,1,8,0:0:0:0:
148,68,241733,1,8,0:0:0:0:
172,164,241914,1,8,0:0:0:0:
172,164,242005,1,8,0:0:0:0:
172,164,242096,2,0,L|256:109,1,100,0|0,0:0|0:0,0:0:0:0:
340,164,242460,70,0,B|368:64,2,100,0|8|0,0:0|0:0|0:0,0:0:0:0:
436,136,243005,1,8,0:0:0:0:
444,152,243096,1,8,0:0:0:0:
452,168,243187,1,8,0:0:0:0:
464,184,243278,1,8,0:0:0:0:
472,200,243369,1,8,0:0:0:0:
464,220,243460,1,8,0:0:0:0:
452,236,243551,1,8,0:0:0:0:
440,252,243642,1,8,0:0:0:0:
428,268,243733,54,0,B|344:320|232:296,1,200,4|8,0:0|0:0,0:0:0:0:
140,324,244278,1,0,0:0:0:0:
168,228,244460,2,0,B|116:212|68:248,2,100,0|0|8,0:0|0:0|0:0,0:0:0:0:
264,208,245005,2,0,B|320:96|224:20,1,200
232,27,245551,1,8,0:0:0:0:
168,104,245733,2,0,B|112:112|76:60,1,100
168,104,246096,1,0,0:0:0:0:
80,168,246278,70,0,B|148:240|272:236,1,200,8|4,0:0|0:0,0:0:0:0:
444,316,247005,1,8,0:0:0:0:
348,284,247187,2,0,B|368:228|424:216,1,100
452,120,247551,1,0,0:0:0:0:
452,120,247733,1,8,0:0:0:0:
380,52,247914,2,0,B|284:96|184:48,1,200
76,48,248460,2,0,B|72:104|132:148,1,100,8|0,0:0|0:0,0:0:0:0:
60,204,248824,5,0,0:0:0:0:
80,208,248914,1,0,0:0:0:0:
100,216,249005,1,0,0:0:0:0:
120,220,249096,1,0,0:0:0:0:
140,216,249187,1,0,0:0:0:0:
160,208,249278,1,0,0:0:0:0:
180,200,249369,1,0,0:0:0:0:
200,204,249460,1,0,0:0:0:0:
220,208,249551,6,0,B|264:228|264:228|316:196|316:196|424:232,1,200,4|8,0:0|0:0,0:0:0:0:
401,224,250096,1,0,0:0:0:0:
472,152,250278,2,0,B|360:116,1,100
376,121,250642,1,8,0:0:0:0:
304,56,250824,2,0,B|200:96|100:52,2,200,4|0|0,0:0|0:0|0:0,0:0:0:0:
304,56,251733,2,0,B|243:149|136:172,1,200,0|8,0:0|0:0,0:0:0:0:
146,170,252278,1,0,0:0:0:0:
104,260,252460,85,8,0:0:0:0:
172,332,252642,1,4,0:0:0:0:
204,236,252824,1,4,0:0:0:0:
352,256,253005,53,10,0:0:0:0:
272,316,253187,1,4,0:0:0:0:
252,216,253369,1,4,0:0:0:0:
328,88,253551,53,10,0:0:0:0:
400,160,253733,1,4,0:0:0:0:
304,188,253914,2,0,B|220:128,1,100,10|4,0:0|0:0,0:0:0:0:
124,136,254278,2,0,B|124:80|172:44,2,100,4|8|0,0:0|0:0|0:0,0:0:0:0:
116,252,254824,53,0,0:0:0:0:
240,336,255005,1,0,0:0:0:0:
256,192,255187,1,4,0:0:0:0:
256,192,255278,12,2,258520,0:0:0:0:
