osu file format v5

[General]
AudioFilename: I miss You.mp3
AudioLeadIn: 1500
PreviewTime: 117616
Countdown: 0
SampleSet: Soft
StackLeniency: 0.7
Mode: 0
LetterboxInBreaks: 1
EditorBookmarks: 838,32394,117727
EditorDistanceSpacing: 0.899999976158142

[Metadata]
Title:I Miss You
Artist:Itou Shizuka
Creator:kioukiou
Version:Normal
Source:Hayate no Gotoku
Tags:

[Difficulty]
HPDrainRate:3
CircleSize:4
OverallDifficulty:4
SliderMultiplier:1.4
SliderTickRate:1

[Events]
//Background and Video events
0,0,"Hinagiku.jpg"
//Break Periods
2,17260,31074
2,103260,116407
//Storyboard Layer 0 (Background)
//Storyboard Layer 1 (Fail)
//Storyboard Layer 2 (Pass)
//Storyboard Layer 3 (Foreground)
//Storyboard Sound Samples
//Background Colour Transformations
3,100,163,162,255

[TimingPoints]
172,444.444444444444,4,2,1,100,1,0
3727,-100,4,2,1,0,0,0
3949,-100,4,2,1,70,0,0
17060,-100,4,2,1,0,0,0
17505,-100,4,2,1,70,0,0
103060,-100,4,2,1,0,0,0
103727,-100,4,2,1,70,0,0
187949,-100,4,2,1,0,0,0

[Colours]
Combo1 : 254,107,107
Combo2 : 244,244,244

[HitObjects]
256,192,838,12,0,3727
96,256,4171,6,0,B|136:320|240:320,2,140,4|8|0
96,128,5505,1,8
208,80,5949,1,0
320,136,6394,1,8
208,200,6838,2,0,B|208:296,2,70,0|0|8
160,80,7727,6,0,B|216:40|312:56,2,140,4|8|0
256,152,9060,2,0,B|200:192|104:176,2,140,8|0|8
384,152,10394,1,0
424,200,10616,1,8
384,248,10838,1,8
256,248,11283,6,0,B|168:248|240:176|128:160,1,140,4|8
88,168,11949,1,0
88,168,12172,1,0
88,296,12616,5,8
216,296,13060,2,0,B|216:368,2,70,0|0|8
216,232,13727,1,0
216,168,13949,2,0,B|216:88,2,70,0|0|8
256,192,14616,12,0,17060
184,88,32394,5,0
184,88,32616,2,0,B|280:72|304:160,2,140,4|8|0
160,208,33949,1,8
136,328,34394,2,0,B|40:344|16:256,2,140,0|8|0
200,328,35505,1,0
264,328,35727,1,8
392,264,36171,5,0
264,264,36616,1,8
264,264,36838,2,0,B|208:192|272:136,1,140
328,136,37505,6,0,B|328:48,2,70,8|0|0
328,264,38394,1,8
200,264,38838,1,0
144,296,39060,1,0
88,264,39283,1,8
144,152,39727,5,0
256,96,40171,2,0,B|256:8,2,70,8|0|0
256,160,40838,1,0
256,224,41060,2,0,B|256:312,2,70,8|0|0
384,224,41949,5,8
384,96,42394,1,0
256,96,42838,1,8
192,96,43060,1,0
128,96,43283,2,0,B|56:120|56:320|136:344,1,280
192,344,44394,1,0
256,344,44616,1,8
256,216,45060,5,0
256,88,45505,1,8
384,88,45949,1,0
384,88,46171,1,0
384,87,46394,2,0,B|456:108|456:308|384:332,1,280,8|8
296,240,47727,5,0
168,240,48171,2,0,B|80:240|56:152,2,140,8|0|8
168,112,49505,2,0,B|168:40,2,70,0|0|8
264,192,50394,1,0
264,192,50838,2,0,B|264:288,2,70,8|0|0
360,112,51727,1,8
360,240,52171,2,0,B|448:240,2,70,0|0|8
232,240,53060,6,0,B|160:280|88:232,2,140,0|8|0
288,128,54394,1,8
160,128,54838,2,0,B|88:104|16:128,1,140,0|8
80,240,55727,2,0,B|152:264|232:232,1,140,0|8
288,128,56616,2,0,B|360:96|448:136,1,140,0|8
424,192,57283,1,0
424,256,57505,1,0
296,256,57949,5,8
168,256,58394,1,0
112,288,58616,1,0
56,256,58838,1,8
112,144,59283,2,0,B|208:144|136:64|224:56,1,140,0|8
328,64,60171,1,0
328,192,60616,6,0,B|416:192,2,70,8|0|4
200,192,61505,1,8
264,296,61949,1,0
136,296,62394,2,0,B|48:296,2,70,8|0|0
136,168,63283,6,0,B|88:96|144:32,1,140,8|0
200,40,63949,1,0
264,40,64171,1,8
392,40,64616,2,0,B|440:112|384:176,1,140,0|8
328,168,65283,1,0
264,168,65505,1,0
200,280,65949,5,8
328,280,66394,1,0
200,280,66838,1,8
328,280,67283,1,0
200,280,67727,1,8
264,168,68171,6,0,B|264:112|328:112|352:152|360:208|320:240|272:264|224:248|184:192|184:144|208:104|240:80|296:72,1,420,4|8
416,72,69949,5,0
416,200,70394,2,0,B|440:272|408:360,2,140,8|0|8
256,192,71505,12,8,73949
184,64,75283,6,0,B|256:24|336:72,2,140,4|8|0
104,160,76616,2,0,B|167:199|239:159,1,140,8|0
240,224,77283,1,0
231,287,77505,2,0,B|169:249|97:289,2,140,8|0|8
360,288,78838,5,0
360,288,79060,1,0
360,288,79283,2,0,B|360:360,2,70,8|0|0
360,160,80171,5,8
360,160,80394,1,0
360,160,80616,2,0,B|360:72,2,70,0|0|8
232,160,81505,1,0
232,160,81949,1,8
120,104,82394,6,0,B|64:168|120:248,2,140,4|8|0
248,104,83727,2,0,B|248:32,2,70,8|0|0
248,168,84394,1,0
248,232,84616,2,0,B|248:376,2,140,8|0|8
312,232,85727,1,0
376,232,85949,2,0,B|376:384,2,140,0|8|0
312,120,87283,5,8
184,120,87727,1,0
56,120,88171,1,8
112,232,88616,2,0,B|112:320,2,70,4|8|8
224,176,89505,6,0,B|296:144|384:184,2,140,4|8|0
224,304,90838,1,8
288,304,91060,1,0
416,304,91505,1,0
456,256,91727,1,8
416,208,91949,1,0
376,256,92171,2,0,B|216:256,1,140,0|8
152,160,93060,6,0,B|96:104,2,70,0|0|8
216,160,93727,1,0
280,160,93949,1,0
344,272,94394,6,0,B|408:336,2,70,8|0|0
280,272,95060,1,0
280,272,95283,2,0,B|120:272,2,140,8|0|12
280,144,96616,5,0
168,88,97060,1,8
56,144,97505,1,0
168,208,97949,1,8
168,208,98171,2,0,B|168:352,2,140
168,80,99505,1,0
256,192,99949,12,0,103060
440,96,117727,5,0
440,96,117949,2,0,B|376:40|304:48,2,140,4|8|0
440,160,119060,1,0
440,224,119283,1,8
328,280,119727,2,0,B|232:280|200:208,2,140,0|8|0
312,152,121060,1,8
184,152,121505,5,0
128,128,121727,1,0
72,152,121949,1,8
128,264,122394,2,0,B|200:296|288:248,1,140,0|8
183,152,123283,2,0,B|247:116|319:148,1,140,0|8
416,224,124171,2,0,B|488:224,2,70,0|0|8
288,224,125060,5,0
232,256,125283,1,0
176,224,125505,2,0,B|104:200|32:232,2,140,8|0|8
280,296,126838,2,0,B|360:320|440:288,2,140,0|8|0
232,176,128171,5,8
232,48,128616,1,0
128,112,129060,1,8
128,240,129505,2,0,B|128:320,2,70,0|0|8
232,176,130394,1,0
344,120,130838,1,8
344,248,131283,2,0,B|344:328,2,70,0|8|8
216,248,132171,6,0,B|56:248,2,140,4|8|0
264,208,133283,1,0
304,160,133505,2,0,B|456:160,2,140,8|0|8
176,160,134838,5,0
112,160,135060,1,0
48,160,135283,2,0,B|8:232|56:312,2,140,8|0|8
112,56,136616,1,0
112,56,136838,1,0
112,56,137060,1,8
176,160,137505,1,0
176,288,137949,1,8
288,224,138394,2,0,B|376:224,2,70,0|0|8
312,96,139283,6,0,B|224:72|176:168,1,140,0|8
288,224,140171,2,0,B|376:248|424:152,2,140,0|8|0
224,224,141283,1,0
160,224,141505,2,0,B|72:248|24:152,2,140,8|0|8
224,328,142838,5,0
352,328,143283,1,8
352,200,143727,2,0,B|424:200,2,70,0|0|8
224,200,144616,1,0
224,200,145060,1,8
224,72,145505,6,0,B|136:72,2,70,0|0|8
288,72,146172,1,0
288,72,146394,2,0,B|352:40|440:80,2,140,4|8|0
248,120,147505,1,0
208,168,147727,2,0,B|144:200|56:160,2,140,8|0|8
336,168,149060,5,0
464,168,149505,1,8
336,232,149949,1,0
208,232,150394,1,8
336,296,150838,1,0
336,168,151283,6,0,B|336:24,2,140,8|0|8
272,168,152394,1,0
272,168,152616,1,0
144,168,153060,1,8
176,288,153505,6,0,B|112:272|109:200|125:143|170:119|240:120|280:144|315:187|306:284|237:294,1,420,4|8
376,296,155283,5,0
376,168,155727,2,0,B|416:96|376:32,2,140,8|0|8
256,192,156838,12,8,159283
80,199,160616,6,0,B|23:144|81:72,2,140,4|8|0
208,200,161949,2,0,B|272:160|344:200,1,140,8|0
336,264,162616,1,0
335,264,162838,2,0,B|404:303|468:263,2,140,8|0|8
208,272,164172,6,0,B|136:304|48:264,1,140,0|8
72,208,164838,1,0
72,144,165060,1,0
200,144,165505,2,0,B|272:112|360:152,1,140,8|0
336,208,166172,1,0
336,272,166394,1,8
464,272,166838,1,0
464,144,167283,1,8
336,144,167727,6,0,B|336:64,2,70,4|0|8
272,144,168394,1,0
272,144,168616,2,0,B|120:144,1,140,0|8
88,192,169283,1,0
136,232,169505,2,0,B|304:232,2,140,0|8|0
136,296,170616,1,0
136,360,170838,2,0,B|-8:360,2,140,8|0|8
264,360,172172,5,0
392,360,172616,1,8
264,296,173060,1,0
392,296,173505,2,0,B|464:296,2,70,8|8|4
344,256,174172,1,8
296,216,174394,2,0,B|120:216,2,140,8|4|8
296,88,175727,5,0
168,88,176172,1,8
168,88,176394,1,0
168,216,176838,1,0
120,256,177060,1,8
168,296,177283,1,0
216,256,177505,2,0,B|360:256,1,140,0|8
408,136,178394,6,0,B|464:80,2,70,0|0|8
344,136,179060,1,0
344,136,179283,1,0
232,200,179727,6,0,B|168:264,2,70,8|0|0
296,200,180394,1,0
296,200,180616,2,0,B|464:200,2,140,12|0|8
232,88,181949,5,4
136,176,182394,1,8
232,256,182838,1,0
328,176,183283,1,8
328,176,183505,2,0,B|472:176,2,140
232,88,184838,1,0
256,192,185283,12,0,187949
