osu file format v5

[General]
AudioFilename: I miss You.mp3
AudioLeadIn: 1500
PreviewTime: 117616
Countdown: 0
SampleSet: Soft
StackLeniency: 0.7
Mode: 0
LetterboxInBreaks: 1
EditorBookmarks: 838,32394,117727
EditorDistanceSpacing: 0.899999976158142

[Metadata]
Title:I Miss You
Artist:Itou Shizuka
Creator:kioukiou
Version:Hard
Source:Hayate no Gotoku
Tags:

[Difficulty]
HPDrainRate:8
CircleSize:5
OverallDifficulty:7
SliderMultiplier:1.4
SliderTickRate:1

[Events]
//Background and Video events
0,0,"Hinagiku.jpg"
//Break Periods
2,17260,31494
2,103260,116827
//Storyboard Layer 0 (Background)
//Storyboard Layer 1 (Fail)
//Storyboard Layer 2 (Pass)
//Storyboard Layer 3 (Foreground)
//Storyboard Sound Samples
//Background Colour Transformations
3,100,163,162,255

[TimingPoints]
172,444.444444444444,4,2,1,100,1,0
3727,-100,4,2,1,0,0,0
3949,-100,4,2,1,70,0,0
17060,-100,4,2,1,0,0,0
17505,-100,4,2,1,70,0,0
103060,-100,4,2,1,0,0,0
103727,-100,4,2,1,70,0,0
187949,-100,4,2,1,0,0,0

[Colours]
Combo1 : 254,107,107
Combo2 : 244,244,244

[HitObjects]
256,192,838,12,0,3727
256,40,4171,5,0
256,104,4394,1,0
192,104,4616,2,0,B|96:104,2,70,8|0|0
192,168,5283,1,0
192,168,5505,2,0,B|256:208|336:160,1,140,8|0
328,104,6171,1,0
328,104,6283,1,0
328,104,6394,1,8
328,104,6616,2,0,B|328:256,1,140
264,248,7283,1,8
392,248,7727,5,4
392,248,7949,1,0
392,248,8172,2,0,B|464:248,2,70,8|0|0
128,248,9060,5,8
128,248,9283,1,0
128,248,9505,2,0,B|48:248,2,70,0|0|8
192,248,10172,1,0
192,248,10394,2,0,B|240:176|184:104,1,140,0|8
128,120,11060,5,8
128,120,11172,1,8
128,120,11283,2,0,B|280:120,1,140,4|8
328,120,11949,1,0
328,120,12172,2,0,B|328:40,2,70,0|0|8
280,160,12838,2,0,B|232:232|288:304,1,140
328,328,13505,1,8
376,288,13727,2,0,B|424:216|368:144,1,140
328,120,14394,1,8
256,192,14616,12,0,17060
128,72,32394,5,0
72,104,32616,1,4
72,168,32838,1,0
128,200,33060,1,8
184,168,33283,2,0,B|184:264,2,70
184,104,33949,2,0,B|184:16,2,70,8|0|0
240,136,34616,1,0
240,136,34838,2,0,B|304:104|384:144,1,140,8|0
376,72,35505,1,0
376,72,35727,2,0,B|376:240,1,140,8|0
312,208,36394,5,0
344,264,36616,1,8
408,264,36838,1,0
440,208,37060,2,0,B|440:120,2,70,0|0|8
312,208,37949,2,0,B|312:128,2,70,0|0|8
264,248,38616,1,0
208,216,38838,1,2
208,216,38949,1,2
208,216,39060,1,2
152,248,39283,2,0,B|0:248,1,140,8|0
16,184,39949,5,0
16,184,40171,2,0,B|16:104,2,70,8|0|0
64,224,40838,1,0
64,224,41060,2,0,B|64:304,2,70,8|0|0
112,184,41727,1,0
112,184,41949,2,0,B|272:184,1,140,8|0
304,144,42616,1,0
264,96,42838,2,0,B|104:96,2,140,8|0|8
328,96,43949,5,0
392,96,44171,1,2
392,96,44283,1,2
392,96,44394,1,2
456,96,44616,2,0,B|520:168|440:240,1,140,8|0
392,224,45283,2,0,B|392:312,2,70,0|8|0
328,224,45949,1,8
328,224,46060,1,8
328,224,46171,1,8
328,160,46394,2,0,B|256:120|168:176,1,140,8|4
144,200,47060,5,0
80,200,47283,2,0,B|0:200,2,70,8|0|0
112,144,47949,1,0
112,144,48171,2,0,B|112:0,2,140,8|0|8
112,272,49505,1,0
112,272,49727,2,0,B|32:272,2,70,0|8|0
160,232,50394,2,0,B|224:192|304:240,1,140,0|8
312,256,50949,1,0
335,279,51060,2,0,B|405:321|469:281,1,140
472,216,51727,1,8
472,88,52171,5,0
472,88,52394,2,0,B|472:16,2,70,0|8|0
472,152,53060,1,8
472,152,53171,1,8
472,152,53283,1,8
408,152,53505,2,0,B|248:152,1,140,8|0
208,152,54171,5,0
144,152,54394,2,0,B|64:152,1,70,8|0
72,216,54838,1,0
136,216,55060,1,0
200,216,55283,2,0,B|296:216,1,70,8|0
272,280,55727,1,0
208,280,55949,1,0
144,280,56171,2,0,B|64:280,2,70,8|0|0
176,336,56838,2,0,B|264:336,2,70,0|8|0
112,336,57505,2,0,B|56:256|136:184,1,140,0|8
176,208,58171,6,0,B|176:128,2,70
240,208,58838,2,0,B|296:288|216:360,1,140,8|0
176,336,59505,1,0
176,336,59727,2,0,B|328:336,1,140,8|0
320,272,60394,5,8
320,272,60505,1,8
320,272,60616,1,8
384,272,60838,1,0
384,272,61060,2,0,B|464:272,2,70,4|0|8
352,216,61727,6,0,B|272:216,2,70
416,216,62394,2,0,B|472:152|408:80,1,140,8|0
480,88,63060,1,0
480,88,63283,2,0,B|336:88,1,140,8|0
280,88,63949,5,0
224,120,64171,1,8
280,152,64394,1,0
224,184,64616,2,0,B|160:224|72:176,1,140,0|8
88,120,65283,1,0
88,120,65505,2,0,B|88:264,1,140,0|8
152,264,66171,5,0
152,264,66283,1,0
152,264,66394,1,0
216,264,66616,2,0,B|168:336,2,70,0|8|0
256,216,67283,1,0
256,216,67505,1,0
256,216,67727,2,0,B|400:216,2,140,8|4|8
216,168,68838,1,0
152,168,69060,2,0,B|72:168,2,70,0|0|8
280,168,69949,6,0,B|360:168,2,70,0|0|8
240,112,70616,2,0,B|160:80|88:120,2,140
240,176,71727,2,0,B|240:256,2,70,4|8|8
288,136,72394,1,4
288,136,72616,2,0,B|288:56,2,70,8|8|4
336,176,73283,2,0,B|336:320,1,140,8|8
272,312,73949,1,8
272,88,75283,5,4
208,104,75505,1,0
144,120,75727,2,0,B|72:120,2,70,8|0|0
208,136,76394,1,0
272,152,76616,1,8
336,168,76838,2,0,B|424:168,2,70
272,184,77505,1,8
208,200,77727,2,0,B|48:200,1,140
64,264,78394,1,8
200,264,78838,5,0
200,264,79060,2,0,B|144:320,2,70,0|8|0
248,216,79727,2,0,B|352:112,1,140,0|8
304,72,80394,1,0
368,56,80616,1,0
408,104,80838,1,0
392,168,81060,2,0,B|280:280,1,140,8|0
248,312,81727,1,0
248,312,81949,1,8
184,312,82171,5,8
184,312,82283,1,8
184,312,82394,2,0,B|112:312,2,70,4|0|8
216,256,83060,1,0
216,256,83283,2,0,B|368:256,1,140,0|8
400,208,83949,1,0
400,208,84171,2,0,B|480:208,2,70,0|0|8
352,160,84838,2,0,B|200:160,1,140
144,160,85505,1,8
144,160,85616,1,0
144,160,85727,1,0
80,160,85949,6,0,B|24:232|96:304,1,140,0|8
16,288,86616,2,0,B|192:288,1,140
216,288,87283,1,8
216,288,87505,2,0,B|216:360,2,70
272,256,88171,2,0,B|272:176,2,70,8|0|4
344,304,88838,1,8
344,304,88949,1,8
344,304,89060,1,8
344,304,89171,1,8
344,304,89283,1,8
344,304,89394,1,8
344,304,89505,6,0,B|424:304|448:216,1,140,4|8
408,168,90171,1,0
360,120,90394,2,0,B|281:142|281:221,1,140,0|8
280,280,91060,2,0,B|104:280,1,140
96,232,91727,1,8
96,232,91949,2,0,B|24:232,2,70
128,176,92616,2,0,B|280:176,1,140,8|0
272,112,93283,5,0
272,112,93505,2,0,B|272:40,2,70,8|0|0
272,296,94394,5,8
272,296,94616,1,0
272,296,94838,2,0,B|272:368,2,70,0|0|8
272,232,95505,1,0
272,232,95727,2,0,B|352:200|416:240,1,140,0|12
408,296,96394,5,8
408,296,96505,1,8
408,296,96616,2,0,B|408:152,1,140,8|8
472,160,97283,1,0
440,104,97505,1,0
376,104,97727,1,0
344,160,97949,2,0,B|200:160,1,140,8|0
208,224,98616,1,0
208,224,98838,1,8
208,288,99060,1,0
208,288,99171,1,0
208,288,99283,2,0,B|208:360,2,70,0|0|8
256,192,99949,12,0,103060
128,80,117727,6,0,B|168:48|224:48|264:88,1,140
256,144,118394,1,8
256,144,118616,2,0,B|256:232,2,70
192,144,119283,2,0,B|40:144,1,140,8|0
24,200,119949,1,0
48,256,120171,2,0,B|192:256,1,140,8|0
224,200,120838,1,0
224,200,121060,2,0,B|304:200,2,70,8|0|0
224,72,121949,5,8
224,72,122171,2,0,B|288:32|368:80,1,140
360,136,122838,2,0,B|360:216,2,70,8|0|0
296,136,123505,1,0
296,136,123727,2,0,B|232:176|160:136,1,140,8|0
168,72,124394,1,0
168,72,124616,1,8
104,72,124838,6,0,B|32:72,2,70
104,136,125505,2,0,B|200:136,2,70,8|0|0
104,200,126171,2,0,B|24:200,2,70,0|8|0
104,264,126838,2,0,B|176:296|248:256,1,140,0|8
240,328,127505,1,0
240,328,127727,2,0,B|240:176,1,140,0|8
296,160,128394,1,0
352,192,128616,2,0,B|352:360,2,140,0|8|0
352,128,129727,1,0
352,128,129949,1,8
224,128,130394,6,0,B|152:88|80:136,1,140,0|8
88,192,131060,1,0
88,256,131283,1,8
88,256,131394,1,8
88,256,131505,1,8
144,224,131727,2,0,B|296:224,1,140,8|4
344,224,132394,5,0
344,224,132616,2,0,B|344:296,2,70,8|0|0
344,160,133283,1,0
344,160,133505,2,0,B|488:160,2,140,8|0|8
280,160,134616,5,0
280,160,134727,1,0
280,160,134838,1,0
216,160,135060,2,0,B|160:104,2,70,0|8|0
216,224,135727,2,0,B|112:328,1,140,0|8
120,256,136394,1,0
120,256,136616,2,0,B|48:256,2,70,0|0|8
400,256,137505,5,0
400,256,137727,2,0,B|488:256,2,70,0|8|0
336,256,138394,1,8
336,256,138505,1,8
336,256,138616,1,8
336,192,138838,2,0,B|264:160|184:200,1,140,8|4
200,256,139505,5,0
200,256,139727,2,0,B|200:104,1,140,8|0
136,120,140394,1,0
168,64,140616,1,8
232,64,140838,1,0
264,120,141060,2,0,B|264:200,2,70,0|0|8
320,96,141727,2,0,B|320:24,2,70
376,120,142394,2,0,B|376:272,1,140,8|0
312,264,143060,5,0
312,264,143283,1,8
248,264,143505,1,0
248,264,143727,2,0,B|248:344,2,70,0|0|8
144,192,144616,1,0
144,192,144838,2,0,B|72:192,2,70,0|8|0
192,152,145505,6,0,B|272:152,2,70,0|0|8
152,104,146172,1,0
152,104,146394,2,0,B|0:104,2,140,4|8|0
200,64,147505,1,0
248,104,147727,1,8
200,144,147949,1,0
200,144,148172,2,0,B|200:240,2,70,0|0|8
328,152,149060,5,0
416,56,149505,1,8
376,192,149949,1,0
424,144,150172,1,0
464,96,150394,1,8
488,152,150616,2,0,B|488:232,1,70
424,224,151060,2,0,B|424:304,1,70,0|8
360,296,151505,2,0,B|360:368,2,70
360,232,152172,1,8
296,232,152394,1,2
296,232,152505,1,2
296,232,152616,1,2
232,232,152838,1,8
232,232,153060,1,8
104,232,153505,6,0,B|56:160|120:96,2,140,4|8|0
168,232,154616,1,0
232,232,154838,2,0,B|280:304|216:368,2,140,8|0|8
232,168,155949,1,0
232,168,156172,2,0,B|232:80,2,70,0|0|8
296,168,156838,1,0
296,168,157060,5,4
360,168,157283,2,0,B|400:152|440:176,1,70,8|8
424,232,157727,1,4
360,232,157949,2,0,B|320:248|280:224,1,70,8|8
228,231,158394,1,4
165,232,158616,2,0,B|112:166|173:104,1,140,8|8
233,108,159283,1,8
72,112,160616,6,0,B|16:56,2,70,4|0|8
136,112,161283,1,0
136,112,161505,2,0,B|208:80|280:120,1,140,0|8
272,176,162172,1,0
272,176,162394,2,0,B|272:256,2,70,0|0|8
208,176,163060,1,2
208,176,163172,1,2
208,176,163283,1,2
144,176,163505,1,8
144,176,163727,1,8
96,296,164172,6,0,B|16:296,2,70,0|0|8
160,296,164838,1,0
224,296,165060,1,0
416,80,165505,6,0,B|496:80,2,70,8|0|0
352,80,166172,1,0
288,80,166394,2,0,B|216:48|136:88,2,140,8|0|8
288,144,167505,1,8
288,144,167616,1,8
288,144,167727,1,4
224,144,167949,6,0,B|152:144,1,70,0|8
336,208,168394,2,0,B|416:208,1,70
224,256,168838,2,0,B|144:256,1,70,0|8
336,320,169283,2,0,B|408:320,2,70
272,320,169949,5,8
272,320,170172,2,0,B|208:352|112:312,1,140
136,256,170838,1,8
136,256,171060,1,0
136,192,171283,2,0,B|200:160|296:200,1,140,0|8
272,256,171949,1,0
272,256,172172,2,0,B|272:104,2,140,0|8|0
336,256,173283,5,0
400,256,173505,2,0,B|496:256,2,70,8|8|4
368,200,174172,1,8
368,192,174283,1,8
368,184,174394,1,8
368,176,174505,1,8
368,168,174616,1,8
368,160,174727,1,8
368,152,174838,6,0,B|368:80,2,70,4|0|8
304,152,175505,1,0
304,152,175727,2,0,B|232:112|152:160,1,140,0|8
168,88,176394,2,0,B|168:240,1,140
232,232,177060,1,8
200,288,177283,1,0
136,288,177505,1,0
104,232,177727,1,0
168,228,177949,2,0,B|168:88,1,140,8|0
104,88,178616,5,0
104,88,178838,2,0,B|32:88,2,70,8|0|0
408,160,179727,5,8
408,160,179949,2,0,B|480:160,2,70
344,160,180616,1,8
344,160,180838,2,0,B|272:160,2,70
376,216,181505,2,0,B|376:368,1,140,8|4
312,360,182172,6,0,B|224:360,1,70,0|8
72,304,182616,2,0,B|144:304,1,70
312,248,183060,2,0,B|224:248,1,70,0|8
80,192,183505,2,0,B|168:192,1,70
312,136,183949,2,0,B|240:136,2,70,0|8|0
376,136,184616,5,0
376,136,184838,2,0,B|456:104|464:32,1,140
256,192,185505,12,0,187949
