osu file format v12

[General]
AudioFilename: RDG ED TV Size.mp3
AudioLeadIn: 1000
PreviewTime: 55995
Countdown: 0
SampleSet: Soft
StackLeniency: 0.7
Mode: 0
LetterboxInBreaks: 1

[Editor]
DistanceSpacing: 1.2
BeatDivisor: 12
GridSize: 4

[Metadata]
Title:Yokan (TV Size)
TitleUnicode:予感 (TV Size)
Artist:Itou Masumi
ArtistUnicode:伊藤真澄
Creator:Azure
Version:Normal
Source:RDG Red Data Girl
Tags:P.A. Works Kishida Meru Kadokawa Shoten Hayami Saori Hata Aki Ending
BeatmapID:267094
BeatmapSetID:100699

[Difficulty]
HPDrainRate:4
CircleSize:3
OverallDifficulty:4
ApproachRate:4
SliderMultiplier:1.1
SliderTickRate:1

[Events]
//Background and Video events
0,0,"RDG EDBG.jpg",0,0
//Break Periods
//Storyboard Layer 0 (Background)
//Storyboard Layer 1 (Fail)
//Storyboard Layer 2 (Pass)
//Storyboard Layer 3 (Foreground)
//Storyboard Sound Samples
//Background Colour Transformations
3,100,163,162,255

[TimingPoints]
2370,750,4,2,1,40,1,0
32370,-100,4,2,1,40,0,0
44370,-100,4,2,1,40,0,0
56370,-83.3333333333333,4,2,2,85,0,1
56745,-83.3333333333333,4,2,2,65,0,1
62370,-83.3333333333333,4,2,2,85,0,1
62745,-83.3333333333333,4,2,2,65,0,1
67620,-100,4,2,2,65,0,0
68370,-83.3333333333333,4,2,2,85,0,1
68745,-83.3333333333333,4,2,2,65,0,1
70620,-83.3333333333333,4,2,2,65,0,1
74370,-83.3333333333333,4,2,2,85,0,1
74745,-83.3333333333333,4,2,2,65,0,1
78120,-83.3333333333333,4,2,2,65,0,1
84120,-83.3333333333333,4,2,2,45,0,1
84870,-83.3333333333333,4,2,2,25,0,1
85620,-83.3333333333333,4,2,2,5,0,1
86370,-100,4,2,1,5,0,0

[Colours]
Combo1 : 128,128,192
Combo2 : 254,158,183
Combo3 : 128,0,128
Combo4 : 255,128,128
SliderBorder : 255,255,255

[HitObjects]
256,192,870,12,4,2370,0:0:0:0:
308,224,3120,6,0,P|256:240|200:224,2,110,8|2|0,0:0|0:0|0:0,0:0:0:0:
408,156,5370,1,0,0:0:0:0:
424,276,6120,1,8,0:0:0:0:
312,320,6870,2,0,P|256:332|200:316,1,110
88,276,8370,5,4,0:0:0:0:
88,156,9120,2,0,L|88:88,2,55,8|0|0,0:0|0:0|0:0,0:0:0:0:
188,228,10620,2,0,P|216:232|244:228,1,55
300,208,11370,2,0,P|352:192|408:196,1,110,0|8,0:0|0:0,0:0:0:0:
364,308,12870,2,0,P|312:324|256:320,1,110,0|0,0:0|0:0,0:0:0:0:
296,208,14370,5,4,0:0:0:0:
280,148,14745,2,0,P|276:120|264:92,1,55,0|8,0:0|0:0,0:0:0:0:
220,56,15495,1,0,0:0:0:0:
160,60,15870,2,0,P|112:80|84:128,2,110,2|8|0,0:0|0:0|0:0,0:0:0:0:
200,176,18120,6,0,P|232:216|240:276,1,110,8|0,0:0|0:0,0:0:0:0:
212,328,19245,1,0,0:0:0:0:
332,328,19995,5,0,0:0:0:0:
392,308,20370,2,0,P|424:264|428:208,2,110,0|8|2,0:0|0:0|0:0,0:0:0:0:
316,144,22995,1,0,0:0:0:0:
256,144,23370,2,0,P|200:156|148:144,2,110,0|8|2,0:0|0:0|0:0,0:0:0:0:
252,264,25620,6,0,P|280:268|312:264,1,55
348,224,26370,2,0,P|404:212|464:228,2,110,4|8|2,0:0|0:0|0:0,0:0:0:0:
264,312,28620,1,0,0:0:0:0:
148,276,29370,6,0,P|132:232|144:172,1,110,0|8,0:0|0:0,0:0:0:0:
248,116,30870,2,0,P|264:160|252:220,1,110,0|0,0:0|0:0,0:0:0:0:
372,192,32370,6,0,P|428:188|472:160,1,110,4|8,0:0|0:0,0:0:0:0:
488,40,33870,2,0,P|432:44|388:72,1,110
344,112,34995,1,0,0:0:0:0:
300,144,35370,6,0,P|252:172|192:180,1,110,2|8,0:0|0:0,0:0:0:0:
148,72,36870,2,0,P|120:68|88:76,1,55
40,100,37620,2,0,P|16:128|12:156,1,55
12,204,38370,6,0,P|20:260|56:308,1,110,4|8,0:0|0:0,0:0:0:0:
164,344,39870,2,0,L|220:344,1,55
248,292,40620,2,0,L|304:292,1,55
356,260,41370,2,0,P|408:240|460:260,2,110,2|8|0,0:0|0:0|0:0,0:0:0:0:
408,368,43620,1,0,0:0:0:0:
408,248,44370,6,0,L|408:136,1,110,4|8,0:0|0:0,0:0:0:0:
288,160,45870,2,0,L|224:160,1,55
192,116,46620,2,0,L|128:116,1,55
76,124,47370,2,0,B|52:160|88:208|64:244,1,110,2|8,0:0|0:0,0:0:0:0:
20,328,48870,6,0,P|44:340|76:344,1,55
132,344,49620,2,0,P|160:340|184:328,1,55
236,296,50370,2,0,P|284:272|344:280,1,110,4|8,0:0|0:0,0:0:0:0:
456,308,51870,6,0,P|464:280|456:248,1,55
420,208,52620,2,0,P|412:176|420:148,1,55
448,104,53370,6,0,P|404:68|352:64,1,110,2|8,0:0|0:0,0:0:0:0:
360,184,54870,2,0,P|304:192|268:232,1,110
208,332,56370,6,0,P|176:340|140:332,3,65.9999979858399,4|0|8|0,0:0|0:0|0:0|0:0,0:0:0:0:
84,296,57870,2,0,P|64:236|76:168,1,131.99999597168,2|8,0:0|0:0,0:0:0:0:
160,52,59370,2,0,P|168:88|204:124,1,65.9999979858399
256,136,60120,2,0,P|316:120|384:136,2,131.99999597168,8|0|8,0:0|0:0|0:0,0:0:0:0:
320,268,62370,6,0,L|320:340,3,65.9999979858399,4|0|8|0,0:0|0:0|0:0|0:0,0:0:0:0:
388,352,63870,2,0,P|456:320|460:268,1,131.99999597168,2|8,0:0|0:0,0:0:0:0:
444,124,65370,5,0,0:0:0:0:
324,204,66120,1,8,0:0:0:0:
316,60,66870,2,0,P|248:44|184:64,1,131.99999597168,0|8,0:0|0:0,0:0:0:0:
68,132,68370,5,4,0:0:0:0:
68,132,68745,1,0,0:0:0:0:
124,180,69120,2,0,P|156:172|192:180,1,65.9999979858399,8|0,0:0|0:0,0:0:0:0:
224,240,69870,2,0,P|284:252|356:236,1,131.99999597168,2|8,0:0|0:0,0:0:0:0:
284,108,71370,6,0,P|312:84|344:76,1,65.9999979858399
412,76,72120,1,8,0:0:0:0:
412,76,72495,1,0,0:0:0:0:
436,144,72870,2,0,B|456:176|436:208|416:240|436:272,1,131.99999597168,0|8,0:0|0:0,0:0:0:0:
480,324,73995,1,0,0:0:0:0:
408,340,74370,6,0,L|276:340,1,131.99999597168,4|8,0:0|0:0,0:0:0:0:
168,244,75870,2,0,L|300:244,2,131.99999597168,2|8|0,0:0|0:0|0:0,0:0:0:0:
248,124,78120,6,0,P|280:124|316:104,1,65.9999979858399,8|0,0:0|0:0,0:0:0:0:
264,44,78870,1,0,0:0:0:0:
188,68,79245,1,0,0:0:0:0:
168,144,79620,1,8,0:0:0:0:
40,204,80370,6,0,P|24:268|48:328,1,131.99999597168,0|8,0:0|0:0,0:0:0:0:
176,256,81870,2,0,B|204:240|236:256|236:256|272:272|304:252,2,131.99999597168,0|8|0,0:0|0:0|0:0,0:0:0:0:
256,192,83557,12,4,86370,0:0:0:0:
