osu file format v12

[General]
AudioFilename: RDG ED TV Size.mp3
AudioLeadIn: 1000
PreviewTime: 55995
Countdown: 0
SampleSet: Soft
StackLeniency: 0.7
Mode: 0
LetterboxInBreaks: 1

[Editor]
DistanceSpacing: 1.8
BeatDivisor: 4
GridSize: 4

[Metadata]
Title:Yokan (TV Size)
TitleUnicode:予感 (TV Size)
Artist:Itou Masumi
ArtistUnicode:伊藤真澄
Creator:Azure
Version:Hard
Source:RDG Red Data Girl
Tags:P.A. Works Kishida Meru Kadokawa Shoten Hayami Saori Hata Aki Ending
BeatmapID:267093
BeatmapSetID:100699

[Difficulty]
HPDrainRate:6
CircleSize:4
OverallDifficulty:6
ApproachRate:6
SliderMultiplier:1.6
SliderTickRate:2

[Events]
//Background and Video events
0,0,"RDG EDBG.jpg",0,0
//Break Periods
//Storyboard Layer 0 (Background)
//Storyboard Layer 1 (Fail)
//Storyboard Layer 2 (Pass)
//Storyboard Layer 3 (Foreground)
//Storyboard Sound Samples
//Background Colour Transformations
3,100,163,162,255

[TimingPoints]
2370,750,4,2,1,40,1,0
9870,-100,4,2,1,15,0,0
10432,-100,4,2,1,5,0,0
10620,-100,4,2,1,40,0,0
13432,-100,4,2,1,5,0,0
13620,-100,4,2,0,20,0,0
13807,-100,4,2,1,40,0,0
15870,-100,4,2,1,15,0,0
16620,-100,4,2,1,40,0,0
19620,-100,4,2,0,20,0,0
19807,-100,4,2,1,40,0,0
20932,-100,4,2,1,5,0,0
21120,-100,4,2,1,40,0,0
25432,-100,4,2,1,5,0,0
25620,-100,4,2,1,40,0,0
28807,-100,4,2,1,5,0,0
28995,-100,4,2,1,40,0,0
32344,-100,4,2,1,40,0,0
35932,-100,4,2,1,5,0,0
36120,-100,4,2,1,40,0,0
41370,-200,4,2,1,40,0,0
41557,-200,4,2,1,5,0,0
44370,-100,4,2,1,40,0,0
44932,-100,4,2,1,5,0,0
45120,-100,4,2,1,40,0,0
50932,-100,4,2,1,5,0,0
51120,-100,4,2,1,40,0,0
54870,-200,4,2,1,40,0,0
55594,-200,4,2,1,5,0,0
55807,-200,4,2,1,20,0,0
55995,-200,4,2,1,30,0,0
56182,-200,4,2,1,40,0,0
56370,-83.3333333333333,4,2,2,95,0,1
56745,-83.3333333333333,4,2,2,65,0,1
58432,-83.3333333333333,4,2,2,5,0,1
58620,-83.3333333333333,4,2,2,65,0,1
61432,-83.3333333333333,4,2,2,5,0,1
61620,-83.3333333333333,4,2,2,65,0,1
62344,-83.3333333333333,4,2,2,95,0,1
62745,-83.3333333333333,4,2,2,65,0,1
65182,-83.3333333333333,4,2,2,5,0,1
65370,-83.3333333333333,4,2,2,65,0,1
66870,-200,4,2,2,65,0,1
67620,-100,4,2,2,65,0,0
68370,-83.3333333333333,4,2,2,95,0,1
68745,-83.3333333333333,4,2,2,65,0,1
69870,-200,4,2,2,65,0,1
70432,-200,4,2,2,5,0,1
70620,-83.3333333333333,4,2,2,65,0,1
74932,-83.3333333333333,4,2,2,5,0,1
75120,-83.3333333333333,4,2,2,65,0,1
75682,-83.3333333333333,4,2,2,5,0,1
75870,-83.3333333333333,4,2,2,65,0,1
77370,-200,4,2,2,95,0,1
77745,-200,4,2,2,65,0,1
78120,-83.3333333333333,4,2,2,65,0,1
80932,-83.3333333333333,4,2,2,5,0,1
81120,-83.3333333333333,4,2,2,65,0,1
83370,-83.3333333333333,4,2,2,85,0,1
84120,-83.3333333333333,4,2,2,45,0,1
84870,-83.3333333333333,4,2,2,25,0,1
85620,-83.3333333333333,4,2,2,5,0,1
86370,-100,4,2,1,5,0,0

[Colours]
Combo1 : 255,255,185
Combo2 : 128,128,192
Combo3 : 254,158,183
Combo4 : 128,0,128
Combo5 : 255,128,128
SliderBorder : 255,255,255

[HitObjects]
256,192,870,12,4,2370,0:0:0:0:
252,152,2745,5,0,0:0:0:0:
292,64,3120,2,0,P|252:56|212:64,1,80,8|0,0:0|0:0,0:0:0:0:
252,152,3870,1,2,0:0:0:0:
212,248,4245,2,0,P|252:256|292:248,2,80
136,188,5370,5,0,0:0:0:0:
72,120,5745,1,0,0:0:0:0:
36,208,6120,2,0,P|44:248|64:288,1,80,8|0,0:0|0:0,0:0:0:0:
164,100,6870,2,0,P|156:60|136:20,1,80,0|0,0:0|0:0,0:0:0:0:
36,208,7620,2,0,P|112:216|184:172,1,160,0|4,0:0|0:0,0:0:0:0:
268,68,8745,5,0,0:0:0:0:
364,68,9120,1,8,0:0:0:0:
452,108,9495,1,0,0:0:0:0:
504,188,9870,2,2,P|468:232|408:248,1,120,0|0,0:0|0:0,0:0:0:0:
364,224,10620,2,0,P|384:252|392:296,1,80,0|0,0:0|0:0,0:0:0:0:
296,284,11370,6,0,P|240:220|248:148,1,160,0|8,0:0|0:0,0:0:0:0:
212,344,12495,1,0,0:0:0:0:
232,248,12870,2,0,B|216:212|268:200|284:160|248:128,1,120,0|0,0:0|0:0,0:0:0:0:
248,96,13620,2,0,P|280:84|336:108,2,80,8|0|4,0:0|0:0|0:0,0:0:0:0:
248,96,14745,21,0,0:0:0:0:
156,72,15120,1,8,0:0:0:0:
92,140,15495,1,0,0:0:0:0:
4,100,15870,2,2,P|60:148|64:232,1,160,2|0,0:0|0:0,0:0:0:0:
32,320,16995,6,0,P|68:308|108:316,1,80
108,316,18120,1,8,0:0:0:0:
108,316,18870,2,0,P|136:288|180:276,2,80,0|0|0,0:0|0:0|0:0,0:0:0:0:
180,364,19995,1,0,0:0:0:0:
268,312,20370,6,0,P|328:296|380:316,1,120,4|0,0:0|0:0,0:0:0:0:
392,328,21120,1,8,0:0:0:0:
448,224,21495,1,0,0:0:0:0:
368,140,21870,2,0,B|320:144|296:188|296:188|272:212|232:196,1,160,0|0,0:0|0:0,0:0:0:0:
172,120,22995,5,0,0:0:0:0:
160,112,23182,1,0,0:0:0:0:
148,108,23370,2,0,P|76:120|36:196,1,160,0|8,0:0|0:0,0:0:0:0:
68,288,24495,1,0,0:0:0:0:
164,324,24870,2,0,P|220:348|284:344,1,120,0|0,0:0|0:0,0:0:0:0:
304,304,25620,2,0,L|396:316,1,80,0|0,0:0|0:0,0:0:0:0:
484,240,26370,22,0,P|412:232|392:156,1,160,4|8,0:0|0:0,0:0:0:0:
416,64,27495,1,0,0:0:0:0:
484,132,27870,1,2,0:0:0:0:
416,64,28245,2,0,P|356:68|308:100,1,120
296,140,28995,6,0,P|324:172|360:184,2,80
268,288,30120,1,8,0:0:0:0:
296,140,30495,1,0,0:0:0:0:
204,168,30870,1,0,0:0:0:0:
196,172,31057,1,0,0:0:0:0:
188,176,31245,2,0,B|148:216|172:268|172:268|172:308|128:312,1,160
56,260,32370,6,0,P|56:212|80:180,1,80,4|0,0:0|0:0,0:0:0:0:
8,116,33120,2,0,P|32:100|84:92,1,80,8|0,0:0|0:0,0:0:0:0:
148,160,33870,1,2,0:0:0:0:
206,264,34245,1,0,0:0:0:0:
311,206,34620,1,0,0:0:0:0:
252,101,34995,1,0,0:0:0:0:
206,264,35370,6,0,P|246:308|308:311,1,120
336,292,36120,2,0,L|412:332,1,80,8|0,0:0|0:0,0:0:0:0:
460,212,36870,1,0,0:0:0:0:
448,72,37245,1,0,0:0:0:0:
444,220,37620,1,0,0:0:0:0:
432,68,37995,1,0,0:0:0:0:
396,148,38370,22,0,P|320:164|256:116,1,160,2|8,0:0|0:0,0:0:0:0:
236,32,39870,2,0,P|274:29|310:49,1,80,0|0,0:0|0:0,0:0:0:0:
309,236,40620,2,0,P|272:240|236:220,1,80,0|0,0:0|0:0,0:0:0:0:
284,144,41370,54,0,B|322:148|341:148|364:144|416:112|432:132|444:148|440:176|420:184|400:188|372:172|372:172|360:164,1,240,0|0,0:0|0:0,0:0:0:0:
152,132,44370,6,0,P|96:164|36:156,1,120,4|0,0:0|0:0,0:0:0:0:
16,188,45120,2,0,P|56:208|72:240,1,80,8|0,0:0|0:0,0:0:0:0:
4,356,45870,1,2,0:0:0:0:
72,238,46245,1,0,0:0:0:0:
148,352,46620,1,0,0:0:0:0:
212,232,46995,1,0,0:0:0:0:
292,344,47370,6,0,B|336:328|372:352|372:352|396:316|460:316,1,160,0|8,0:0|0:0,0:0:0:0:
372,348,48870,2,0,L|352:268,2,80,0|0|0,0:0|0:0|0:0,0:0:0:0:
352,270,49995,1,0,0:0:0:0:
276,208,50370,6,0,P|332:212|376:168,1,120,2|0,0:0|0:0,0:0:0:0:
384,132,51120,1,8,0:0:0:0:
296,112,51870,2,0,P|280:64|256:32,1,80
96,148,52620,2,0,P|114:199|136:228,1,80
198,117,53370,6,0,P|134:85|97:150,1,160,0|8,0:0|0:0,0:0:0:0:
144,244,54495,1,0,0:0:0:0:
164,264,54682,1,0,0:0:0:0:
184,276,54870,6,0,P|220:288|268:280,1,80,0|0,0:0|0:0,0:0:0:0:
296,276,55807,1,0,0:0:0:0:
328,260,55995,1,0,0:0:0:0:
352,232,56182,1,0,0:0:0:0:
364,184,56370,6,0,P|412:160|456:168,1,95.9999970703126,4|0,0:0|0:0,0:0:0:0:
424,72,57120,2,0,P|472:68|520:96,1,95.9999970703126,8|0,0:0|0:0,0:0:0:0:
448,228,57870,2,0,P|380:272|320:256,1,143.999995605469,2|0,0:0|0:0,0:0:0:0:
296,224,58620,2,0,P|248:224|208:252,1,95.9999970703126,8|0,0:0|0:0,0:0:0:0:
160,344,59370,5,0,0:0:0:0:
60,308,59745,1,0,0:0:0:0:
132,232,60120,1,8,0:0:0:0:
96,140,60495,1,0,0:0:0:0:
100,134,60682,1,0,0:0:0:0:
108,128,60870,2,0,P|180:120|228:168,1,143.999995605469,0|0,0:0|0:0,0:0:0:0:
232,204,61620,2,0,P|248:252|296:276,1,95.9999970703126,8|0,0:0|0:0,0:0:0:0:
276,44,62370,5,4,0:0:0:0:
308,200,62745,1,0,0:0:0:0:
204,68,63120,1,8,0:0:0:0:
372,152,63495,1,0,0:0:0:0:
152,124,63870,2,0,P|140:168|164:212,1,95.9999970703126,2|0,0:0|0:0,0:0:0:0:
236,304,64620,2,0,P|164:260|108:276,1,143.999995605469,8|0,0:0|0:0,0:0:0:0:
103,279,65370,5,0,0:0:0:0:
96,272,66120,1,8,0:0:0:0:
88,264,66870,6,0,P|64:236|52:196,1,80,0|8,0:0|0:0,0:0:0:0:
236,32,68370,6,0,P|248:76|292:116,1,95.9999970703126,4|0,0:0|0:0,0:0:0:0:
376,168,69120,1,8,0:0:0:0:
196,160,69495,1,0,0:0:0:0:
288,224,69870,54,0,P|312:240|328:272,1,60,2|0,0:0|0:0,0:0:0:0:
336,296,70620,6,0,P|368:332|412:344,1,95.9999970703126,8|0,0:0|0:0,0:0:0:0:
428,228,71370,5,0,0:0:0:0:
372,328,71745,1,0,0:0:0:0:
260,360,72120,1,8,0:0:0:0:
144,344,72495,1,0,0:0:0:0:
64,264,72870,2,0,P|88:188|192:192,1,191.999994140625,0|8,0:0|0:0,0:0:0:0:
236,292,73995,5,0,0:0:0:0:
236,292,74182,1,0,0:0:0:0:
236,292,74370,2,0,P|304:272|328:208,1,143.999995605469
328,196,75120,2,0,P|296:136|220:120,1,143.999995605469,8|0,0:0|0:0,0:0:0:0:
212,124,75870,2,0,P|164:120|128:84,1,95.9999970703126
64,12,76620,2,0,P|24:48|12:92,1,95.9999970703126,8|0,0:0|0:0,0:0:0:0:
56,204,77370,22,0,P|36:240|-8:272,1,80,4|8,0:0|0:0,0:0:0:0:
88,112,78495,53,0,0:0:0:0:
192,64,78870,1,2,0:0:0:0:
304,84,79245,1,0,0:0:0:0:
380,168,79620,1,8,0:0:0:0:
408,280,79995,1,0,0:0:0:0:
296,256,80370,22,0,P|232:228|160:256,1,143.999995605469
144,276,81120,2,0,P|104:312|52:320,1,95.9999970703126,8|0,0:0|0:0,0:0:0:0:
20,216,81870,1,0,0:0:0:0:
56,108,82245,1,0,0:0:0:0:
140,28,82620,1,8,0:0:0:0:
252,48,82995,1,0,0:0:0:0:
336,124,83370,37,4,0:0:0:0:
256,192,83557,12,2,86370,0:0:0:0:
