osu file format v9

[General]
AudioFilename: Itou Kanako - fake me (cut).mp3
AudioLeadIn: 0
PreviewTime: 81194
Countdown: 1
SampleSet: Normal
StackLeniency: 0.6
Mode: 0
LetterboxInBreaks: 1

[Editor]
Bookmarks: 376,12012,23648,35285,46921,58557,70194,81830,93466,105103,110921,122557,134194
DistanceSpacing: 1
BeatDivisor: 4
GridSize: 4

[Metadata]
Title:fake me (Science Adventure Dance Remix)
Artist:Itou Kanako
Creator:ykcarrot
Version:Insane
Source:CHAOS;HEAD NOAH
Tags:Kaosu Heddo SADR samfree Shikura Chiyomaru Isoe Toshimichi XBOX 360 5pb. Nitroplus Nitro+ bossandy boss

[Difficulty]
HPDrainRate:8
CircleSize:4
OverallDifficulty:8
ApproachRate:9
SliderMultiplier:2.16
SliderTickRate:2

[Events]
//Background and Video events
0,0,"BG.jpg"
//Break Periods
//Storyboard Layer 0 (Background)
//Storyboard Layer 1 (Fail)
//Storyboard Layer 2 (Pass)
//Storyboard Layer 3 (Foreground)
//Storyboard Sound Samples
//Background Colour Transformations
3,100,255,255,255

[TimingPoints]
376,363.636363636364,4,1,0,50,1,0
17830,-100,4,2,0,60,0,0
22194,-100,4,2,0,5,0,0
22921,-100,4,2,0,10,0,0
23103,-100,4,2,0,20,0,0
23285,-100,4,2,0,30,0,0
23466,-100,4,2,0,45,0,0
23648,-100,4,1,0,60,0,0
57103,-100,4,2,0,70,0,0
57830,-100,4,1,0,60,0,0
80376,-200,4,1,0,60,0,0
80466,-200,4,2,0,5,0,0
81103,-100,4,2,0,60,0,0
81830,-66.6666666666667,4,1,0,60,0,1
82557,-83.3333333333333,4,1,0,60,0,1
84739,-66.6666666666667,4,1,0,60,0,1
85466,-83.3333333333333,4,1,0,60,0,1
93466,-66.6666666666667,4,1,0,60,0,1
94194,-83.3333333333333,4,1,0,60,0,1
96376,-66.6666666666667,4,1,0,60,0,1
97103,-83.3333333333333,4,1,0,60,0,1
105103,-83.3333333333333,4,1,0,60,0,0
110921,-100,4,1,0,60,0,0
132921,-200,4,1,1,60,0,0
134194,-200,4,2,0,5,0,0

[Colours]
Combo1 : 108,217,0
Combo2 : 255,128,128
Combo3 : 77,55,176
Combo4 : 244,227,147

[HitObjects]
312,372,12012,6,0,B|372:372|412:336,1,108,4|0
476,248,12376,1,8
476,136,12557,2,0,B|528:136,4,54,0|0|0|0|0
412,48,13103,2,0,B|372:12|312:12,1,108,8|0
200,12,13466,6,0,B|140:12|100:48,1,108
36,136,13830,1,8
36,248,14011,2,0,B|-16:248,4,54,0|0|0|0|0
100,336,14557,2,0,B|140:372|200:372,1,108,8|0
326,336,14921,6,0,B|383:319|400:262,2,108,0|0|8
295,231,15466,1,0
275,211,15557,1,0
256,192,15648,1,0
236,172,15739,1,0
216,152,15830,1,0
185,47,16012,2,0,B|128:64|111:121,1,108,8|0
111,262,16376,6,0,B|128:319|185:336,2,108,0|0|8
216,231,16921,1,0
236,211,17012,1,0
256,192,17103,1,0
275,172,17194,1,0
295,152,17285,1,0
400,121,17466,2,0,B|383:64|326:47,1,108,8|0
184,48,17830,6,0,B|152:48|128:60,3,54,4|0|2|0
104,124,18194,2,0,B|72:132|52:160,3,54,8|0|2|0
76,220,18557,2,0,B|44:236|36:268,3,54,0|0|2|0
96,300,18921,2,0,B|80:324|92:352,3,54,8|0|2|0
160,332,19285,6,0,B|180:352|208:348,3,54,0|0|2|0
204,276,19648,2,0,B|220:256|220:224,3,54,8|0|2|0
292,224,20012,2,0,B|292:256|308:276,3,54,0|0|2|0
304,348,20376,2,0,B|332:352|352:332,3,54,8|0|2|0
420,352,20739,6,0,B|432:324|416:300,3,54,0|0|2|0
472,257,21103,2,0,B|468:236|436:220,3,54,8|0|2|0
453,151,21466,2,0,B|440:132|408:124,3,54,0|0|2|0
380,58,21830,2,0,B|360:48|328:48,3,54,8|0|2|0
256,192,22194,12,6,23648
132,92,24012,6,2,B|76:156|104:248,1,162,2|0
132,292,24376,2,0,B|104:340|40:332,2,108,0|2|0
200,208,24921,2,0,B|264:200|292:248,1,108,2|0
228,336,25285,1,2
132,292,25466,1,2
96,192,25648,2,0,B|56:148|80:92,1,108,2|0
176,40,26012,1,2
212,68,26103,1,0
256,76,26194,1,0
300,68,26285,1,0
336,40,26376,1,2
432,92,26557,6,0,B|456:148|416:192,1,108,2|0
340,268,26921,2,2,B|260:244|180:268,1,162,2|0
132,292,27285,2,0,B|80:316|28:292,2,108,0|2|0
80,196,27830,2,0,B|56:144|80:92,1,108,2|0
176,144,28194,1,2
176,36,28376,1,2
268,92,28557,1,2
268,92,28648,1,2
268,92,28739,2,0,B|292:144|268:196,1,108,2|0
184,336,29103,6,2,B|136:364|80:340|80:260|136:236|184:264,1,216,0|6
288,300,29648,1,0
392,336,29830,2,2,B|461:310|493:219|457:155,1,216,2|0
408,60,30376,2,0,B|348:52|312:96,1,108,2|0
200,96,30739,5,2
200,96,30830,1,2
200,96,30921,2,0,B|164:52|104:60,1,108,2|0
54,155,31285,2,2,B|18:219|50:310|120:336,1,216,2|0
152,232,31830,2,0,B|204:208|256:232,1,108,2|0
360,232,32194,2,0,B|308:208|256:232,1,108,2|0
204,328,32557,6,0,B|204:216,1,108,2|0
308,328,32921,2,0,B|308:212,1,108,2|0
412,328,33285,1,2
412,328,33466,2,2,B|412:104,1,216,2|0
308,32,34012,6,0,B|308:144,1,108,2|0
204,32,34376,2,0,B|204:144,1,108,2|0
100,32,34739,1,0
100,52,34830,1,0
100,72,34921,1,0
100,92,35012,1,0
100,112,35103,1,0
100,132,35194,1,0
100,152,35285,6,0,B|100:208|48:240,1,108,4|0
104,336,35648,2,0,B|156:312|208:336,1,108
264,240,36012,2,0,B|211:207|211:151,1,108
212,44,36376,1,0
312,84,36557,2,0,B|364:116|364:172,1,108
364,280,36921,5,0
264,240,37103,1,0
212,144,37285,2,0,B|152:144|116:184,1,108
32,252,37648,2,0,B|0:232|0:196|0:196|0:152,2,108
120,316,38194,1,0
284,316,38376,5,2
400,200,38557,1,0
284,316,38739,2,0,B|236:220,1,108,2|0
140,24,39103,1,2
140,24,39194,1,2
140,24,39285,2,0,B|188:120,2,108,2|2|0
28,140,39830,5,2
188,120,40012,1,0
28,140,40194,1,2
128,268,40376,1,2
188,120,40557,1,2
292,244,40739,1,2
348,92,40921,1,2
188,120,41103,6,0,B|136:128|136:128|100:168,1,108,4|0
96,284,41466,2,0,B|128:325|128:325|181:336,1,108
284,280,41830,2,0,B|303:230|303:230|286:179,1,108
188,228,42194,1,0
98,169,42376,2,0,B|136:128|136:128|188:120,1,108
296,100,42739,5,0
404,116,42921,1,0
480,192,43103,2,0,B|484:256|432:280,1,108
344,344,43466,1,0
256,280,43648,1,0
168,344,43830,1,0
80,280,44012,1,0
80,116,44194,5,2
212,24,44375,1,0
80,116,44557,2,0,B|200:116,1,108,2|0
432,116,44921,1,2
432,116,45012,1,2
432,116,45103,2,0,B|316:116,2,108,2|2|0
300,24,45648,5,2
256,180,45830,1,0
212,24,46012,1,2
100,148,46194,1,2
172,300,46375,1,2
340,300,46557,1,2
412,148,46739,1,2
256,180,46921,6,0,B|200:180|200:180|156:208,1,108,4|0
256,180,47285,2,0,B|312:180|312:180|356:208,1,108
256,180,47648,2,0,B|256:288,2,108
308,84,48194,2,0,B|256:68|256:68|204:84,1,108
104,120,48557,5,0
24,192,48739,1,0
104,264,48921,2,0,B|144:296|144:296|200:296,1,108
312,296,49285,1,0
256,204,49466,1,0
200,296,49648,1,0
312,296,49830,6,0,B|376:304|408:264|408:264|460:292,2,162
200,296,50557,2,0,B|136:304|104:264|104:264|52:292,2,162
180,188,51285,2,0,B|192:104|320:104|332:188,3,216
256,264,52557,1,0
180,188,52739,6,0,B|104:112,1,108,4|0
256,156,53103,2,0,B|256:36,1,108
332,188,53466,2,0,B|408:112,1,108
256,156,53830,1,0
204,264,54012,2,0,B|256:292|308:264,1,108
400,212,54375,5,0
400,320,54557,1,0
308,264,54739,2,0,B|256:236|204:264,1,108
112,320,55103,1,0
112,212,55285,1,0
204,264,55466,1,0
308,264,55648,6,0,B|316:176|196:176|204:88,1,216
308,88,56194,2,0,B|316:176|196:176|204:264,1,216
204,368,56739,1,0
308,368,56921,1,0
404,316,57103,6,0,B|448:272,3,54,0|0|2|0
496,224,57466,2,0,B|452:180,3,54,0|0|2|0
404,132,57830,5,0
396,140,57921,1,0
312,224,58103,1,0
304,232,58194,1,0
296,240,58285,1,0
288,248,58376,1,0
280,256,58466,1,0
272,264,58557,6,0,B|256:280|256:280|256:372,1,108,6|0
172,192,58921,2,0,B|120:192|120:192|80:152,1,108,2|0
256,68,59285,1,0
340,192,59466,2,0,B|392:192|392:192|432:152,1,108,2|0
256,68,59830,5,2
148,68,60012,2,0,B|116:68|116:68|80:96|80:96|48:96,1,108,2|0
364,68,60376,2,0,B|396:68|396:68|432:96|432:96|464:96,1,108,2|0
256,68,60739,1,0
256,176,60921,2,0,B|256:288,1,108,2|0
256,68,61285,5,2
180,144,61466,2,0,B|96:228,1,108,2|0
332,144,61830,2,0,B|416:228,1,108,2|0
256,296,62194,2,0,B|256:128,1,162,2|0
256,68,62557,1,0
204,208,62739,6,0,B|256:236|308:208,1,108,2|0
332,104,63103,1,2
180,104,63285,1,2
332,104,63466,2,0,B|412:184,1,108,2|0
180,104,63830,2,0,B|96:188,1,108,2|0
24,260,64194,5,0
100,336,64375,1,4
176,260,64557,1,0
256,332,64739,1,2
336,260,64921,1,0
412,336,65103,1,0
488,260,65285,2,0,B|488:140,1,108,2|0
488,44,65648,5,0
488,44,65739,1,0
488,44,65830,1,0
412,120,66012,1,2
336,44,66194,1,2
256,116,66375,1,0
176,44,66557,1,0
100,120,66739,2,0,B|20:40,2,108,2|2|0
176,200,67285,5,0
256,272,67466,1,2
176,344,67648,1,0
96,272,67830,2,2,B|112:200|176:200|176:200|276:200,1,216,2|2
384,200,68375,2,0,B|412:176|412:128|384:104,1,108,2|0
276,104,68739,5,0
176,144,68921,1,2
176,252,69103,1,0
276,292,69285,2,2,B|392:292|444:176,1,216,2|2
496,84,69830,2,0,B|444:56|392:84,1,108,2|0
220,192,70194,5,6
120,256,70375,1,0
292,192,70557,1,2
392,256,70739,1,0
256,132,70921,1,0
256,252,71103,2,0,B|256:368,1,108,2|0
120,256,71466,5,2
220,192,71648,1,2
392,256,71830,1,0
292,192,72012,1,2
256,372,72194,1,0
256,252,72375,1,0
256,132,72557,2,0,B|256:12,1,108,2|0
152,80,72921,5,2
152,196,73103,1,2
256,252,73285,1,0
360,196,73466,1,2
360,80,73648,1,0
256,24,73830,2,0,B|256:188,1,162,2|0
256,252,74194,1,0
308,356,74375,6,0,B|256:380|204:356,1,108,2|0
172,252,74739,1,2
340,252,74921,1,2
172,252,75103,2,0,B|172:244|172:244|108:180|108:180|108:172,1,108,2|0
340,252,75466,2,0,B|340:244|340:244|404:180|404:180|404:172,1,108,2|0
420,64,75830,5,0
420,64,75921,1,0
420,64,76012,1,4
312,64,76194,1,2
256,156,76375,1,0
364,156,76557,2,2,B|312:64|312:64|200:64,1,216,2|2
144,156,77103,1,0
200,248,77285,5,0
200,248,77375,1,0
200,248,77466,1,0
308,248,77648,1,2
364,156,77830,1,0
256,156,78012,2,2,B|308:248|308:248|420:248,2,216,2|2|2
200,64,78921,2,0,B|144:64|144:64|104:104,1,108,2|0
32,176,79285,5,0
108,252,79466,1,2
184,176,79648,1,0
188,180,79739,1,0
264,256,79921,1,0
268,260,80012,1,0
272,264,80103,1,0
276,268,80194,1,0
280,272,80285,1,0
284,276,80376,2,0,B|340:332|340:332|424:332,1,162
468,120,81285,5,0
468,120,81466,1,0
468,120,81648,1,0
468,120,81830,2,0,B|388:120|388:120|368:84|320:80,1,161.999995172024,6|0
44,264,82194,2,0,B|124:264|124:264|144:300|192:304,1,161.999995172024,2|0
256,192,82557,5,0
320,80,82739,1,0
192,80,82921,1,8
72,132,83103,2,0,B|56:164|48:192|48:192|56:220|72:252,1,129.600003089905
192,304,83466,1,0
320,304,83648,1,8
440,252,83830,2,0,B|456:220|464:192|464:192|456:164|440:132,1,129.600003089905
320,80,84194,5,0
192,80,84375,1,8
256,192,84557,1,0
320,80,84739,2,0,B|392:80|392:80|412:60|448:56|476:72,1,161.999995172024,2|0
192,80,85103,2,0,B|120:80|120:80|100:60|64:56|36:72,1,161.999995172024,2|0
28,208,85466,5,0
96,332,85648,2,0,B|140:312|148:260|148:260|184:248,1,129.600003089905,0|8
328,248,86012,2,0,B|364:260|364:260|372:312|416:332,1,129.600003089905,0|0
484,208,86375,1,0
388,120,86557,1,8
256,64,86739,2,0,B|256:192,2,129.600003089905,0|0|0
124,120,87285,1,8
28,208,87466,5,0
28,208,87557,1,0
28,208,87648,1,6
28,80,87830,1,0
144,264,88012,1,10
144,136,88194,1,0
256,320,88375,1,0
256,192,88557,2,0,B|300:148|300:148|368:148,1,129.600003089905,2|8
484,208,88921,5,0
484,208,89012,1,0
484,208,89103,1,2
484,80,89285,1,0
368,264,89467,1,10
368,136,89649,1,0
256,320,89830,1,0
256,192,90012,2,0,B|212:148|212:148|144:148,1,129.600003089905,2|8
56,244,90375,5,0
172,364,90557,1,2
340,364,90739,1,0
456,244,90921,1,8
404,84,91103,2,0,B|328:88|312:160,1,129.600003089905,2|0
256,320,91466,1,0
200,160,91648,2,0,B|184:88|108:84,1,129.600003089905,10|0
16,192,92012,5,2
256,28,92194,1,0
496,192,92375,1,8
256,356,92557,2,0,B|256:212,1,129.600003089905,2|0
256,28,92921,5,0
212,52,93012,1,0
212,104,93103,1,0
256,132,93194,1,0
300,104,93285,1,0
300,52,93375,1,0
256,28,93466,2,0,B|164:4|108:68,1,161.999995172024,6|0
256,356,93830,2,0,B|348:380|404:316,1,161.999995172024,2|0
484,216,94194,5,0
384,128,94375,1,0
484,216,94557,1,8
384,128,94739,2,0,B|320:112|256:128,1,129.600003089905
128,128,95103,1,0
28,216,95285,1,8
128,128,95466,2,0,B|192:112|256:128,1,129.600003089905
320,240,95830,5,0
192,240,96012,1,8
256,128,96194,1,0
320,240,96376,2,0,B|340:240|340:240|368:276|424:276|452:240|452:240|472:240,1,161.999995172024,2|0
192,240,96739,2,0,B|172:240|172:240|144:276|88:276|60:240|60:240|40:240,1,161.999995172024,2|0
112,340,97103,5,0
116,196,97285,2,0,B|116:160|128:140|128:140|160:128|184:96,1,129.600003089905,0|8
328,96,97648,2,0,B|352:128|384:140|384:140|396:160|396:196,1,129.600003089905,0|0
400,340,98012,1,0
256,340,98194,1,8
256,200,98375,2,0,B|256:68,2,129.600003089905,0|0|0
256,340,98921,1,8
144,276,99103,5,0
144,276,99194,1,0
144,276,99285,1,6
144,148,99466,1,0
256,84,99648,1,10
368,148,99830,1,0
368,276,100012,1,0
256,340,100194,2,0,B|256:200,1,129.600003089905,2|8
256,84,100557,5,0
256,84,100648,1,0
256,84,100739,1,2
144,148,100921,1,0
256,212,101103,1,10
368,148,101285,1,0
256,84,101466,1,0
256,212,101648,2,0,B|256:348,1,129.600003089905,2|8
124,340,102012,5,0
0,264,102194,1,2
124,192,102375,1,0
0,120,102557,1,8
124,44,102739,2,0,B|256:44,1,129.600003089905,2|0
436,120,103103,2,0,B|300:120,1,129.600003089905,2|8
124,192,103466,1,2
308,264,103648,2,0,B|448:264,1,129.600003089905,0|2
256,340,104012,2,0,B|112:340,1,129.600003089905,8|2
44,192,104375,5,0
76,152,104466,1,0
124,136,104557,1,0
172,152,104648,1,0
204,192,104739,1,0
272,304,104921,1,0
304,344,105012,1,0
356,344,105103,1,4
432,236,105285,5,2
328,160,105466,1,0
432,84,105648,2,0,B|396:20|324:32,1,129.600003089905,2|0
80,236,106012,5,2
184,160,106193,1,0
80,84,106376,2,0,B|116:20|188:32,1,129.600003089905,2|0
256,340,106739,6,0,B|288:280|224:276|256:216,1,129.600003089905,2|0
256,80,107103,2,2,B|360:80|400:192|400:192|464:192,1,259.20000617981,2|0
256,80,107648,2,2,B|152:80|112:192|112:192|48:192,1,259.20000617981,2|0
256,340,108194,2,0,B|288:280|224:276|256:216,1,129.600003089905,2|0
372,280,108557,5,2
372,280,108648,1,0
372,280,108739,1,0
256,340,108921,1,2
140,280,109103,1,0
36,200,109285,2,0,B|72:148|72:148|132:120,1,129.600003089905,2|0
256,80,109648,1,2
380,120,109830,2,0,B|440:148|440:148|476:200,1,129.600003089905,0|2
372,280,110194,1,0
256,340,110375,5,0
256,288,110466,1,0
256,236,110557,1,0
256,184,110648,1,0
256,132,110739,1,0
256,80,110830,1,0
256,28,110921,6,0,B|200:8|152:44,1,108,6|0
60,100,111285,2,2,B|4:124|4:184|4:184|4:244,1,162,2|0
4,292,111648,1,0
100,240,111830,2,0,B|124:212|172:212|196:240,1,108,2|0
208,348,112194,2,0,B|232:376|280:376|304:348,1,108,2|0
396,292,112557,1,2
396,184,112739,1,2
304,128,112921,2,0,B|280:100|232:100|208:128,1,108,2|0
116,184,113285,1,2
68,192,113375,1,0
28,164,113466,1,0
20,116,113557,1,0
52,80,113648,1,2
148,32,113830,6,0,B|200:8|252:32,1,108,2|0
360,52,114194,2,2,B|360:136|444:184,1,162,2|0
488,208,114557,1,0
488,100,114739,2,0,B|432:100|392:140,1,108,2|0
328,228,115103,2,0,B|280:192|224:204,1,108,2|0
120,212,115466,1,2
88,316,115648,1,2
184,364,115830,1,2
212,324,115921,1,2
256,304,116012,2,0,B|312:304|296:344|352:344,1,108,2|0
416,196,116376,6,2,B|430:142|486:119|543:176|520:232|466:246,1,216,0|6
360,260,116921,1,0
288,180,117103,2,2,B|216:84|96:104,1,216,2|0
0,144,117648,2,0,B|16:200|80:208,1,108,2|0
188,208,118012,5,2
224,240,118103,1,2
224,288,118194,2,0,B|224:348|168:372,1,108,2|0
92,296,118557,2,2,B|292:212,1,216,2|0
328,316,119103,2,0,B|392:224,1,108,2|0
480,284,119466,2,0,B|480:176,1,108,2|0
424,84,119830,6,0,B|380:48|324:48,1,108,2|0
88,84,120194,2,0,B|132:48|188:48,1,108,2|0
256,276,120557,1,2
256,276,120739,2,2,B|256:56,1,216,2|0
364,60,121285,6,0,B|364:92|364:92|364:132|324:152,1,108,2|0
188,152,121648,2,0,B|148:132|148:92|148:92|148:60,1,108,2|0
256,60,122012,1,0
256,96,122103,1,0
256,132,122194,1,0
256,168,122285,1,0
256,204,122375,1,0
256,240,122466,1,0
256,276,122557,6,0,B|276:332|340:332,1,108,6|0
448,332,122921,2,2,B|508:320|508:264|508:264|508:196,1,162,2|0
508,148,123285,2,0,B|448:148|416:100,1,108,0|2
352,12,123648,1,0
256,60,123830,2,0,B|256:280,1,216,2|2
172,344,124375,1,2
88,276,124557,2,0,B|88:168,1,108,2|0
88,60,124921,1,2
124,28,125012,1,0
172,20,125103,1,0
220,28,125194,1,0
256,60,125285,1,2
344,124,125466,6,0,B|396:152|448:124,1,108,2|0
396,28,125830,2,2,B|396:196,1,162,2|0
436,228,126194,2,0,B|436:292|376:308,1,108,0|2
276,276,126557,1,0
208,192,126739,2,0,B|161:120|45:175|70:256,1,216,2|2
96,360,127285,1,2
164,280,127466,1,2
144,236,127557,1,2
124,192,127648,2,0,B|100:140|124:88,1,108,2|0
284,112,128012,6,2,B|332:140|388:116|388:36|332:12|284:40,1,216,0|6
204,112,128557,1,0
280,188,128739,2,2,B|360:212|436:152|436:84,1,216,2|0
344,24,129285,2,0,B|280:28|260:80,1,108,2|0
212,180,129648,5,2
172,212,129739,1,2
124,212,129830,2,0,B|64:212|40:156,1,108,2|0
136,104,130194,2,2,B|204:308,1,216,2|0
96,308,130739,2,0,B|36:308|0:352,2,108,2|0|2
204,308,131285,5,0
235,314,131375,1,0
267,312,131466,1,2
297,300,131557,1,0
322,280,131648,1,0
340,253,131739,1,0
350,222,131830,1,2
350,189,131921,1,0
341,157,132012,1,0
322,130,132103,1,0
297,109,132194,1,2
267,96,132285,1,0
234,93,132376,1,2
202,100,132466,1,0
173,116,132557,1,0
151,140,132648,1,0
137,169,132739,1,0
240,204,132921,5,2
240,204,133285,2,2,B|484:88,1,270,2|0
