osu file format v9

[General]
AudioFilename: Itou Kanako - fake me (cut).mp3
AudioLeadIn: 0
PreviewTime: 81194
Countdown: 1
SampleSet: Normal
StackLeniency: 0.6
Mode: 0
LetterboxInBreaks: 1

[Editor]
Bookmarks: 376,12012,23648,35285,46921,58557,70194,81830,93466,105103,110921,122557,134194
DistanceSpacing: 1
BeatDivisor: 2
GridSize: 4

[Metadata]
Title:fake me (Science Adventure Dance Remix)
Artist:Itou Kanako
Creator:ykcarrot
Version:Easy
Source:CHAOS;HEAD NOAH
Tags:Kaosu Heddo SADR samfree Shikura Chiyomaru Isoe Toshimichi XBOX 360 5pb. Nitroplus Nitro+ bossandy boss

[Difficulty]
HPDrainRate:2
CircleSize:3
OverallDifficulty:2
ApproachRate:3
SliderMultiplier:0.8
SliderTickRate:2

[Events]
//Background and Video events
0,0,"BG.jpg"
//Break Periods
2,23848,33845
2,111121,121117
//Storyboard Layer 0 (Background)
//Storyboard Layer 1 (Fail)
//Storyboard Layer 2 (Pass)
//Storyboard Layer 3 (Foreground)
//Storyboard Sound Samples
//Background Colour Transformations
3,100,255,255,255

[TimingPoints]
376,363.636363636364,4,1,0,50,1,0
17830,-100,4,2,0,60,0,0
22194,-100,4,2,0,5,0,0
22921,-100,4,2,0,10,0,0
23103,-100,4,2,0,20,0,0
23285,-100,4,2,0,30,0,0
23466,-100,4,2,0,45,0,0
23648,-100,4,1,0,60,0,0
80466,-100,4,2,0,5,0,0
81103,-100,4,2,0,30,0,0
81830,-100,4,1,0,60,0,1
105103,-100,4,1,0,60,0,0
133285,-100,4,1,1,60,0,0
134194,-100,4,2,0,5,0,0

[Colours]
Combo1 : 108,217,0
Combo2 : 255,128,128
Combo3 : 77,55,176
Combo4 : 244,227,147

[HitObjects]
140,304,12012,1,4
24,192,12739,1,8
140,80,13466,1,0
256,192,14194,1,8
372,304,14921,5,0
488,192,15648,1,8
372,80,16375,1,0
256,192,17103,1,8
172,328,17830,6,0,B|88:296|92:204,1,160,4|8
180,68,19285,2,0,B|256:24|332:68,1,160,0|8
420,204,20739,2,0,B|424:296|340:328,1,160,0|8
256,192,22194,12,4,23648
420,212,35285,5,4
336,348,36012,1,0
176,348,36739,1,0
92,212,37466,1,0
184,80,38194,2,0,B|220:40|292:40|328:80,3,160,0|2|0|2
376,232,41103,5,4
256,340,41830,1,0
136,232,42557,1,0
256,124,43284,1,0
328,268,44012,2,0,B|292:308|220:308|184:268,3,160,0|2|0|2
124,120,46921,5,4
256,208,47648,1,0
388,120,48376,1,0
256,32,49103,1,0
176,172,49830,2,0,B|152:196|144:244|144:244|152:292|176:316,1,160
336,316,51285,2,0,B|360:292|368:244|368:244|360:196|336:172,1,160
256,32,52739,5,4
256,192,53466,1,0
336,332,54194,1,0
176,332,54921,1,0
100,192,55648,2,0,B|96:128|180:128|176:56,1,160
336,60,57103,2,0,B|332:128|416:128|412:192,1,160
332,332,58557,5,6
256,356,58921,1,0
180,332,59285,1,2
180,172,60012,1,2
256,148,60376,1,0
332,172,60739,1,2
332,332,61466,2,0,B|256:376|180:332,3,160,2|2|2|2
176,152,64376,6,0,B|136:152|136:152|100:172,2,80,4|2|2
336,152,65830,2,0,B|376:152|376:152|412:172,2,80,0|2|2
216,260,67285,2,0,B|176:260|176:260|144:236|144:236|100:236,2,120,2|2|2
296,260,68739,2,0,B|336:260|336:260|368:236|368:236|412:236,2,120,2|2|2
256,192,70194,5,6
216,124,70557,1,0
296,124,70921,1,2
256,280,71648,1,2
216,348,72011,1,0
296,348,72375,1,2
256,192,73103,2,0,B|216:116|296:116|256:40,3,160,2|2|2|2
136,144,76012,6,0,B|56:156|20:280|68:340,1,240,6|2
144,312,77466,2,0,B|256:236|368:312,1,240,2|2
444,340,78921,2,0,B|492:280|456:156|376:144,1,240,6|0
332,212,80376,2,0,B|256:256|180:212,1,160
216,56,81830,5,6
296,56,82194,1,2
336,124,82557,2,0,B|376:124|376:124|416:124|448:156,2,120,0|0|8
256,124,84012,2,0,B|256:208,1,80,0|8
296,272,84739,5,2
216,272,85103,1,2
176,204,85466,2,0,B|136:204|136:204|96:204|64:172,2,120,0|0|8
256,204,86921,2,0,B|256:116,1,80,0|8
324,84,87648,6,0,B|364:84|396:116,2,80,4|8|0
256,44,88739,1,8
188,84,89103,2,0,B|148:84|116:116,2,80,0|8|0
256,124,90194,1,8
296,192,90557,6,0,B|324:220|324:220|364:220|388:264,2,120,2|2|8
216,192,92012,2,0,B|188:220|188:220|148:220|124:264,2,120,2|2|8
256,124,93466,6,0,B|284:88|256:52,1,80,6|2
184,88,94194,2,0,B|144:68|108:88|108:88|68:88,2,120,0|0|8
216,160,95648,1,0
296,160,96012,1,8
256,228,96376,6,0,B|228:264|256:300,1,80,2|2
328,264,97103,2,0,B|368:284|404:264|404:264|444:264,2,120,0|0|8
296,192,98558,1,0
216,192,98922,1,8
140,172,99285,6,0,B|100:152|100:108,1,80,4|8
180,104,100012,2,0,B|180:56|216:36,1,80,0|8
296,36,100739,2,0,B|332:56|332:104,1,80,0|8
412,108,101466,2,0,B|412:152|372:172,1,80,0|8
296,192,102194,6,0,B|296:272|296:272|328:304,2,120,2|2|8
216,192,103648,2,0,B|216:272|216:272|184:304,2,120,2|2|8
136,192,105103,5,4
176,36,105830,1,0
336,36,106557,1,0
376,192,107285,1,0
336,348,108012,1,0
176,348,108739,1,0
256,192,109466,12,4,110921
256,128,122557,5,6
176,128,122921,1,2
128,192,123285,2,0,B|72:172|64:212|12:192,2,120,0|2|2
148,272,124739,2,0,B|176:308|216:308,1,80,0|2
296,308,125466,6,0,B|336:308|364:272,1,80,2|2
384,192,126194,2,0,B|440:172|448:212|500:192,2,120,0|2|2
336,128,127648,1,2
256,128,128012,6,2,B|256:208,1,80,0|6
176,208,128739,2,0,B|176:252|212:276|212:276|176:300|176:344,1,160,2|2
256,344,129830,1,2
336,344,130193,2,0,B|336:300|300:276|300:276|336:252|336:208,1,160,2|2
372,136,131285,5,0
332,68,131648,1,2
256,44,132012,1,0
180,68,132376,1,2
140,136,132739,1,0
140,136,132921,1,2
180,204,133285,2,2,B|204:276|308:276|332:204,1,200,2|0
