osu file format v13

[General]
AudioFilename: Itou Kanako - fake me (cut).mp3
AudioLeadIn: 0
PreviewTime: -1
Countdown: 1
SampleSet: Normal
StackLeniency: 0.7
Mode: 0
LetterboxInBreaks: 1
WidescreenStoryboard: 1

[Editor]
Bookmarks: 380,23652,41107,52743,55652,58561,70198
DistanceSpacing: 1
BeatDivisor: 4
GridSize: 4
TimelineZoom: 1.9

[Metadata]
Title:fake me (Science Adventure Dance Remix)
TitleUnicode:fake me (Science Adventure Dance Remix)
Artist:Itou Kanako
ArtistUnicode:いとうかなこ
Creator:okdesu
Version:Normal
Source:ChäoS;HEAd NoAH
Tags:
BeatmapID:476798
BeatmapSetID:200553

[Difficulty]
HPDrainRate:4
CircleSize:3
OverallDifficulty:4
ApproachRate:4
SliderMultiplier:1.4
SliderTickRate:2

[Events]
//Background and Video events
0,0,"ChaoS2.jpg",0,0
//Break Periods
//Storyboard Layer 0 (Background)
//Storyboard Layer 1 (Fail)
//Storyboard Layer 2 (Pass)
//Storyboard Layer 3 (Foreground)
//Storyboard Sound Samples
//Background Colour Transformations
3,100,163,162,255

[TimingPoints]
384,363.636363636364,4,1,0,100,1,0
81834,-100,4,1,0,100,0,1
110925,-100,4,1,0,100,0,0

[Colours]
Combo1 : 213,10,32
Combo2 : 163,188,105
Combo3 : 251,224,197
Combo4 : 2,64,121

[HitObjects]
108,232,23656,6,0,P|148:288|236:280,1,140
368,148,24565,2,0,P|448:180|464:248,1,140
356,296,25293,1,0,0:0:0:0:
216,296,25656,1,0,0:0:0:0:
88,240,26020,1,0,0:0:0:0:
272,140,26565,6,0,P|232:76|148:48,1,140
20,192,27474,1,0,0:0:0:0:
152,240,27838,2,0,P|212:224|348:292,1,210
116,120,28747,2,0,L|272:88,1,140
384,144,29474,6,0,P|372:80|296:96,1,140
200,260,30565,1,0,0:0:0:0:
408,228,30929,6,0,P|384:300|300:336,1,140
224,104,32020,1,0,0:0:0:0:
392,84,32384,6,0,P|380:140|192:236,1,280,0|0,0:0|0:0,0:0:0:0:
88,144,33474,2,0,P|104:212|68:292,1,140
228,268,34202,2,0,P|372:236|392:236,1,140,0|0,0:0|0:0,0:0:0:0:
196,308,34929,1,0,0:0:0:0:
332,336,35293,6,0,L|500:336,1,140
404,68,36384,1,0,0:0:0:0:
420,136,36747,2,0,L|248:148,1,140
64,288,37838,1,0,0:0:0:0:
340,228,38202,2,0,L|408:84,2,140,0|0|0,0:0|0:0|0:0,0:0:0:0:
232,140,39293,2,0,L|376:80,2,140,0|0|0,0:0|0:0|0:0,0:0:0:0:
212,304,40384,2,0,L|44:324,1,140,0|0,0:0|0:0,0:0:0:0:
168,248,41111,6,0,P|96:224|68:140,1,140
184,92,41838,2,0,P|232:124|464:84,1,280,0|0,0:0|0:0,0:0:0:0:
420,240,42929,2,0,P|392:292|312:300,1,140,0|0,0:0|0:0,0:0:0:0:
176,288,43656,1,0,0:0:0:0:
44,236,44020,1,0,0:0:0:0:
124,132,44384,2,0,L|56:0,1,140,0|0,0:0|0:0,0:0:0:0:
196,80,45111,2,0,L|356:68,1,140,0|0,0:0|0:0,0:0:0:0:
260,188,45838,2,0,L|120:236,1,140,0|0,0:0|0:0,0:0:0:0:
264,196,46565,1,0,0:0:0:0:
432,276,46929,6,0,P|400:324|320:324,1,140
232,220,47656,2,0,P|176:188|52:320,1,280
240,264,48747,2,0,P|272:328|432:252,1,280
460,160,49838,5,0,0:0:0:0:
268,152,50565,1,0,0:0:0:0:
136,268,51293,5,0,0:0:0:0:
268,312,51656,2,0,P|324:300|384:220,1,140
308,120,52384,1,0,0:0:0:0:
184,188,52747,6,0,L|60:88,1,140
184,192,53474,2,0,P|114:195|188:80,1,280
28,168,54565,1,0,0:0:0:0:
108,52,54929,2,0,L|276:60,1,140
232,164,55656,6,0,P|312:180|348:240,1,140,0|0,0:0|0:0,0:0:0:0:
304,284,56384,2,0,P|364:328|424:300,1,140
332,196,57111,1,0,0:0:0:0:
332,72,57474,2,0,L|376:60,4,35,0|0|0|0|0,0:0|0:0|0:0|0:0|0:0,0:0:0:0:
224,164,58202,1,0,0:0:0:0:
92,120,58565,2,0,P|108:188|176:252,1,140
160,252,59293,2,0,P|80:248|12:284,1,140,0|0,0:0|0:0,0:0:0:0:
288,308,60020,2,0,P|364:320|440:268,1,140
404,152,60747,1,0,0:0:0:0:
292,60,61111,1,0,0:0:0:0:
308,200,61474,6,0,P|252:236|212:184,1,140
152,60,62202,2,0,P|84:112|128:296,1,280
176,172,63293,1,0,0:0:0:0:
144,308,63656,1,0,0:0:0:0:
352,328,64020,1,0,0:0:0:0:
428,164,64384,6,0,P|436:112|376:44,1,140,0|0,0:0|0:0,0:0:0:0:
252,92,65111,2,0,P|264:152|80:220,1,280
208,328,66202,2,0,P|292:328|356:276,1,140
464,236,66929,1,0,0:0:0:0:
404,108,67293,5,0,0:0:0:0:
272,44,67656,2,0,P|252:100|296:188,2,140,0|0|0,0:0|0:0|0:0,0:0:0:0:
432,320,68747,5,0,0:0:0:0:
292,336,69111,2,0,P|224:344|136:312,2,140,0|0|0,0:0|0:0|0:0,0:0:0:0:
264,272,70202,6,0,P|216:252|144:176,1,140
292,176,70929,2,0,L|392:288,1,140
408,112,71656,2,0,P|340:136|260:120,1,140
144,72,72384,1,0,0:0:0:0:
44,172,72747,2,0,P|72:244|152:292,1,140
252,324,73474,6,0,P|300:308|340:208,1,140
364,164,74202,2,0,P|228:152|204:156,2,140,0|0|0,0:0|0:0|0:0,0:0:0:0:
460,264,75293,2,0,P|412:332|348:336,1,140
172,244,76020,6,0,L|324:204,1,140,0|0,0:0|0:0,0:0:0:0:
256,160,76747,2,0,P|264:68|116:100,1,280
164,216,77838,1,0,0:0:0:0:
352,248,78202,2,0,P|384:184|232:88,1,280
356,148,79293,6,0,P|348:108|244:96,1,140,0|0,0:0|0:0,0:0:0:0:
148,160,80020,1,0,0:0:0:0:
248,256,80384,2,0,P|344:304|376:80,1,420
244,176,81838,1,0,0:0:0:0:
304,304,82202,2,0,P|368:268|392:192,1,140
352,88,82929,2,0,L|496:40,1,140,0|0,0:0|0:0,0:0:0:0:
284,108,83656,2,0,L|128:160,1,140,0|0,0:0|0:0,0:0:0:0:
280,204,84384,1,0,0:0:0:0:
312,320,84747,6,0,P|232:304|168:264,1,140
304,208,85474,2,0,P|388:84|444:144,1,280
40,116,86565,1,0,0:0:0:0:
84,264,86929,2,0,P|152:308|224:268,1,140
300,196,87656,6,0,P|360:208|440:176,1,140
300,136,88384,2,0,L|204:116,1,70
336,280,89111,6,0,P|289:287|192:240,1,140
100,164,89838,2,0,P|132:108|156:100,1,70
344,112,90565,2,0,P|256:176|228:180,1,140
44,128,91293,2,0,P|100:68|168:44,1,140
328,80,92020,6,0,P|348:148|340:224,1,140,0|0,0:0|0:0,0:0:0:0:
260,84,92747,2,0,P|252:144|320:184,1,140,0|0,0:0|0:0,0:0:0:0:
324,60,93474,6,0,L|208:172,2,140,0|0|0,0:0|0:0|0:0,0:0:0:0:
232,196,94565,1,0,0:0:0:0:
372,204,94929,2,0,L|472:328,1,140
212,280,95656,2,0,P|136:240|116:160,1,140
168,100,96384,6,0,L|320:112,1,140
176,180,97111,2,0,L|448:80,1,280
312,216,98202,1,0,0:0:0:0:
144,144,98565,2,0,P|244:144|300:168,1,140
372,268,99293,6,0,P|328:284|220:252,1,140,0|0,0:0|0:0,0:0:0:0:
100,236,100020,2,0,L|136:148,1,70
116,168,100747,2,0,L|244:96,1,140,0|0,0:0|0:0,0:0:0:0:
244,240,101474,2,0,L|180:176,1,70
476,40,102202,6,0,L|384:48,1,70,0|0,0:0|0:0,0:0:0:0:
348,120,102747,2,0,P|296:136|188:128,1,140,0|0,0:0|0:0,0:0:0:0:
244,236,103656,1,0,0:0:0:0:
124,168,104020,1,0,0:0:0:0:
40,56,104384,1,0,0:0:0:0:
40,196,104747,2,0,P|44:264|56:284,1,70
244,320,105474,2,0,P|296:284|316:204,1,140
420,116,106202,2,0,P|336:84|328:84,1,70
296,180,106747,2,0,P|256:284|40:280,1,350
148,252,108020,1,0,0:0:0:0:
284,216,108384,6,0,L|400:108,2,140,0|0|0,0:0|0:0|0:0,0:0:0:0:
144,228,109474,2,0,P|72:320|28:340,1,140
52,188,110202,2,0,P|100:136|168:120,1,140
396,160,110929,6,0,P|324:252|100:272,1,350
72,188,112202,1,0,0:0:0:0:
236,180,112565,1,0,0:0:0:0:
132,76,112929,1,0,0:0:0:0:
304,52,113293,1,0,0:0:0:0:
376,176,113838,6,0,P|360:236|272:272,1,140
128,144,114747,2,0,L|28:32,1,140,0|0,0:0|0:0,0:0:0:0:
108,236,115656,2,0,L|252:188,1,140
396,232,116384,1,0,0:0:0:0:
272,296,116747,6,0,P|168:328|116:308,1,140
172,132,117838,1,0,0:0:0:0:
212,72,118202,6,0,P|252:64|356:68,1,140
472,240,118929,1,0,0:0:0:0:
360,152,119293,1,0,0:0:0:0:
340,292,119656,2,0,P|272:312|204:296,1,140
220,156,120384,1,0,0:0:0:0:
96,196,120747,1,0,0:0:0:0:
172,76,121111,2,0,P|252:88|304:144,1,140
332,252,121838,2,0,P|260:292|92:188,1,280
