osu file format v13

[General]
AudioFilename: Itou Kanako - fake me (cut).mp3
AudioLeadIn: 0
PreviewTime: -1
Countdown: 1
SampleSet: Soft
StackLeniency: 0.7
Mode: 0
LetterboxInBreaks: 1
WidescreenStoryboard: 1

[Editor]
Bookmarks: 380,23652,41107,52743,55652,58561,70198
DistanceSpacing: 1.6
BeatDivisor: 4
GridSize: 8
TimelineZoom: 1.9

[Metadata]
Title:fake me (Science Adventure Dance Remix)
TitleUnicode:fake me (Science Adventure Dance Remix)
Artist:Itou Kanako
ArtistUnicode:いとうかなこ
Creator:okdesu
Version:Insane
Source:ChäoS;HEAd NoAH
Tags:
BeatmapID:475288
BeatmapSetID:200553

[Difficulty]
HPDrainRate:7
CircleSize:4
OverallDifficulty:8
ApproachRate:10
SliderMultiplier:1.7
SliderTickRate:2

[Events]
//Background and Video events
0,0,"ChaoS2.jpg",0,0
//Break Periods
//Storyboard Layer 0 (Background)
//Storyboard Layer 1 (Fail)
//Storyboard Layer 2 (Pass)
//Storyboard Layer 3 (Foreground)
//Storyboard Sound Samples
//Background Colour Transformations
3,100,163,162,255

[TimingPoints]
384,363.636363636364,4,2,0,100,1,0
23656,-100,4,2,0,100,0,0
23670,-83.3333333333333,4,2,0,100,0,0
26561,-83.3333333333333,4,2,0,100,0,0
28016,-100,4,2,0,100,0,0
29470,-76.9230769230769,4,2,0,100,0,0
32380,-83.3333333333333,4,2,0,100,0,0
35289,-100,4,2,0,100,0,0
38198,-83.3333333333333,4,2,0,100,0,0
41107,-76.9230769230769,4,2,0,100,0,0
41470,-100,4,2,0,100,0,0
43470,-100,4,2,0,100,0,0
58561,-83.3333333333333,4,2,0,100,0,0
66561,-100,4,2,0,100,0,0
81834,-100,4,2,0,100,0,1
110925,-100,4,2,0,100,0,0

[Colours]
Combo1 : 213,10,32
Combo2 : 163,188,105
Combo3 : 251,224,197
Combo4 : 2,64,121

[HitObjects]
80,176,23656,6,0,P|112:128|232:104,1,170
256,272,24384,6,0,P|312:288|368:248,1,101.999996887207
464,152,24747,1,0,0:0:0:0:
320,72,24929,1,0,0:0:0:0:
152,112,25111,6,0,P|120:184|136:216,1,101.999996887207
240,320,25474,2,0,P|288:344|352:328,1,101.999996887207,8|0,0:0|0:0,0:0:0:0:
440,216,25838,2,0,P|456:160|456:104,2,101.999996887207,0|0|0,0:0|0:0|0:0,0:0:0:0:
280,64,26384,1,0,0:0:0:0:
136,128,26565,6,2,P|152:200|272:248,1,203.999993774414,2|0,0:0|0:0,0:0:0:0:
416,176,27111,1,0,0:0:0:0:
328,72,27293,2,0,P|256:48|216:64,1,101.999996887207
160,200,27656,1,0,0:0:0:0:
224,64,27838,1,0,0:0:0:0:
128,40,28020,6,0,P|72:48|32:96,1,85,2|0,0:0|0:0,0:0:0:0:
192,128,28384,2,0,P|152:144|128:208,1,85,2|0,0:0|0:0,0:0:0:0:
184,304,28747,5,2,0:0:0:0:
312,264,28929,1,0,0:0:0:0:
384,144,29111,1,10,0:0:0:0:
176,56,29293,1,8,0:0:0:0:
176,56,29384,1,0,0:0:0:0:
176,56,29474,2,0,P|104:96|88:160,1,110.499994941712
40,288,29838,1,0,0:0:0:0:
232,312,30020,1,0,0:0:0:0:
376,200,30202,5,0,0:0:0:0:
192,120,30384,1,0,0:0:0:0:
32,40,30565,1,0,0:0:0:0:
32,152,30747,1,0,0:0:0:0:
80,184,30838,1,0,0:0:0:0:
112,200,30929,2,0,P|176:176|176:104,1,110.499994941712,0|0,0:0|0:0,0:0:0:0:
232,32,31293,1,0,0:0:0:0:
280,168,31474,1,0,0:0:0:0:
192,320,31656,1,0,0:0:0:0:
368,336,31838,1,0,0:0:0:0:
352,240,32020,1,0,0:0:0:0:
400,208,32202,1,0,0:0:0:0:
432,168,32384,1,0,0:0:0:0:
408,104,32565,1,0,0:0:0:0:
328,128,32747,1,0,0:0:0:0:
256,96,32929,1,0,0:0:0:0:
176,56,33111,2,0,P|144:112|152:160,1,101.999996887207
48,96,33474,1,0,0:0:0:0:
72,256,33656,1,0,0:0:0:0:
128,288,33838,1,0,0:0:0:0:
272,280,34020,2,0,P|368:320|400:312,1,101.999996887207
432,160,34384,1,0,0:0:0:0:
368,240,34565,1,0,0:0:0:0:
272,208,34747,1,0,0:0:0:0:
352,32,34929,5,8,0:0:0:0:
264,40,35111,1,0,0:0:0:0:
216,80,35202,1,0,0:0:0:0:
184,112,35293,6,0,P|160:184|208:264,1,170
320,192,35838,1,0,0:0:0:0:
424,88,36020,2,0,P|456:128|471:182,1,85
312,168,36384,1,0,0:0:0:0:
416,280,36565,2,0,P|360:320|320:320,1,85
216,288,36929,1,0,0:0:0:0:
152,168,37111,2,0,P|184:112|224:96,1,85,0|0,0:0|0:0,0:0:0:0:
296,152,37474,1,0,0:0:0:0:
160,120,37656,1,0,0:0:0:0:
168,56,37838,1,0,0:0:0:0:
232,64,38020,1,0,0:0:0:0:
272,104,38202,6,0,P|312:120|400:80,1,101.999996887207,2|2,0:0|0:0,0:0:0:0:
464,96,38565,1,0,0:0:0:0:
312,144,38747,1,0,0:0:0:0:
456,216,38929,2,0,P|384:216|344:224,1,101.999996887207
304,240,39293,1,0,0:0:0:0:
176,336,39474,1,0,0:0:0:0:
64,216,39656,2,0,P|56:152|88:104,1,101.999996887207
336,312,40020,2,0,P|272:312|232:288,1,101.999996887207
256,168,40384,1,0,0:0:0:0:
216,136,40565,1,8,0:0:0:0:
400,120,40747,5,2,0:0:0:0:
304,88,40929,1,0,0:0:0:0:
240,48,41111,6,0,P|176:40|96:80,1,110.499994941712
64,168,41474,2,0,P|64:232|80:272,1,85
200,232,41838,1,0,0:0:0:0:
280,48,42020,1,0,0:0:0:0:
152,96,42202,1,0,0:0:0:0:
256,208,42384,1,0,0:0:0:0:
144,280,42565,1,0,0:0:0:0:
272,312,42747,2,0,B|328:304|344:248,1,85,0|2,0:0|0:0,0:0:0:0:
352,112,43111,1,8,0:0:0:0:
208,56,43293,1,2,0:0:0:0:
344,40,43474,1,0,0:0:0:0:
248,136,43656,1,0,0:0:0:0:
344,176,43838,1,0,0:0:0:0:
464,152,44020,5,0,0:0:0:0:
456,232,44202,1,0,0:0:0:0:
440,312,44384,1,2,0:0:0:0:
336,224,44565,1,0,0:0:0:0:
216,328,44747,5,0,0:0:0:0:
160,176,44929,1,0,0:0:0:0:
40,200,45111,1,2,0:0:0:0:
104,296,45293,1,0,0:0:0:0:
256,272,45474,1,0,0:0:0:0:
256,96,45656,1,0,0:0:0:0:
344,200,45838,1,0,0:0:0:0:
472,192,46020,1,0,0:0:0:0:
336,184,46202,5,0,0:0:0:0:
424,288,46384,1,0,0:0:0:0:
336,272,46565,5,2,0:0:0:0:
264,224,46747,1,0,0:0:0:0:
224,176,46838,1,0,0:0:0:0:
192,144,46929,6,0,P|131:97|88:104,1,85,6|0,0:0|0:0,0:0:0:0:
32,136,47293,1,0,0:0:0:0:
56,232,47474,1,0,0:0:0:0:
168,288,47656,2,0,P|232:304|288:304,1,85,0|0,0:0|0:0,0:0:0:0:
384,272,48020,1,0,0:0:0:0:
448,152,48202,1,0,0:0:0:0:
376,40,48384,1,0,0:0:0:0:
288,136,48565,1,0,0:0:0:0:
112,96,48747,1,8,0:0:0:0:
208,216,48929,1,0,0:0:0:0:
296,88,49111,5,8,0:0:0:0:
176,184,49293,1,0,0:0:0:0:
312,248,49474,1,8,0:0:0:0:
432,136,49656,1,0,0:0:0:0:
400,80,49747,1,0,0:0:0:0:
368,48,49838,2,0,P|344:24|280:64,1,85
232,128,50202,1,0,0:0:0:0:
112,64,50384,1,0,0:0:0:0:
144,200,50565,6,0,P|192:232|240:216,1,85,2|0,0:0|0:0,0:0:0:0:
336,168,50929,1,0,0:0:0:0:
232,72,51111,1,0,0:0:0:0:
232,72,51293,2,0,P|184:64|144:112,1,85
88,200,51656,2,0,P|104:256|136:280,1,85
232,192,52020,6,0,P|272:136|312:128,1,85
296,240,52384,2,0,P|295:285|271:333,1,85,2|0,0:0|0:0,0:0:0:0:
240,328,52656,1,0,0:0:0:0:
208,328,52747,1,0,0:0:0:0:
80,280,52929,1,0,0:0:0:0:
320,144,53111,5,0,0:0:0:0:
160,144,53293,1,0,0:0:0:0:
96,296,53474,1,0,0:0:0:0:
200,168,53656,1,0,0:0:0:0:
32,168,53838,1,0,0:0:0:0:
56,320,54020,1,0,0:0:0:0:
184,280,54202,1,0,0:0:0:0:
288,280,54384,1,0,0:0:0:0:
208,120,54565,5,0,0:0:0:0:
352,176,54747,1,0,0:0:0:0:
488,112,54929,1,0,0:0:0:0:
448,256,55111,1,0,0:0:0:0:
336,160,55293,1,0,0:0:0:0:
232,272,55474,1,0,0:0:0:0:
184,272,55565,1,0,0:0:0:0:
144,256,55656,5,6,0:0:0:0:
72,120,55838,1,0,0:0:0:0:
216,48,56020,1,0,0:0:0:0:
280,184,56202,1,0,0:0:0:0:
128,224,56384,5,2,0:0:0:0:
176,80,56565,1,0,0:0:0:0:
320,136,56747,1,0,0:0:0:0:
256,272,56929,1,0,0:0:0:0:
144,168,57111,5,2,0:0:0:0:
224,280,57293,1,0,0:0:0:0:
408,328,57474,5,2,0:0:0:0:
328,216,57656,1,0,0:0:0:0:
400,120,57838,1,0,0:0:0:0:
320,72,58020,1,0,0:0:0:0:
224,80,58202,5,2,0:0:0:0:
176,104,58293,1,0,0:0:0:0:
152,144,58384,1,0,0:0:0:0:
144,192,58474,1,0,0:0:0:0:
160,232,58565,6,0,P|200:264|264:216,1,101.999996887207
312,88,58929,1,0,0:0:0:0:
392,256,59111,1,0,0:0:0:0:
296,104,59293,5,0,0:0:0:0:
464,168,59474,1,0,0:0:0:0:
288,216,59656,1,0,0:0:0:0:
360,48,59838,1,0,0:0:0:0:
416,48,59929,1,0,0:0:0:0:
464,48,60020,6,0,P|472:112|424:168,1,101.999996887207
352,296,60384,1,0,0:0:0:0:
392,120,60565,1,0,0:0:0:0:
200,40,60747,1,0,0:0:0:0:
152,216,60929,1,0,0:0:0:0:
64,56,61111,1,0,0:0:0:0:
64,280,61293,1,0,0:0:0:0:
96,304,61384,1,0,0:0:0:0:
128,328,61474,6,0,P|184:352|240:344,1,101.999996887207
376,296,61838,1,0,0:0:0:0:
224,240,62020,1,0,0:0:0:0:
248,168,62201,2,2,B|376:96,1,101.999996887207
496,144,62565,1,0,0:0:0:0:
432,248,62747,1,0,0:0:0:0:
352,104,62929,2,0,L|264:168,1,101.999996887207
88,272,63293,5,0,0:0:0:0:
208,168,63474,1,0,0:0:0:0:
256,312,63656,1,0,0:0:0:0:
312,224,63838,1,0,0:0:0:0:
296,128,64020,2,0,P|256:80|208:72,1,101.999996887207
160,88,64293,1,0,0:0:0:0:
128,112,64384,6,0,P|136:176|192:216,1,101.999996887207
224,160,64747,1,0,0:0:0:0:
256,344,64929,1,0,0:0:0:0:
312,168,65111,5,0,0:0:0:0:
344,352,65293,1,0,0:0:0:0:
224,240,65474,1,0,0:0:0:0:
144,64,65656,1,0,0:0:0:0:
104,80,65747,1,0,0:0:0:0:
80,104,65838,6,0,P|72:176|96:192,1,101.999996887207
232,48,66202,1,0,0:0:0:0:
288,320,66384,1,0,0:0:0:0:
424,240,66565,2,0,P|416:152|400:128,1,85
304,80,66929,1,0,0:0:0:0:
224,184,67111,1,0,0:0:0:0:
168,120,67293,5,0,0:0:0:0:
56,176,67474,1,0,0:0:0:0:
176,272,67656,1,0,0:0:0:0:
248,136,67838,2,0,P|296:80|336:80,1,85,2|0,0:0|0:0,0:0:0:0:
424,88,68202,1,0,0:0:0:0:
408,240,68384,5,0,0:0:0:0:
256,344,68565,1,0,0:0:0:0:
224,320,68656,1,0,0:0:0:0:
200,280,68747,2,0,P|184:232|200:192,1,85
96,288,68929,1,0,0:0:0:0:
224,200,69111,5,0,0:0:0:0:
104,104,69293,1,0,0:0:0:0:
264,144,69474,1,2,0:0:0:0:
376,40,69656,1,0,0:0:0:0:
296,40,69838,1,0,0:0:0:0:
200,64,70020,1,0,0:0:0:0:
168,88,70111,1,0,0:0:0:0:
144,128,70202,6,0,P|160:178|216:186,1,85,2|2,0:0|0:0,0:0:0:0:
312,144,70565,2,0,P|288:96|248:80,1,85,2|2,0:0|0:0,0:0:0:0:
40,136,70929,5,0,0:0:0:0:
136,40,71111,1,0,0:0:0:0:
184,152,71293,1,0,0:0:0:0:
32,152,71474,1,0,0:0:0:0:
32,208,71565,1,0,0:0:0:0:
48,248,71656,6,0,P|112:240|144:248,1,85
216,320,72020,1,2,0:0:0:0:
280,176,72202,1,0,0:0:0:0:
336,320,72384,1,10,0:0:0:0:
392,176,72565,1,0,0:0:0:0:
456,320,72747,1,0,0:0:0:0:
456,168,72929,1,0,0:0:0:0:
424,80,73111,6,0,P|328:48|304:48,1,85
208,48,73474,2,0,P|144:80|120:96,1,85
160,200,73838,2,0,L|272:152,1,85,0|10,0:0|0:0,0:0:0:0:
360,104,74202,1,0,0:0:0:0:
240,272,74384,1,0,0:0:0:0:
376,200,74565,6,2,L|488:160,1,85,0|0,0:0|0:0,0:0:0:0:
328,120,74929,1,0,0:0:0:0:
128,168,75111,1,0,0:0:0:0:
72,120,75293,6,2,L|184:80,1,85,0|0,0:0|0:0,0:0:0:0:
256,200,75656,5,8,0:0:0:0:
80,248,75838,1,0,0:0:0:0:
48,208,75929,1,0,0:0:0:0:
24,176,76020,6,0,P|96:136|120:136,1,85
288,168,76384,1,0,0:0:0:0:
432,160,76565,1,0,0:0:0:0:
440,312,76747,2,0,P|360:320|328:304,2,85,0|0|0,0:0|0:0|0:0,0:0:0:0:
384,168,77293,1,0,0:0:0:0:
432,128,77384,1,0,0:0:0:0:
448,80,77474,6,0,P|376:64|352:72,1,85
248,192,77838,1,0,0:0:0:0:
144,208,78020,1,0,0:0:0:0:
176,56,78202,2,0,P|104:72|80:104,1,85,2|0,0:0|0:0,0:0:0:0:
48,304,78565,1,2,0:0:0:0:
256,304,78747,1,0,0:0:0:0:
296,288,78838,1,0,0:0:0:0:
336,272,78929,6,0,P|386:270|424:216,1,85,2|8,0:0|0:0,0:0:0:0:
448,112,79293,1,0,0:0:0:0:
256,200,79474,1,0,0:0:0:0:
368,104,79656,2,0,P|352:72|272:64,1,85,8|0,0:0|0:0,0:0:0:0:
152,64,80020,1,0,0:0:0:0:
104,200,80202,1,0,0:0:0:0:
56,344,80384,2,0,P|144:352|168:344,4,85,0|0|0|0|0,0:0|0:0|0:0|0:0|0:0,0:0:0:0:
176,280,81293,1,0,0:0:0:0:
88,144,81474,1,0,0:0:0:0:
216,64,81656,1,0,0:0:0:0:
88,144,81838,6,0,L|208:144,1,85,4|0,0:0|0:0,0:0:0:0:
312,144,82202,1,0,0:0:0:0:
448,120,82384,1,0,0:0:0:0:
408,248,82566,2,0,L|312:248,2,85,0|0|0,0:0|0:0|0:0,0:0:0:0:
280,160,83111,1,0,0:0:0:0:
168,264,83293,5,2,0:0:0:0:
56,160,83475,1,0,0:0:0:0:
56,312,83656,5,2,0:0:0:0:
120,176,83838,1,0,0:0:0:0:
48,40,84020,1,2,0:0:0:0:
120,176,84202,1,0,0:0:0:0:
224,40,84384,2,0,L|328:40,1,85,8|0,0:0|0:0,0:0:0:0:
400,40,84747,6,2,P|424:104|416:152,1,85,0|0,0:0|0:0,0:0:0:0:
440,256,85111,1,0,0:0:0:0:
296,184,85293,1,0,0:0:0:0:
160,112,85475,6,0,P|117:111|77:123,1,85,0|0,0:0|0:0,0:0:0:0:
256,192,85838,1,0,0:0:0:0:
112,280,86020,1,0,0:0:0:0:
72,88,86202,1,2,0:0:0:0:
200,40,86384,1,0,0:0:0:0:
96,288,86566,1,2,0:0:0:0:
120,128,86747,1,0,0:0:0:0:
56,264,86929,5,2,0:0:0:0:
192,192,87111,2,0,P|248:160|272:112,1,85
256,88,87475,1,8,0:0:0:0:
216,56,87566,1,0,0:0:0:0:
168,56,87656,6,0,P|112:80|96:96,1,85,2|2,0:0|0:0,0:0:0:0:
208,168,88020,2,0,P|152:224|136:264,1,85
40,56,88384,1,0,0:0:0:0:
72,184,88565,2,0,P|88:240|128:264,1,85
320,240,88929,1,8,0:0:0:0:
320,240,89020,1,0,0:0:0:0:
320,240,89111,6,0,L|320:128,1,85,2|2,0:0|0:0,0:0:0:0:
448,200,89474,2,0,L|448:104,1,85
224,32,89838,5,0,0:0:0:0:
224,184,90020,2,0,L|224:272,1,85
128,192,90384,1,0,0:0:0:0:
248,88,90566,5,0,0:0:0:0:
328,216,90747,1,0,0:0:0:0:
416,96,90929,1,0,0:0:0:0:
312,312,91111,1,0,0:0:0:0:
224,192,91293,5,2,0:0:0:0:
224,344,91475,1,0,0:0:0:0:
320,248,91656,2,0,P|384:240|424:200,1,85
416,96,92020,1,4,0:0:0:0:
296,184,92202,1,0,0:0:0:0:
448,184,92384,5,0,0:0:0:0:
440,336,92566,2,0,L|328:336,2,85,0|0|0,0:0|0:0|0:0,0:0:0:0:
288,312,93111,2,0,P|248:328|192:328,1,85
168,328,93384,1,0,0:0:0:0:
128,312,93474,5,6,0:0:0:0:
24,200,93656,1,0,0:0:0:0:
144,96,93838,1,0,0:0:0:0:
280,168,94020,1,0,0:0:0:0:
400,264,94202,5,0,0:0:0:0:
248,240,94384,1,0,0:0:0:0:
112,176,94565,1,0,0:0:0:0:
40,40,94747,1,0,0:0:0:0:
168,128,94929,6,0,P|208:160|248:168,1,85
344,80,95293,1,0,0:0:0:0:
352,296,95474,1,0,0:0:0:0:
336,184,95656,2,0,P|288:224|256:232,1,85,0|0,0:0|0:0,0:0:0:0:
464,184,96020,1,0,0:0:0:0:
376,56,96202,1,0,0:0:0:0:
328,40,96293,1,0,0:0:0:0:
280,32,96384,6,2,L|184:32,1,85
40,40,96747,2,2,L|40:144,1,85
192,128,97111,1,2,0:0:0:0:
112,256,97293,1,2,0:0:0:0:
256,200,97474,1,2,0:0:0:0:
192,336,97656,1,0,0:0:0:0:
328,328,97838,2,0,P|392:312|408:296,1,85
344,192,98202,2,0,P|352:136|336:96,1,85
184,48,98565,6,2,P|142:44|88:56,1,85
32,168,98929,2,0,P|64:232|96:248,1,85
104,248,99202,1,0,0:0:0:0:
144,248,99293,6,0,P|168:200|184:160,1,85
224,48,99656,1,0,0:0:0:0:
264,120,99838,1,0,0:0:0:0:
320,192,100020,1,0,0:0:0:0:
320,40,100202,1,0,0:0:0:0:
392,168,100384,1,0,0:0:0:0:
440,32,100565,1,0,0:0:0:0:
456,80,100656,1,0,0:0:0:0:
472,128,100747,6,0,P|480:192|464:224,1,85
384,320,101111,1,0,0:0:0:0:
240,272,101293,1,0,0:0:0:0:
264,120,101474,1,0,0:0:0:0:
128,192,101656,2,0,L|176:88,1,85
32,40,102020,1,0,0:0:0:0:
24,160,102202,5,4,0:0:0:0:
160,328,102384,1,0,0:0:0:0:
160,112,102565,1,0,0:0:0:0:
280,272,102747,6,0,P|328:224|344:192,1,85
280,272,103111,1,0,0:0:0:0:
208,160,103293,1,0,0:0:0:0:
280,272,103474,6,0,P|208:272|184:256,1,85
72,136,103838,1,0,0:0:0:0:
208,64,104020,1,0,0:0:0:0:
360,64,104202,1,0,0:0:0:0:
224,112,104384,1,0,0:0:0:0:
80,192,104565,5,0,0:0:0:0:
232,192,104747,1,8,0:0:0:0:
144,320,104929,1,0,0:0:0:0:
168,328,105020,1,0,0:0:0:0:
208,320,105111,2,0,P|264:296|280:272,1,85
368,144,105474,1,0,0:0:0:0:
256,40,105656,1,0,0:0:0:0:
208,192,105838,1,8,0:0:0:0:
304,328,106020,1,0,0:0:0:0:
312,176,106202,1,2,0:0:0:0:
184,256,106384,5,0,0:0:0:0:
376,240,106565,1,0,0:0:0:0:
424,72,106747,1,0,0:0:0:0:
288,104,106929,1,0,0:0:0:0:
120,136,107111,1,0,0:0:0:0:
304,216,107293,1,0,0:0:0:0:
456,88,107474,5,0,0:0:0:0:
320,168,107656,1,0,0:0:0:0:
168,168,107838,1,0,0:0:0:0:
104,224,108020,1,0,0:0:0:0:
224,240,108202,1,0,0:0:0:0:
136,112,108384,1,0,0:0:0:0:
288,120,108565,1,0,0:0:0:0:
288,120,108656,1,0,0:0:0:0:
288,120,108747,6,0,P|336:72|368:64,1,85
440,160,109111,1,0,0:0:0:0:
208,144,109293,1,0,0:0:0:0:
96,248,109474,5,0,0:0:0:0:
232,192,109656,1,0,0:0:0:0:
240,40,109838,1,0,0:0:0:0:
368,128,110020,1,0,0:0:0:0:
368,280,110202,5,0,0:0:0:0:
368,128,110384,1,0,0:0:0:0:
240,216,110565,5,0,0:0:0:0:
160,200,110747,1,0,0:0:0:0:
136,160,110838,1,0,0:0:0:0:
136,128,110929,6,2,L|248:128,1,85
376,104,111293,2,2,L|312:176,1,85
416,256,111657,6,0,L|320:256,2,85,2|2|2,0:0|0:0|0:0,0:0:0:0:
296,168,112202,1,0,0:0:0:0:
208,256,112384,2,0,P|168:296|128:280,1,85
24,208,112747,1,0,0:0:0:0:
208,176,112929,1,0,0:0:0:0:
88,120,113111,5,2,0:0:0:0:
192,120,113293,1,0,0:0:0:0:
64,48,113475,1,2,0:0:0:0:
216,48,113657,1,0,0:0:0:0:
272,48,113747,1,0,0:0:0:0:
312,40,113838,6,2,P|352:96|352:136,1,85,2|2,0:0|0:0,0:0:0:0:
384,240,114202,2,0,P|328:256|272:240,1,85
296,320,114566,6,0,P|344:320|408:288,2,85,0|8|0,0:0|0:0|0:0,0:0:0:0:
144,312,115111,1,0,0:0:0:0:
72,248,115293,6,0,P|152:208|160:200,1,85,0|0,0:0|0:0,0:0:0:0:
104,112,115657,1,2,0:0:0:0:
224,56,115838,1,0,0:0:0:0:
264,192,116020,5,2,0:0:0:0:
400,104,116202,1,0,0:0:0:0:
352,280,116384,1,0,0:0:0:0:
96,256,116565,1,0,0:0:0:0:
96,256,116657,1,0,0:0:0:0:
96,256,116747,6,0,L|112:144,1,85,2|2,0:0|0:0,0:0:0:0:
248,160,117111,6,0,L|264:48,1,85,2|2,0:0|0:0,0:0:0:0:
184,40,117475,5,0,0:0:0:0:
208,192,117657,1,0,0:0:0:0:
304,72,117838,1,0,0:0:0:0:
336,224,118020,1,0,0:0:0:0:
336,224,118111,1,0,0:0:0:0:
336,224,118202,6,0,L|336:112,1,85,2|2,0:0|0:0,0:0:0:0:
456,200,118565,2,0,L|456:88,1,85,2|2,0:0|0:0,0:0:0:0:
320,80,118929,5,0,0:0:0:0:
216,192,119111,1,0,0:0:0:0:
128,200,119293,1,0,0:0:0:0:
64,160,119475,1,0,0:0:0:0:
64,88,119657,5,0,0:0:0:0:
128,80,119838,1,0,0:0:0:0:
160,112,120020,5,0,0:0:0:0:
208,88,120202,1,0,0:0:0:0:
256,56,120384,1,0,0:0:0:0:
408,64,120566,1,0,0:0:0:0:
328,176,120747,2,0,P|376:208|416:200,1,85
488,96,121111,1,0,0:0:0:0:
480,304,121293,1,0,0:0:0:0:
392,208,121474,1,0,0:0:0:0:
344,328,121657,2,0,L|232:328,2,85,0|0|0,0:0|0:0|0:0,0:0:0:0:
160,240,122202,5,0,0:0:0:0:
80,208,122384,1,8,0:0:0:0:
120,224,122474,1,0,0:0:0:0:
160,240,122565,6,4,L|240:144,1,85
288,56,122929,1,0,0:0:0:0:
424,112,123111,1,0,0:0:0:0:
272,112,123293,5,0,0:0:0:0:
328,232,123475,1,0,0:0:0:0:
176,224,123656,1,0,0:0:0:0:
328,192,123838,1,0,0:0:0:0:
280,176,124020,5,0,0:0:0:0:
296,248,124202,1,0,0:0:0:0:
152,192,124384,1,0,0:0:0:0:
280,112,124565,1,0,0:0:0:0:
224,256,124747,5,2,0:0:0:0:
376,232,124929,1,0,0:0:0:0:
248,152,125111,1,2,0:0:0:0:
96,128,125293,1,0,0:0:0:0:
96,128,125384,1,0,0:0:0:0:
96,128,125474,6,0,P|160:64|176:64,1,85,4|0,0:0|0:0,0:0:0:0:
304,64,125838,1,0,0:0:0:0:
150,64,126020,1,0,0:0:0:0:
248,208,126202,5,0,0:0:0:0:
104,168,126384,1,0,0:0:0:0:
40,32,126565,1,0,0:0:0:0:
192,40,126747,1,0,0:0:0:0:
256,40,126929,5,2,0:0:0:0:
368,144,127111,1,0,0:0:0:0:
368,144,127293,1,0,0:0:0:0:
240,232,127474,1,0,0:0:0:0:
240,232,127656,5,2,0:0:0:0:
104,304,127838,1,0,0:0:0:0:
144,152,128020,1,0,0:0:0:0:
240,272,128202,1,0,0:0:0:0:
288,264,128293,1,0,0:0:0:0:
328,248,128384,6,0,P|296:168|288:160,1,85
152,112,128747,1,8,0:0:0:0:
128,296,128929,1,0,0:0:0:0:
296,192,129111,5,0,0:0:0:0:
296,328,129293,1,0,0:0:0:0:
296,192,129474,1,0,0:0:0:0:
448,232,129656,1,0,0:0:0:0:
448,200,129747,1,0,0:0:0:0:
456,168,129838,6,0,P|440:96|424:80,1,85
304,32,130202,1,8,0:0:0:0:
216,128,130384,1,0,0:0:0:0:
80,128,130565,1,0,0:0:0:0:
184,32,130747,1,0,0:0:0:0:
120,176,130929,1,0,0:0:0:0:
288,192,131111,1,0,0:0:0:0:
288,192,131202,1,0,0:0:0:0:
288,192,131293,5,0,0:0:0:0:
288,192,131474,1,8,0:0:0:0:
288,192,131565,1,0,0:0:0:0:
288,192,131656,1,0,0:0:0:0:
288,192,131747,1,0,0:0:0:0:
288,192,131838,1,8,0:0:0:0:
288,192,131929,1,0,0:0:0:0:
240,224,132020,2,0,P|192:224|152:200,1,85,2|2,0:0|0:0,0:0:0:0:
264,120,132384,2,0,P|296:72|392:128,2,170,0|0|0,0:0|0:0|0:0,0:0:0:0:
256,192,133202,12,0,134384,0:0:0:0:
