osu file format v9

[General]
AudioFilename: sora no mukou de sakimasu youni.mp3
AudioLeadIn: 0
PreviewTime: 57835
Countdown: 0
SampleSet: Soft
StackLeniency: 0.7
Mode: 0
LetterboxInBreaks: 0

[Editor]
DistanceSpacing: 1.5
BeatDivisor: 4
GridSize: 4

[Metadata]
Title:The Moon is Not Alone (Short Ver.)
Artist:Itou Kanako
Creator:Hinacle
Version:cRyo
Source:Sora no Mukou de Sakimasu Youni
Tags:akatsuki works cRyo[iceeicee] Kiiwa opening

[Difficulty]
HPDrainRate:6
CircleSize:4
OverallDifficulty:6
ApproachRate:8
SliderMultiplier:1.6
SliderTickRate:2

[Events]
//Background and Video events
Video,0,"op.flv"
0,0,"BG.jpg"
//Break Periods
//Storyboard Layer 0 (Background)
//Storyboard Layer 1 (Fail)
//Storyboard Layer 2 (Pass)
//Storyboard Layer 3 (Foreground)
//Storyboard Sound Samples
//Background Colour Transformations
3,100,163,162,255

[TimingPoints]
1148,368.098159509202,4,2,1,60,1,0
4092,-133.333333333333,4,1,2,30,0,0
4184,-133.333333333333,4,2,0,40,0,0
4552,-133.333333333333,4,2,0,40,0,0
4736,-133.333333333333,4,2,2,40,0,0
5289,-133.333333333333,4,2,1,40,0,0
5473,-133.333333333333,4,2,2,40,0,0
5657,-133.333333333333,4,2,0,40,0,0
5841,-133.333333333333,4,2,2,45,0,0
6025,-133.333333333333,4,2,0,40,0,0
6209,-133.333333333333,4,2,2,40,0,0
6945,-133.333333333333,4,1,2,30,0,0
7129,-133.333333333333,4,2,2,40,0,0
7313,-133.333333333333,4,2,2,50,0,0
7497,-133.333333333333,4,2,0,40,0,0
7681,-133.333333333333,4,2,2,40,0,0
8049,-133.333333333333,4,2,0,40,0,0
8233,-133.333333333333,4,2,2,40,0,0
8601,-133.333333333333,4,2,0,40,0,0
8786,-133.333333333333,4,2,0,50,0,0
8970,-133.333333333333,4,2,2,45,0,0
9154,-100,4,1,0,70,0,0
9522,-100,4,1,0,40,0,0
9982,-100,4,1,1,45,0,0
12835,-100,4,2,2,45,0,0
12973,-100,4,1,1,45,0,0
13387,-100,4,2,2,45,0,0
13525,-100,4,1,1,45,0,0
14123,-100,4,2,2,45,0,0
14261,-100,4,1,1,45,0,0
14675,-100,4,2,2,45,0,0
14813,-100,4,1,1,45,0,0
15595,-100,4,1,1,43,0,0
16147,-100,4,1,1,46,0,0
16332,-100,4,1,1,49,0,0
16516,-100,4,1,1,55,0,0
16700,-100,4,1,1,60,0,0
16884,-100,4,1,1,65,0,0
17068,-100,4,1,1,70,0,0
17252,-100,4,1,1,45,0,0
18816,-133.333333333333,4,2,2,40,0,0
18908,-133.333333333333,4,2,2,60,0,0
19092,-133.333333333333,4,1,0,40,0,0
19276,-133.333333333333,4,2,0,40,0,0
19460,-133.333333333333,4,2,2,40,0,0
19828,-133.333333333333,4,1,0,40,0,0
20013,-133.333333333333,4,2,2,40,0,0
20381,-133.333333333333,4,2,0,40,0,0
20565,-133.333333333333,4,1,0,40,0,0
20749,-133.333333333333,4,2,2,40,0,0
20933,-133.333333333333,4,2,2,40,0,0
21117,-133.333333333333,4,2,0,40,0,0
21301,-133.333333333333,4,2,2,40,0,0
21485,-133.333333333333,4,2,2,40,0,0
21669,-133.333333333333,4,2,2,40,0,0
22037,-133.333333333333,4,1,0,40,0,0
22221,-133.333333333333,4,2,2,40,0,0
22589,-133.333333333333,4,2,0,40,0,0
22773,-133.333333333333,4,1,0,40,0,0
22957,-133.333333333333,4,2,2,40,0,0
23509,-133.333333333333,4,1,0,40,0,0
23694,-133.333333333333,4,2,2,40,0,0
24246,-133.333333333333,4,1,0,40,0,0
24430,-133.333333333333,4,2,2,40,0,0
24982,-133.333333333333,4,1,0,40,0,0
25166,-133.333333333333,4,2,0,40,0,0
25350,-133.333333333333,4,2,2,40,0,0
25718,-133.333333333333,4,1,0,40,0,0
25902,-133.333333333333,4,2,2,40,0,0
26454,-133.333333333333,4,1,0,40,0,0
26638,-133.333333333333,4,2,2,40,0,0
27236,-133.333333333333,4,1,0,40,0,0
27374,-133.333333333333,4,2,2,40,0,0
27559,-133.333333333333,4,2,0,50,0,0
27743,-133.333333333333,4,2,2,40,0,0
28479,-133.333333333333,4,2,0,60,0,0
28663,-100,4,2,2,50,0,0
28847,-80,4,1,1,55,0,0
29215,-100,4,2,0,50,0,0
29399,-80,4,1,1,55,0,0
29767,-100,4,2,0,60,0,0
29951,-80,4,1,1,55,0,0
30595,-100,4,2,2,70,0,0
30871,-100,4,1,0,60,0,0
31055,-100,4,1,0,40,0,0
31332,-100,4,2,0,50,0,0
31608,-100,4,2,0,40,0,0
31792,-100,4,1,0,60,0,0
31976,-100,4,2,2,70,0,0
32344,-100,4,1,0,60,0,0
32528,-100,4,1,0,40,0,0
32896,-100,4,2,0,60,0,0
33080,-100,4,1,0,60,0,0
33264,-100,4,2,2,50,0,0
33448,-100,4,2,2,60,0,0
33816,-100,4,1,0,60,0,0
34000,-100,4,1,0,40,0,0
34368,-100,4,2,0,60,0,0
34552,-100,4,2,2,70,0,0
34736,-100,4,1,0,60,0,0
34921,-100,4,2,2,70,0,0
35289,-100,4,1,0,60,0,0
35473,-100,4,1,0,40,0,0
35841,-100,4,2,0,60,0,0
36025,-100,4,1,0,60,0,0
36209,-100,4,2,2,70,0,0
36761,-100,4,1,0,60,0,0
36945,-100,4,1,0,40,0,0
37313,-100,4,2,0,60,0,0
37497,-100,4,2,0,50,0,0
37681,-100,4,1,0,60,0,0
37865,-100,4,2,2,70,0,0
38049,-100,4,2,0,60,0,0
38233,-100,4,1,0,60,0,0
38417,-100,4,1,0,40,0,0
38786,-100,4,2,2,70,0,0
38970,-100,4,1,0,60,0,0
39154,-100,4,2,2,65,0,0
39706,-100,4,1,0,60,0,0
39890,-100,4,1,0,40,0,0
40258,-100,4,2,2,60,0,0
40442,-100,4,1,0,30,0,0
40626,-100,4,1,0,50,0,0
40810,-100,4,2,2,70,0,0
41178,-80,4,1,0,60,0,0
41454,-100,4,2,2,70,0,0
41546,-100,4,1,0,75,0,0
41730,-100,4,1,0,45,0,0
46516,-100,4,1,0,50,0,0
46700,-100,4,1,0,45,0,0
47068,-80,4,1,0,60,0,0
47252,-100,4,1,0,45,0,0
47436,-100,4,1,0,75,0,0
47620,-100,4,1,0,45,0,0
47896,-100,4,1,0,45,0,0
51853,-100,4,1,0,45,0,0
52037,-100,4,2,0,50,0,0
52221,-100,4,1,0,45,0,0
52405,-100,4,2,2,55,0,0
52957,-100,4,1,0,45,0,0
55350,-100,4,1,0,50,0,0
55534,-100,4,1,0,45,0,0
56270,-100,4,1,0,50,0,0
56638,-100,4,1,0,60,0,0
57835,-100,4,2,2,80,0,0
58111,-100,4,1,0,40,0,0
58571,-100,4,1,1,45,0,1
64552,-100,4,2,0,45,0,1
64736,-100,4,1,0,40,0,1
65013,-100,4,1,1,45,0,1
66209,-100,4,1,0,40,0,1
66393,-100,4,1,1,45,0,1
66761,-100,4,2,0,45,0,1
66945,-100,4,1,0,35,0,1
67129,-100,4,1,1,45,0,1
68233,-100,4,2,0,45,0,1
68417,-100,4,1,1,45,0,1
68786,-100,4,1,1,60,0,1
68970,-100,4,1,1,45,0,1
69338,-100,4,1,1,60,0,1
69522,-100,4,1,1,45,0,1
69890,-100,4,1,1,65,0,1
70074,-100,4,1,1,45,0,1
76332,-100,4,2,0,45,0,1
76516,-100,4,1,0,33,0,1
76700,-100,4,1,0,45,0,1
77252,-100,4,1,1,45,0,1
77436,-100,4,1,0,45,0,1
77988,-100,4,1,0,40,0,1
78172,-100,4,1,0,45,0,1
78540,-100,4,2,0,45,0,1
78724,-100,4,1,0,35,0,1
78908,-100,4,1,1,45,0,1
80381,-100,4,1,1,55,0,1
80749,-100,4,2,0,45,0,1
80933,-100,4,1,1,45,0,1
84982,-100,4,1,1,33,0,1
85166,-100,4,1,1,36,0,1
85350,-100,4,1,1,39,0,1
85534,-100,4,1,1,42,0,1
85718,-100,4,1,1,47,0,1
85902,-100,4,1,1,52,0,1
86086,-100,4,1,1,57,0,1
86270,-100,4,1,1,62,0,1
86454,-100,4,1,1,52,0,1
86638,-100,4,2,0,5,0,1
88019,-133.333333333333,4,1,2,30,0,0
88111,-133.333333333333,4,2,2,40,0,0
88479,-133.333333333333,4,2,0,40,0,0
88663,-133.333333333333,4,2,2,40,0,0
89123,-133.333333333333,4,2,0,40,0,0
89215,-133.333333333333,4,2,2,40,0,0
89583,-133.333333333333,4,2,0,40,0,0
89767,-133.333333333333,4,2,2,40,0,0
89951,-133.333333333333,4,2,0,40,0,0
90135,-133.333333333333,4,2,2,50,0,0
90319,-133.333333333333,4,2,0,40,0,0
90503,-133.333333333333,4,2,2,50,0,0
90871,-133.333333333333,4,1,2,30,0,0
91055,-133.333333333333,4,2,2,40,0,0
91424,-133.333333333333,4,2,0,40,0,0
91608,-133.333333333333,4,2,0,45,0,0
91976,-133.333333333333,4,2,2,40,0,0
92160,-133.333333333333,4,2,0,50,0,0
92528,-133.333333333333,4,2,2,50,0,0
92712,-133.333333333333,4,2,0,55,0,0
93172,-100,4,1,0,60,0,0
93448,-100,4,1,0,40,0,0
93908,-100,4,1,0,45,0,0
96761,-100,4,2,2,45,0,0
96899,-100,4,1,0,45,0,0
97313,-100,4,2,2,45,0,0
97451,-100,4,1,0,45,0,0
98049,-100,4,2,2,45,0,0
98187,-100,4,1,0,45,0,0
98601,-100,4,2,2,45,0,0
98740,-100,4,1,0,45,0,0
99706,-100,4,1,0,35,0,0
99890,-100,4,1,0,40,0,0
100074,-100,4,1,0,45,0,0
100258,-100,4,1,0,50,0,0
100442,-100,4,1,0,55,0,0
100626,-100,4,1,0,60,0,0
100810,-100,4,1,0,65,0,0
100994,-100,4,1,0,70,0,0
101178,-100,4,1,1,45,0,0
102835,-100,4,2,0,45,0,0
103019,-100,4,1,0,45,0,0
103203,-100,4,2,0,45,0,0
103387,-100,4,1,0,45,0,0
103571,-100,4,2,0,45,0,0
103755,-100,4,1,0,45,0,0
103939,-100,4,1,0,45,0,0
104123,-100,4,2,2,75,0,0
104491,-100,4,1,0,45,0,0
104675,-100,4,2,2,75,0,0
105227,-100,4,2,0,70,0,0
105411,-100,4,2,2,85,0,0
105595,-100,4,2,0,5,0,0

[Colours]
Combo1 : 238,166,253
Combo2 : 241,201,133
Combo3 : 115,211,253
Combo4 : 197,252,152

[HitObjects]
68,152,4092,1,4
128,92,4276,1,0
208,72,4460,1,0
288,96,4644,2,0,B|348:108|399:65,1,119.999996423721,2|0
256,188,5197,2,0,B|195:175|144:218,1,119.999996423721,2|8
115,339,5749,6,0,B|92:284,1,59.9999982118607,2|8
68,204,6117,2,0,B|80:143|37:92,1,119.999996423721,2|0
100,36,6669,1,2
316,112,7037,6,0,B|255:99|204:142,1,119.999996423721,4|8
196,272,7589,2,0,B|256:284|307:241,1,119.999996423721,2|0
364,180,8141,1,8
440,140,8325,1,2
440,140,8694,6,0,B|448:108|448:68,1,59.9999982118607,0|8
304,56,9062,1,2
304,56,9246,2,0,B|288:92|292:136,2,80,0|0|8
116,228,9982,6,0,B|76:228|32:204,2,80,6|0|2
196,192,10534,2,2,B|280:169|342:231,1,160,0|2
448,232,11086,1,2
468,128,11270,2,2,B|383:150|321:88,1,160,0|2
220,68,11822,1,2
180,164,12006,2,2,B|264:141|326:203,1,160,0|2
448,232,12559,2,2,B|416:264|364:268,1,80,0|2
288,348,12927,6,2,B|203:370|141:308,1,160,2|2
85,216,13479,2,2,B|169:193|232:256,1,160,2|2
316,280,14031,1,2
392,236,14215,2,2,B|348:160|392:84,1,160,2|2
256,28,14767,2,2,B|299:103|256:179,1,160,2|0
240,284,15319,2,0,B|256:332,2,40
136,296,15687,5,0
136,296,15779,1,0
136,296,15871,2,0,B|112:260|104:216,1,80,4|4
71,143,16240,1,4
123,72,16424,1,4
158,153,16608,1,4
105,223,16792,5,4
36,62,16976,1,4
211,83,17160,1,4
256,192,17344,12,4,18448
144,136,18816,6,0,B|194:93|255:105,1,119.999996423721,4|0
328,148,19368,2,0,B|356:214,1,59.9999982118607,2|8
473,262,19736,2,0,B|414:249,1,59.9999982118607
309,332,20105,2,0,B|341:281,1,59.9999982118607,2|8
328,148,20473,5,2
256,100,20657,1,0
172,88,20841,1,2
184,236,21209,5,2
256,284,21393,1,8
340,296,21577,1,2
420,272,21761,2,0,B|445:326,1,59.9999982118607,4|0
452,196,22129,6,0,B|477:141,2,59.9999982118607,0|0|8
384,148,22681,2,0,B|356:72,1,59.9999982118607,2|0
260,43,23049,2,0,B|280:99,1,59.9999982118607,2|8
233,202,23417,2,0,B|205:126,1,59.9999982118607,0|0
110,98,23786,2,0,B|130:154,1,59.9999982118607,2|8
108,236,24154,1,0
108,236,24338,1,0
408,292,24706,6,0,B|357:334|296:322,1,119.999996423721,4|0
157,310,25258,2,0,B|216:296,1,59.9999982118607,2|8
280,240,25626,1,0
240,164,25810,1,0
168,208,25994,6,0,B|108:211,1,59.9999982118607,2|8
239,164,26362,2,0,B|299:160,1,59.9999982118607,0|0
172,112,26730,2,0,B|112:115,1,59.9999982118607,2|8
224,48,27098,1,0
224,48,27190,1,0
224,48,27282,2,0,B|283:44,1,59.9999982118607,0|0
444,108,27651,5,2
420,188,27835,1,0
336,172,28019,1,8
352,88,28203,1,2
348,256,28571,5,2
208,332,28755,1,8
72,244,28939,1,0
72,244,29031,1,0
72,244,29123,6,0,B|120:264|188:248,1,99.9999985098839,4|0
256,192,29491,1,0
440,140,29675,2,0,B|392:120|324:136,1,99.9999985098839,4|0
208,44,30043,1,0
208,44,30135,1,0
208,44,30227,1,4
32,160,30595,6,0,B|93:97|178:120,1,160,4|0
256,164,31147,2,0,B|320:140,2,40
188,220,31516,1,2
228,300,31700,1,8
312,332,31884,2,0,B|396:354|458:292,1,160,0|0
464,204,32436,1,0
420,128,32620,2,0,B|440:84,2,40
336,108,32988,5,2
252,132,33172,1,0
168,108,33356,2,0,B|132:88|92:84,2,80,2|0|0
168,212,33908,1,0
92,284,34092,1,0
92,284,34184,1,0
92,284,34276,2,0,B|49:296|15:330,2,80,0|2|0
204,332,34828,6,0,B|288:354|350:292,1,160,0|0
456,304,35381,1,0
468,200,35565,2,0,B|508:180,2,40
400,124,35933,1,2
400,124,36117,2,0,B|365:144|323:140,1,80,0|0
116,136,36485,6,0,B|177:73|262:96,1,160,4|0
340,60,37037,2,0,B|372:32,2,40
400,124,37405,1,2
444,200,37589,1,8
408,280,37773,2,0,B|347:343|262:320,1,160,0|0
192,224,38325,1,0
96,260,38509,1,0
96,260,38601,1,0
96,260,38694,2,0,B|64:284|48:324,2,80
88,108,39430,6,0,B|148:72|188:156|272:88,1,160,2|0
320,64,39982,2,0,B|360:40,2,40
364,140,40350,1,2
352,228,40534,1,8
300,300,40718,2,0,B|233:357|151:327,1,160,4|0
24,224,41270,6,0,B|65:199|125:197,1,99.9999985098839,4|0
256,156,41638,1,4
92,320,41822,1,2
92,320,42190,6,0,B|174:350|241:292,1,160,6|0
328,316,42743,1,8
412,292,42927,2,0,B|456:336,2,40
440,208,43295,5,0
408,128,43479,1,8
336,76,43663,2,0,B|253:106|186:48,1,160,6|0
104,76,44215,1,8
56,152,44399,2,0,B|0:168,2,40
96,232,44767,5,0
172,276,44951,1,8
256,252,45135,2,0,B|338:221|405:279,1,160,6|0
256,132,45687,2,0,B|173:162|106:104,2,160,8|2|8
440,120,46608,2,0,B|468:196|452:300,1,160,6|2
220,316,47160,6,0,B|269:301|325:305,1,99.9999985098839,4|2
456,352,47528,1,4
256,228,47712,1,2
256,228,48080,6,0,B|173:258|106:200,1,160,6|0
52,132,48632,1,8
80,48,48816,2,0,B|24:20,2,40
168,56,49184,5,0
240,104,49368,1,8
256,192,49552,2,0,B|211:268|256:343,1,160,6|0
172,368,50105,1,8
92,332,50289,1,0
92,332,50381,1,0
92,332,50473,1,0
92,244,50657,6,0,B|132:248|196:216,1,80,0|8
344,184,51025,2,0,B|282:120|198:144,1,160,6|0
84,84,51577,1,8
84,84,51945,5,0
164,48,52129,1,2
252,60,52313,1,0
324,108,52497,2,0,B|408:132|470:69,1,160,2|0
372,196,53049,6,0,B|260:212,1,80,2|0
140,264,53417,2,0,B|220:253,1,80,2|0
376,320,53786,2,0,B|312:296|244:340,1,120,2|0
220,352,54154,2,0,B|135:376|73:313,1,160,6|6
52,228,54706,5,0
124,152,54890,1,6
60,72,55074,1,2
124,152,55258,1,0
216,100,55442,2,0,B|300:75|362:138,1,160,6|0
380,232,55994,6,0,B|388:272|380:312,1,80,2|0
288,288,56362,2,0,B|278:327|254:360,1,80,2|0
180,300,56730,2,0,B|154:331|118:351,1,80,0|2
256,192,57098,12,2,57835
256,64,58203,5,12
24,200,58571,6,0,B|64:204|100:220,1,80,6|0
184,192,58939,2,0,B|220:208|260:212,1,80,10|0
336,256,59307,1,2
440,248,59491,1,2
484,156,59675,1,8
405,88,59859,6,0,B|336:31|255:64,1,160,2|2
180,136,60411,1,8
84,96,60595,2,0,B|52:60,2,40,2|0|0
92,200,60963,2,0,B|57:220|15:219,1,80,2|8
152,264,61332,5,2
152,264,61516,2,0,B|187:244|228:245,1,80,2|0
356,308,61884,2,0,B|320:327|279:326,1,80,10|0
192,348,62252,1,2
92,320,62436,1,2
84,216,62620,1,8
140,128,62804,6,0,B|176:132|220:120,1,80,2|0
371,47,63172,2,0,B|336:44|292:55,1,80,2|8
304,164,63540,1,2
304,164,63632,1,0
304,164,63724,2,0,B|339:167|383:156,2,80,0|0|10
104,216,64276,2,0,B|172:272|253:239,1,160,6|0
372,304,64828,1,8
372,304,65197,5,0
424,232,65381,1,0
372,160,65565,2,0,B|360:120|376:72,1,80,10|0
256,40,65933,2,0,B|301:115|256:191,1,160,6|8
140,148,66485,2,0,B|94:224|140:299,1,160,2|0
232,348,67037,1,8
328,308,67221,5,0
328,308,67313,1,0
328,308,67405,2,0,B|364:308|412:320,2,80,6|0|8
129,274,67957,2,0,B|191:211|276:236,1,160,6|0
416,192,68509,5,10
256,36,68878,1,6
96,192,69246,1,0
96,192,69430,1,6
256,348,69798,1,0
256,348,69982,2,0,B|316:364|392:320,1,120,6|0
392,292,70350,6,0,B|412:208,1,80,6|0
366,74,70718,2,0,B|348:152,1,80,10|0
312,232,71086,1,2
312,232,71270,2,0,B|224:240,1,80,2|8
48,196,71638,6,0,B|127:188,1,80,2|0
168,332,72006,2,0,B|160:244,1,80,2|8
196,92,72374,2,0,B|204:180,1,80,2|0
260,240,72743,2,0,B|268:304,2,40,2|0|8
328,92,73111,5,2
412,68,73295,1,2
484,116,73479,1,0
472,204,73663,2,0,B|456:300,1,80,10|0
372,268,74031,2,0,B|356:364,2,80,2|2|8
296,168,74583,6,0,B|256:180|216:174,1,80,2|0
76,248,74951,2,0,B|115:236|155:241,1,80,2|8
303,289,75319,2,0,B|263:301|224:296,1,80,2|0
128,340,75687,5,2
76,248,75871,1,10
100,148,76055,2,0,B|161:84|246:109,1,160,6|0
360,184,76608,1,8
360,184,76976,5,0
396,264,77160,1,0
352,340,77344,1,8
264,356,77528,2,0,B|202:292|117:317,1,160,2|2
44,184,78080,1,8
44,184,78264,2,0,B|105:247|190:222,1,160,2|0
284,176,78816,1,8
368,236,79000,5,0
368,236,79092,1,0
368,236,79184,2,0,B|404:256|464:256,1,80,6|0
284,176,79552,2,0,B|248:156|188:156,1,80,10|0
44,184,79921,2,0,B|79:203|120:203,2,80,6|2|8
41,62,80473,6,0,B|127:37|188:100,1,160,6|0
288,120,81025,1,8
380,168,81209,1,0
396,180,81301,1,0
412,188,81393,2,0,B|464:204,3,40
468,204,81761,2,0,B|520:204,4,40,0|0|0|0|4
256,192,82313,12,0,84706
228,112,85074,5,4
336,165,85258,1,4
283,272,85442,1,4
175,220,85626,1,4
336,232,85810,6,4,B|415:221,1,80,4|0
176,152,86178,2,4,B|96:162,2,80,4|4|0
256,192,86730,12,0,87651
384,328,88019,6,0,B|334:285|273:297,1,119.999996423721,4|0
192,320,88571,1,2
192,320,88939,6,0,B|164:252,1,59.9999982118607,0|2
16,172,89307,2,0,B|77:159|127:202,1,119.999996423721,2|0
208,188,89859,1,8
256,120,90043,1,2
256,324,90411,1,2
256,324,90595,1,2
448,112,90963,6,0,B|386:99|336:142,1,119.999996423721,4|0
256,120,91516,1,2
116,308,91884,2,0,B|175:301,1,59.9999982118607,2|8
256,324,92252,2,0,B|309:285|369:302,2,119.999996423721,2|2|2
116,308,93172,5,0
24,228,93356,1,0
96,132,93540,1,8
388,188,93908,6,0,B|428:172|500:172,2,80,6|0|2
320,244,94460,2,2,B|239:279|168:227,1,160,0|2
96,132,95013,1,2
96,132,95197,2,2,B|176:96|247:148,1,160,0|2
388,52,95749,1,2
388,52,95933,2,2,B|307:87|236:35,1,160,0|2
196,112,96485,2,2,B|156:108|118:127,1,80,0|2
104,248,96853,6,2,B|186:277|253:220,1,160,2|2
356,316,97405,2,2,B|273:286|206:343,1,160,2|2
112,340,97957,1,2
104,248,98141,2,2,B|146:172|104:95,1,160,2|2
256,40,98694,2,2,B|213:115|255:192,2,160,2|0|0
256,284,99798,6,4,B|260:324|288:376,1,80
352,244,100166,2,4,B|348:204|320:152,1,80
160,140,100534,2,4,B|164:180|192:232,1,80
256,100,100902,2,4,B|252:60|224:8,1,80
256,192,101270,12,0,102374
470,316,102743,6,0,B|496:223,1,80,0|2
454,111,103111,2,0,B|431:187,1,80
332,276,103479,2,0,B|358:183,1,80,0|2
316,72,103847,2,0,B|293:148,1,80
228,252,104215,6,0,B|142:272|80:212,1,160,2|0
16,112,104767,2,0,B|101:91|163:151,1,160,2|0
256,192,105319,1,2
256,192,105503,1,2
