osu file format v9

[General]
AudioFilename: sora no mukou de sakimasu youni.mp3
AudioLeadIn: 0
PreviewTime: 57835
Countdown: 0
SampleSet: Soft
StackLeniency: 0.7
Mode: 0
LetterboxInBreaks: 0

[Editor]
DistanceSpacing: 1
BeatDivisor: 4
GridSize: 4

[Metadata]
Title:The Moon is Not Alone (Short Ver.)
Artist:Itou Kanako
Creator:Hinacle
Version:Normal
Source:Sora no Mukou de Sakimasu Youni
Tags:akatsuki works cRyo[iceeicee] Kiiwa opening

[Difficulty]
HPDrainRate:3
CircleSize:4
OverallDifficulty:3
ApproachRate:4
SliderMultiplier:0.6
SliderTickRate:2

[Events]
//Background and Video events
Video,0,"op.flv"
0,0,"BG.jpg"
//Break Periods
//Storyboard Layer 0 (Background)
//Storyboard Layer 1 (Fail)
//Storyboard Layer 2 (Pass)
//Storyboard Layer 3 (Foreground)
//Storyboard Sound Samples
//Background Colour Transformations
3,100,163,162,255

[TimingPoints]
1148,368.098159509202,4,2,1,60,1,0
4092,-50,4,2,2,60,0,0
9982,-50,4,1,1,50,0,0
15871,-50,4,1,1,60,0,0
18816,-50,4,2,2,60,0,0
30227,-50,4,2,1,60,0,0
30595,-50,4,2,2,50,0,0
30687,-50,4,1,1,50,0,0
42006,-50,4,1,1,60,0,0
56914,-50,4,2,2,70,0,0
57835,-50,4,2,1,60,0,0
58571,-50,4,1,1,70,0,1
82129,-50,4,1,1,50,0,1
85074,-50,4,1,1,60,0,1
86546,-50,4,2,1,60,0,1
88019,-50,4,2,2,70,0,0
93908,-50,4,1,1,60,0,0
101454,-50,4,2,1,60,0,0
102374,-50,4,1,1,60,0,0
105503,-50,4,2,2,60,0,0

[Colours]
Combo1 : 238,166,253
Combo2 : 241,201,133
Combo3 : 115,211,253
Combo4 : 197,252,152

[HitObjects]
256,184,4092,2,0,B|264:216|256:248|248:280|256:312,2,120,2|0|0
256,64,5197,1,8
136,64,5565,2,0,B|80:48|16:72,1,120,2|0
56,184,6301,1,0
24,304,6669,1,8
144,296,7037,6,0,B|200:280|264:288,1,120,2|0
256,168,7773,2,0,B|200:184|136:176,2,120,0|8|2
368,208,8878,1,0
480,168,9246,1,4
500,48,9614,1,4
380,32,9982,6,0,B|252:32,1,120,4|8
140,48,10718,1,0
40,112,11086,2,0,B|8:164|24:228,1,120,8|0
136,268,11822,1,8
244,220,12190,1,0
368,228,12559,1,8
484,196,12927,6,0,B|508:140|484:76,1,120,4|8
372,36,13663,1,0
256,68,14031,2,0,B|136:80,2,120,8|0|8
256,192,15135,1,0
256,192,15503,1,8
256,316,15871,6,0,B|376:304,2,120,4|4|4
136,332,16976,2,0,B|68:340,1,60,4|4
256,192,17344,12,4,18816
216,192,19552,6,0,B|160:220|88:192,1,120,0|8
96,76,20289,2,0,B|152:48|224:76,1,120,0|8
332,88,21025,2,0,B|400:100|448:64,1,120,0|8
484,180,21761,5,2
472,300,22129,2,0,B|404:288|356:324,1,120,8|0
256,256,22865,1,8
256,136,23233,2,0,B|264:92|248:64|256:12,2,120,0|8|0
140,100,24338,1,8
32,148,24706,6,0,B|12:212|52:268,1,120,2|8
160,312,25442,2,0,B|201:265|268:270,1,120,0|8
388,288,26178,1,0
420,172,26546,1,8
304,140,26914,2,0,B|244:128|196:80,1,120,0|8
84,52,27651,6,0,B|48:176,1,120,0|8
20,284,28387,1,0
120,352,28755,1,8
232,312,29123,2,0,B|356:312,1,120,4|0
412,312,29675,2,0,B|472:248|452:132,1,180,4|8
368,60,30595,6,0,B|308:76|252:48,1,120,4|8
140,92,31332,1,0
192,200,31700,2,0,B|216:256|196:320,1,120,8|0
315,317,32436,2,0,B|296:256|320:200,2,120,8|0|8
436,328,33540,5,4
452,208,33908,1,8
400,100,34276,1,0
284,76,34644,1,8
224,84,34828,2,0,B|144:132|28:96,1,180,4|8
20,156,35565,1,0
44,212,35749,2,0,B|68:268|48:332,1,120,4|8
168,340,36485,6,0,B|296:344,1,120,4|8
292,224,37221,2,0,B|164:220,1,120,0|8
68,156,37957,1,0
172,92,38325,2,0,B|300:96,1,120,8|0
412,100,39062,1,8
256,192,39430,12,4,40718
96,256,41822,5,0
96,136,42190,2,0,B|128:72|256:40|384:72|416:136,1,360,4|0
424,192,43479,1,8
416,248,43663,2,0,B|384:312|256:344|128:312|96:248,1,360,4|0
76,196,44951,1,8
136,192,45135,6,0,B|208:184|240:200|320:192,1,180,4|8
316,72,46055,2,0,B|244:80|212:64|132:72,1,180,0|4
36,136,46976,2,0,B|8:68,2,60,0|8|4
76,248,47712,2,0,B|104:316,1,60,0|8
120,360,48080,6,0,B|288:328|480:356,1,360,4|0
488,296,49368,1,8
476,236,49552,2,0,B|308:268|116:240,1,360,4|0
80,196,50841,1,8
92,136,51025,2,0,B|148:72|240:36,1,180,4|8
360,32,51945,6,0,B|428:36|476:64,2,120,0|8|0
304,140,53049,2,0,B|308:208|336:256,2,120,8|0|8
256,192,54154,12,2,56914
288,288,57835,6,0,B|164:292,1,120,2|2
48,292,58571,6,0,B|16:244|40:176,1,120,4|8
132,100,59307,1,0
240,148,59675,2,0,B|288:180|356:156,1,120,8|0
428,60,60411,2,0,B|372:28|312:52,2,120,8|0|8
496,160,61516,5,4
420,252,61884,2,0,B|352:256|316:304,1,120,8|0
195,303,62620,2,0,B|160:256|92:252,1,120,8|0
92,132,63356,2,0,B|160:128|196:80,1,120,8|0
317,81,64092,2,0,B|352:128|420:132,1,120,8|4
484,236,64828,5,8
420,336,65197,1,0
304,324,65565,2,0,B|244:304|184:320,1,120,8|0
216,204,66301,2,0,B|154:216|110:260,1,120,8|0
68,148,67037,2,0,B|20:189|4:249,2,120,8|4|8
108,104,67957,6,0,B|176:48|280:72,1,180,4|8
400,100,68878,2,0,B|444:240,1,120,4|8
452,272,69430,2,0,B|380:328|280:304,1,180,4|8
256,188,70350,6,0,B|256:60,1,120,4|8
136,64,71086,2,0,B|136:192,1,120,0|8
192,292,71822,2,0,B|132:316|72:292,2,120,0|8|0
312,292,72927,1,8
432,292,73295,6,0,B|464:236|444:164,1,120,4|8
444,56,74031,2,0,B|388:24|316:44,1,120,0|8
208,40,74767,2,0,B|176:96|196:168,1,120,0|8
192,276,75503,2,0,B|248:308|320:288,1,120,0|8
432,292,76240,6,0,B|500:192|440:48,1,240,4|0
328,36,77344,1,8
208,56,77712,2,0,B|140:156|200:300,1,240,4|0
312,308,78816,1,8
328,188,79184,6,0,B|380:160|448:172,2,120,4|8|0
256,92,80289,1,8
188,192,80657,2,0,B|136:220|68:208,2,120,4|8|0
256,292,81761,1,8
256,192,82129,12,0,84338
232,248,85074,6,0,B|176:272|112:248,1,120,4|4
116,128,85810,2,0,B|172:104|236:128,1,120,4|4
336,64,86546,2,0,B|404:120|420:224,1,180,2|2
268,324,87651,1,2
156,280,88019,6,0,B|100:248|40:268,1,120,2|8
48,148,88755,2,0,B|104:180|164:160,1,120,0|8
280,132,89491,1,2
388,80,89859,1,8
332,188,90227,1,0
316,68,90595,1,8
400,156,90963,6,0,B|432:208|420:272,1,120,2|8
304,236,91700,2,0,B|289:295|236:332,1,120,0|8
160,240,92436,2,0,B|107:271|44:259,1,120,0|8
36,140,93172,1,4
156,104,93540,1,4
272,132,93908,6,0,B|312:168|320:240,1,120,4|8
220,308,94644,2,0,B|180:272|172:200,1,120,0|8
172,80,95381,1,0
288,44,95749,2,0,B|420:40,1,120,8|0
484,136,96485,2,0,B|352:140,1,120,8|4
256,188,97221,5,8
147,139,97589,2,0,B|28:136,2,120,0|8|0
256,188,98694,1,8
312,296,99062,2,0,B|256:316|192:296,1,120,0|8
104,220,99798,5,4
144,108,100166,1,4
256,68,100534,1,4
368,108,100902,2,0,B|392:168,1,60,4|4
424,280,101454,2,0,B|304:368|136:308,1,300,2|4
56,220,102743,6,0,B|28:164|56:88,1,120,4|0
172,100,103479,2,0,B|149:160|177:216,1,120,0|0
296,208,104215,2,0,B|480:188,2,180,0|0|0
236,216,105503,1,4
