osu file format v9

[General]
AudioFilename: sora no mukou de sakimasu youni.mp3
AudioLeadIn: 0
PreviewTime: 57835
Countdown: 0
SampleSet: Soft
StackLeniency: 0.7
Mode: 0
LetterboxInBreaks: 0

[Editor]
Bookmarks: 29123
DistanceSpacing: 1.4
BeatDivisor: 4
GridSize: 4

[Metadata]
Title:The Moon is Not Alone (Short Ver.)
Artist:Itou Kanako
Creator:Hinacle
Version:Kiiwa
Source:Sora no Mukou de Sakimasu Youni
Tags:akatsuki works cRyo[iceeicee] Kiiwa opening

[Difficulty]
HPDrainRate:6
CircleSize:4
OverallDifficulty:5
ApproachRate:7
SliderMultiplier:1.5
SliderTickRate:2

[Events]
//Background and Video events
Video,0,"op.flv"
0,0,"BG.jpg"
//Break Periods
//Storyboard Layer 0 (Background)
//Storyboard Layer 1 (Fail)
//Storyboard Layer 2 (Pass)
//Storyboard Layer 3 (Foreground)
//Storyboard Sound Samples
//Background Colour Transformations
3,100,163,162,255

[TimingPoints]
1148,368.098159509202,4,2,1,60,1,0
4092,-133.333333333333,4,2,2,60,0,0
4276,-133.333333333333,4,2,0,40,0,0
5197,-133.333333333333,4,2,1,20,0,0
5565,-133.333333333333,4,2,2,60,0,0
5749,-133.333333333333,4,2,0,40,0,0
6669,-133.333333333333,4,2,1,20,0,0
7037,-133.333333333333,4,2,2,60,0,0
7221,-133.333333333333,4,2,0,40,0,0
7957,-133.333333333333,4,2,1,20,0,0
8325,-133.333333333333,4,2,2,60,0,0
8509,-133.333333333333,4,2,0,40,0,0
9982,-100,4,2,1,70,0,0
10350,-100,4,2,2,50,0,0
10534,-100,4,2,0,70,0,0
10902,-100,4,2,2,70,0,0
11270,-100,4,2,0,70,0,0
11822,-100,4,2,2,70,0,0
12006,-100,4,2,0,70,0,0
12559,-100,4,2,2,70,0,0
13479,-100,4,2,1,70,0,0
13663,-100,4,2,2,70,0,0
14215,-100,4,2,0,70,0,0
14399,-100,4,2,2,70,0,0
15135,-100,4,2,0,70,0,0
15319,-100,4,2,2,70,0,0
15871,-100,4,1,1,70,0,0
16055,-100,4,1,0,50,0,0
16240,-100,4,2,1,70,0,0
16424,-100,4,1,0,50,0,0
16608,-100,4,2,1,70,0,0
16792,-100,4,1,0,50,0,0
16976,-100,4,2,1,70,0,0
17160,-100,4,2,2,70,0,0
18448,-100,4,2,1,70,0,0
18816,-133.333333333333,4,2,2,60,0,0
29123,-133.333333333333,4,1,0,50,0,0
30595,-100,4,2,2,70,0,0
30779,-100,4,1,1,60,0,0
36485,-100,4,2,2,70,0,0
36669,-100,4,1,1,60,0,0
41638,-100,4,1,0,60,0,0
42098,-100,4,2,2,70,0,0
42374,-100,4,1,1,60,0,0
44583,-100,4,1,1,5,0,0
44951,-100,4,1,1,60,0,0
46792,-100,4,2,0,60,0,0
47160,-100,4,1,1,60,0,0
48080,-100,4,2,2,70,0,0
48264,-100,4,1,1,60,0,0
54062,-100,4,2,0,60,0,0
54154,-100,4,2,1,80,0,0
58203,-100,4,2,2,60,0,0
58571,-100,4,2,1,80,0,1
58663,-100,4,2,1,80,0,1
61516,-100,4,2,2,60,0,1
61700,-100,4,2,1,80,0,1
67405,-100,4,2,2,60,0,1
67589,-100,4,2,1,80,0,1
68878,-100,4,2,2,60,0,1
70350,-100,4,2,1,80,0,1
73295,-100,4,2,2,60,0,1
73479,-100,4,2,1,80,0,1
76240,-100,4,2,2,60,0,1
76424,-100,4,2,1,80,0,1
81761,-100,4,2,2,60,0,1
84706,-100,4,2,1,80,0,1
85074,-100,4,1,1,70,0,1
85258,-100,4,1,0,50,0,1
85442,-100,4,1,1,70,0,1
85626,-100,4,1,0,50,0,1
85810,-100,4,1,1,70,0,1
85994,-100,4,1,0,50,0,1
86178,-100,4,1,1,70,0,1
86362,-100,4,1,0,50,0,1
86546,-100,4,2,2,60,0,1
88019,-133.333333333333,4,2,2,60,0,0
88203,-133.333333333333,4,2,0,60,0,0
89491,-133.333333333333,4,2,1,20,0,0
89675,-133.333333333333,4,2,0,60,0,0
90963,-133.333333333333,4,2,1,20,0,0
91147,-133.333333333333,4,2,0,60,0,0
93908,-100,4,2,0,70,0,0
94276,-100,4,2,2,70,0,0
99798,-100,4,1,1,70,0,0
99982,-100,4,1,0,50,0,0
100166,-100,4,1,1,70,0,0
100350,-100,4,1,0,50,0,0
100534,-100,4,1,1,70,0,0
100718,-100,4,1,0,50,0,0
100902,-100,4,1,1,70,0,0
101086,-100,4,2,2,70,0,0
102374,-100,4,1,0,50,0,0
102743,-100,4,2,1,70,0,0

[Colours]
Combo1 : 238,166,253
Combo2 : 241,201,133
Combo3 : 115,211,253
Combo4 : 197,252,152

[HitObjects]
248,164,4092,6,0,B|272:140|320:156|316:208|276:228|252:200,1,112.499996647239,2|0
204,244,4644,2,0,B|152:256|128:308|136:340,1,112.499996647239,2|0
134,323,5197,1,8
100,168,5565,5,2
44,112,5749,2,0,B|20:80|-8:80,2,56.2499983236194,2|0|0
196,72,6485,1,2
196,72,6669,2,0,B|312:52,1,112.499996647239,8|2
306,52,7405,5,0
196,72,7589,1,2
452,184,7957,5,8
56,184,8325,1,2
452,184,8694,1,2
56,184,9062,1,2
128,220,9246,6,0,B|168:224|180:272,1,56.2499983236194,4|0
208,320,9614,2,0,B|232:344|233:389,1,56.2499983236194,4|0
231,370,9982,6,0,B|408:336,1,150,6|10
484,134,10534,2,0,B|436:276,1,150,2|0
464,364,11086,1,8
328,192,11270,6,0,B|380:188|392:264|320:304|296:228,1,150,2|0
228,204,11822,1,8
148,168,12006,2,0,B|112:140|24:156|8:208,1,150,2|0
64,272,12559,1,8
151,342,12743,1,0
96,280,12927,6,0,B|188:300|188:300|144:352,1,150,2|8
255,262,13479,2,0,B|348:144,1,150,2|0
347,144,14031,1,8
432,208,14215,2,0,B|456:132|528:180|512:244|448:240,1,150,2|0
472,236,14767,2,0,B|420:257|436:345|496:345,2,150,8|2|8
332,148,15871,5,12
256,100,16055,1,0
180,148,16240,1,8
180,236,16424,1,0
256,284,16608,1,8
332,236,16792,1,0
332,148,16976,1,8
256,192,17160,5,2
256,192,17344,12,8,18448
140,132,18816,6,0,B|160:248,1,112.499996647239,4|0
176,320,19368,1,0
176,320,19552,2,0,B|104:336,1,56.2499983236194,8|0
124,56,20105,2,0,B|196:40,1,56.2499983236194,8|0
178,43,20657,5,8
320,116,21025,2,0,B|368:128|392:200,1,112.499996647239,8|0
380,276,21577,1,0
416,204,21761,6,0,B|492:120,1,112.499996647239,8|8
491,120,22313,1,0
412,124,22497,2,0,B|368:88,2,56.2499983236194,8|0|8
308,124,23049,6,0,B|276:172|216:160|184:68|268:72|264:112,1,168.749994970858,0|8
304,176,23786,1,0
328,252,23970,2,0,B|352:296|328:372,1,112.499996647239,8|8
331,361,24522,1,0
208,320,24706,6,0,B|136:352,1,56.2499983236194,0|0
32,348,25074,2,0,B|104:316,1,56.2499983236194,8|0
132,228,25442,2,0,B|60:260,1,56.2499983236194,8|0
12,208,25810,1,8
72,156,25994,2,0,B|56:120|20:116,1,56.2499983236194,0|8
32,118,26546,5,8
184,84,26914,2,0,B|296:56,1,112.499996647239,8|8
368,36,27467,1,0
300,88,27651,6,0,B|256:136|312:224|376:196,1,168.749994970858,8|0
440,160,28387,1,8
512,196,28571,1,0
496,276,28755,2,0,B|528:264|516:212|484:220|448:224|464:276,1,112.499996647239,8|0
460,254,29491,5,0
460,254,29675,2,0,B|424:300|336:284|340:208,1,168.749994970858
304,144,30411,1,0
288,132,30503,1,0
272,120,30595,6,0,B|172:136|172:136|136:96,1,150,4|8
104,16,31147,2,0,B|160:56|148:164|88:200|48:184,1,225
144,168,31884,2,0,B|180:220|276:188|260:132,1,150
312,72,32436,6,0,B|328:44|368:52|360:92,1,75,8|0
376,176,32804,1,0
432,244,32988,2,0,B|472:260|472:260|416:288,1,75,0|8
504,320,33356,6,0,B|336:344,1,150
268,356,33908,2,0,B|252:304|252:304|176:344,1,112.5,8|0
160,352,34276,2,0,B|120:376|28:340|68:252,1,150,0|8
247,152,34828,2,0,B|148:264,1,150
58,282,35381,6,0,B|124:200,1,75,8|0
265,232,35749,2,0,B|364:120,1,150,0|8
364,119,36301,1,0
332,36,36485,6,0,B|380:20|456:56|448:116,1,150,4|8
364,120,37037,2,0,B|298:92|186:148|190:236,1,225,0|8
192,308,37773,1,0
160,224,37957,6,0,B|124:128|124:128|120:184,1,150,0|8
192,308,38509,1,0
339,324,38694,2,0,B|424:340|424:340|472:284,1,150,0|8
464,292,39430,6,0,B|437:204,2,75,0|0|8
364,208,39982,2,0,B|369:156|437:124|486:142|490:167,1,150
384,112,40534,1,8
288,112,40718,6,0,B|264:172|180:160|168:72|240:48|288:80|256:160|192:156|204:216|280:264|252:272,1,300
344,244,41638,5,2
168,244,41822,2,0,B|128:208|128:208|76:256,1,112.5
72,244,42190,6,0,B|36:236|28:128|80:112,1,150,4|0
148,68,42743,1,8
168,244,42927,6,0,B|204:252|212:360|160:376,1,150
224,304,43479,1,8
308,268,43663,6,0,B|384:248|384:248|404:164,1,150
448,100,44215,2,0,B|408:72|360:88,1,75,8|0
332,84,44491,2,0,B|328:96|320:168|240:176|176:152|176:108,1,187.5,0|8
100,68,45135,6,0,B|140:84|120:144|60:156|44:96,1,150
16,192,45687,1,8
308,328,46055,2,0,B|248:168,1,150,0|8
196,34,46608,5,8
422,218,46976,2,0,B|348:208,1,75,0|0
194,261,47344,2,0,B|148:320,1,75,0|8
104,376,47712,5,8
28,192,48080,2,0,B|104:192|168:136|152:40,1,225,4|8
112,124,48816,2,0,B|172:108|228:156|224:224,1,150
256,280,49368,5,8
316,216,49552,2,0,B|368:196|380:156|348:120|296:132|328:180,1,150
384,240,50105,2,0,B|416:264|476:256,1,75,8|0
455,257,50473,5,0
452,168,50657,1,0
364,148,50841,1,8
316,224,51025,2,0,B|240:152,2,75,0|0|0
376,292,51577,1,8
256,192,51761,12,8,53049
256,192,53417,5,0
256,192,53786,2,0,B|256:80,1,112.5,8|0
220,40,54154,6,0,B|192:72|224:120,1,75,8|0
292,232,54522,2,0,B|320:200|288:152,1,75,8|0
208,192,54890,6,0,B|180:224|212:272,1,75,8|0
280,384,55258,2,0,B|308:352|276:304,1,75,8|0
282,314,55626,5,8
348,248,55810,1,8
308,168,55994,1,8
220,172,56178,1,8
205,261,56362,1,8
112,260,56546,1,8
76,172,56730,1,8
148,120,56914,1,8
256,192,57098,12,2,58203
200,236,58571,6,0,B|164:272|76:264|60:216,1,150,4|8
65,226,59123,1,0
144,164,59307,2,2,B|196:132|256:164,1,112.5,2|0
272,184,59675,2,2,B|328:216|388:188|360:128|324:136|320:160,1,150,8|0
296,244,60227,2,0,B|288:280|300:328,1,75,2|8
368,264,60595,2,0,B|375:300|407:338,1,75,2|0
448,256,60963,2,0,B|470:285|514:306,2,75,2|8|0
392,184,61516,6,0,B|348:128|352:56|376:24,2,150,2|10|0
472,140,62436,1,0
396,92,62620,2,0,B|328:88|300:164|320:200,1,150,10|2
300,280,63172,2,0,B|244:344,1,75,2|8
250,336,63540,1,2
140,192,63908,1,0
120,104,64092,2,0,B|100:52|64:28,2,75,10|2|4
140,284,64828,5,8
112,372,65013,2,0,B|120:316|200:288|280:320|288:368,1,225,0|8
364,316,65749,1,0
436,260,65933,2,0,B|472:96,1,150,2|8
396,168,66485,2,0,B|360:332,1,150,2|0
287,366,67037,1,8
204,208,67405,6,0,B|172:152|176:88|236:112|204:164,1,150,2|10
160,240,67957,2,0,B|136:304|68:324|32:312,1,150,2|0
132,316,68509,2,0,B|208:320,1,75,10|0
296,324,68878,5,8
256,148,69246,1,8
324,224,69430,2,0,B|448:204,1,112.5,8|0
468,216,69798,2,0,B|440:144|440:144|488:72,1,150,2|0
392,60,70350,6,0,B|372:116|260:112|296:40|340:60,1,150,4|8
188,172,71086,2,0,B|112:172|140:264|192:264|220:212,1,150,2|8
212,84,71638,2,0,B|288:68,1,75,2|0
260,156,72006,2,0,B|184:172,1,75,2|8
244,240,72374,2,0,B|320:224,1,75,2|0
292,312,72743,2,0,B|216:328,2,75,2|8|0
380,300,73295,6,0,B|380:240|440:196|488:208,1,150,2|8
380,56,74031,2,0,B|380:116|320:160|272:148,1,150,2|8
288,60,74583,2,0,B|200:92,1,75,2|0
132,116,74951,1,0
200,172,75135,2,0,B|240:264,2,75,10|0|2
152,32,75687,1,0
152,32,75871,1,8
132,116,76055,1,0
217,85,76240,1,4
388,148,76608,5,8
312,300,76976,1,0
416,316,77160,1,0
464,220,77344,1,10
388,148,77528,1,0
300,200,77712,2,0,B|252:188|228:120|252:64,1,150,2|8
220,160,78264,2,0,B|56:212,1,150,2|0
8,264,78816,1,8
172,336,79184,5,4
400,276,79552,1,8
340,48,79921,1,0
112,108,80289,1,8
194,149,80473,6,0,B|256:192,1,75,2|0
323,159,80841,2,0,B|256:192,1,75,2|8
250,266,81209,2,0,B|256:192,1,75,2|0
256,191,81761,5,2
256,192,82129,12,8,84706
332,148,85074,5,12
256,100,85258,1,0
180,148,85442,1,8
180,236,85626,1,0
256,288,85810,1,8
332,240,85994,1,0
332,148,86178,1,8
256,100,86362,1,0
256,192,86546,5,2
416,148,88019,6,0,B|400:108|436:88|480:88|480:140,1,112.499996647239,2|0
408,228,88571,2,0,B|392:276|344:320,1,112.499996647239,2|0
344,319,89123,1,2
192,288,89491,6,0,B|112:276,1,56.2499983236194,8|0
60,264,89859,1,2
60,264,90043,1,2
104,112,90411,1,2
180,96,90595,2,0,B|308:72,1,112.499996647239,2|8
290,75,91332,5,2
360,112,91516,2,0,B|464:168,1,112.499996647239,2|2
352,284,92252,5,2
160,284,92620,1,2
352,284,92988,1,0
448,284,93172,5,4
64,284,93540,1,4
60,76,93908,6,2,B|120:56|128:144|216:112,1,150,6|10
256,52,94460,2,2,B|296:64|304:140|280:188|224:180,1,150,2|0
332,124,95013,2,0,B|384:120|416:172,1,75,8|0
452,220,95381,1,0
444,308,95565,1,0
368,356,95749,2,0,B|340:324|248:328|232:380,1,150,8|0
140,248,96485,5,8
76,184,96669,1,0
140,248,96853,2,0,B|208:320,1,75,2|0
256,364,97221,1,8
388,292,97405,6,0,B|256:364,1,150,0|0
476,288,97957,1,8
428,212,98141,2,0,B|432:62,1,150,0|0
432,62,98694,1,10
432,62,99062,1,2
432,62,99430,1,8
332,148,99798,5,12
256,100,99982,1,0
180,148,100166,1,8
180,236,100350,1,0
256,280,100534,1,8
332,240,100718,1,0
332,148,100902,1,8
256,192,101086,5,2
256,192,101270,12,4,102374
164,120,102743,6,0,B|192:184|132:240|88:212,1,150,4|8
348,264,103479,2,0,B|320:200|380:144|424:172,1,150,0|8
256,84,104215,5,0
256,300,104583,1,8
256,84,104951,1,0
256,300,105319,5,8
256,192,105503,1,4
