osu file format v9

[General]
AudioFilename: sora no mukou de sakimasu youni.mp3
AudioLeadIn: 0
PreviewTime: 57835
Countdown: 0
SampleSet: Soft
StackLeniency: 0.7
Mode: 0
LetterboxInBreaks: 0

[Editor]
DistanceSpacing: 1.6
BeatDivisor: 4
GridSize: 4

[Metadata]
Title:The Moon is Not Alone (Short Ver.)
Artist:Itou Kanako
Creator:Hinacle
Version:Insane
Source:Sora no Mukou de Sakimasu Youni
Tags:akatsuki works cRyo[iceeicee] Kiiwa opening

[Difficulty]
HPDrainRate:8
CircleSize:4
OverallDifficulty:7
ApproachRate:8
SliderMultiplier:1.8
SliderTickRate:2

[Events]
//Background and Video events
Video,0,"op.flv"
0,0,"BG.jpg"
//Break Periods
//Storyboard Layer 0 (Background)
//Storyboard Layer 1 (Fail)
//Storyboard Layer 2 (Pass)
//Storyboard Layer 3 (Foreground)
//Storyboard Sound Samples
//Background Colour Transformations
3,100,163,162,255

[TimingPoints]
1148,368.098159509202,4,2,1,60,1,0
4092,-133.333333333333,4,2,2,60,0,0
4644,-133.333333333333,4,2,1,60,0,0
4736,-133.333333333333,4,2,2,60,0,0
6117,-133.333333333333,4,2,1,60,0,0
6209,-133.333333333333,4,2,2,60,0,0
7589,-133.333333333333,4,2,1,60,0,0
7681,-133.333333333333,4,2,2,60,0,0
9062,-133.333333333333,4,2,2,60,0,0
9982,-100,4,1,1,50,0,0
15871,-100,4,1,1,40,0,0
16055,-100,4,1,1,45,0,0
16240,-100,4,1,1,50,0,0
16424,-100,4,1,1,55,0,0
16608,-100,4,1,1,60,0,0
16792,-100,4,1,1,65,0,0
16976,-100,4,1,1,70,0,0
17160,-100,4,1,1,75,0,0
17344,-100,4,2,1,70,0,0
18448,-100,4,1,1,60,0,0
18540,-100,4,2,1,60,0,0
18816,-133.333333333333,4,2,2,60,0,0
30227,-133.333333333333,4,2,1,60,0,0
30595,-100,4,2,2,80,0,0
30687,-100,4,1,1,50,0,0
42006,-100,4,1,1,60,0,0
55534,-100,4,1,1,40,0,0
55718,-100,4,1,1,45,0,0
55902,-100,4,1,1,50,0,0
56086,-100,4,1,1,55,0,0
56362,-100,4,1,1,60,0,0
56546,-100,4,1,1,65,0,0
56730,-100,4,1,1,70,0,0
56914,-100,4,1,1,75,0,0
57098,-100,4,2,2,70,0,0
57835,-200,4,2,1,60,0,0
58295,-200,4,1,1,50,0,0
58571,-100,4,1,1,70,0,1
81761,-100,4,1,1,60,0,1
82129,-100,4,1,1,50,0,1
82221,-100,4,1,1,40,0,1
85258,-100,4,1,1,45,0,1
85442,-100,4,1,1,50,0,1
85626,-100,4,1,1,55,0,1
85810,-100,4,1,1,60,0,1
85994,-100,4,1,1,65,0,1
86178,-100,4,1,1,70,0,1
86362,-100,4,1,1,75,0,1
86546,-100,4,2,2,70,0,1
86730,-100,4,2,1,70,0,1
88019,-133.333333333333,4,2,2,60,0,0
88571,-133.333333333333,4,2,1,60,0,0
88663,-133.333333333333,4,2,2,60,0,0
90043,-133.333333333333,4,2,1,60,0,0
90135,-133.333333333333,4,2,2,60,0,0
91516,-133.333333333333,4,2,1,60,0,0
91608,-133.333333333333,4,2,2,60,0,0
93908,-100,4,1,1,60,0,0
99798,-100,4,1,1,40,0,0
99982,-100,4,1,1,45,0,0
100166,-100,4,1,1,50,0,0
100350,-100,4,1,1,55,0,0
100534,-100,4,1,1,60,0,0
100718,-100,4,1,1,65,0,0
100902,-100,4,1,1,70,0,0
101086,-100,4,1,1,75,0,0
101270,-100,4,2,1,70,0,0
102374,-100,4,1,1,60,0,0
102467,-100,4,2,1,60,0,0
102743,-100,4,2,2,60,0,0
102743,-100,4,2,2,60,0,0
103111,-100,4,1,1,50,0,0
103295,-100,4,2,2,60,0,0
103479,-100,4,1,1,50,0,0
103663,-100,4,2,1,60,0,0
103847,-100,4,1,1,50,0,0
104031,-100,4,2,1,60,0,0
105503,-100,4,2,2,60,0,0

[Colours]
Combo1 : 238,166,253
Combo2 : 241,201,133
Combo3 : 115,211,253
Combo4 : 197,252,152

[HitObjects]
112,180,4092,2,0,B|76:180|44:192,2,67.4999979883433,2|0|0
200,196,4644,2,0,B|276:212|332:164,1,134.999995976687,2|0
408,132,5197,1,8
464,200,5381,1,0
420,276,5565,1,2
336,252,5749,2,0,B|302:260|268:272,1,67.4999979883433
184,288,6117,2,0,B|112:272|56:316,1,134.999995976687,2|0
28,212,6669,2,0,B|100:228|156:184,1,134.999995976687,8|2
188,64,7221,6,0,B|152:72|120:92,2,67.4999979883433,0|0|2
276,52,7773,1,0
360,84,7957,2,0,B|391:103|414:133,1,67.4999979883433,0|8
392,216,8325,2,0,B|316:200|260:248,1,134.999995976687,2|0
180,272,8878,1,8
116,212,9062,1,2
144,132,9246,6,0,B|172:112|208:96,1,67.4999979883433,4|0
368,132,9614,2,0,B|340:112|304:96,1,67.4999979883433,4|0
124,40,9982,5,6
52,96,10166,2,2,B|40:144|20:180,1,90,0|10
40,268,10534,2,2,B|140:252|204:328,1,180,2|2
100,356,11086,1,10
152,184,11270,2,2,B|248:212|296:296,1,180,2|2
380,312,11822,2,2,B|428:304|468:276,1,90,10|2
500,144,12190,2,2,B|452:152|412:180,1,90,2|0
344,60,12559,2,2,B|306:90|285:135,1,90,10|0
172,60,12927,6,2,B|154:105|159:154,1,90,6|0
112,244,13295,1,10
192,316,13479,2,2,B|292:352|360:276,1,180,2|2
424,152,14031,1,10
300,216,14215,1,2
432,244,14399,1,0
336,140,14583,5,2
336,140,14675,1,0
336,140,14767,2,2,B|268:64|152:104,1,180,10|0
60,48,15319,2,0,B|44:96|56:144,1,90,0|8
148,220,15687,1,0
171,98,15871,5,4
54,136,16055,1,4
148,220,16240,1,4
268,372,16424,1,4
232,188,16608,1,4
336,312,16792,1,4
316,224,16976,1,4
248,284,17160,6,0,B|152:248|76:308,1,180,4|2
32,208,17712,2,0,B|76:172|136:164,1,90,0|2
244,72,18080,2,0,B|204:52|152:48,2,90,2|0|4
332,116,18632,5,0
332,116,18724,1,0
332,116,18816,2,0,B|360:192,1,67.4999979883433,4|0
384,264,19184,1,8
320,324,19368,2,0,B|248:300|180:340,1,134.999995976687
112,296,19921,1,8
140,212,20105,2,0,B|184:160|168:80,1,134.999995976687,2|0
88,32,20657,6,0,B|76:72|76:104,1,67.4999979883433,8|0
260,124,21025,2,0,B|272:84|272:52,2,67.4999979883433,0|0|8
252,216,21577,5,0
252,216,21669,1,0
252,216,21761,2,0,B|256:276|244:304|248:360,1,134.999995976687,2|8
160,356,22313,2,0,B|88:344,1,67.4999979883433
120,260,22681,2,0,B|48:248,1,67.4999979883433,0|8
16,164,23049,2,0,B|92:180|144:132,1,134.999995976687,2|0
48,28,23601,2,0,B|52:64|64:96,1,67.4999979883433,8|0
192,192,23970,2,0,B|216:172|232:132|216:84|184:64,1,134.999995976687,0|8
320,192,24706,6,0,B|296:212|280:252|296:300|328:320,1,134.999995976687,2|8
404,336,25258,1,0
484,296,25442,1,0
472,208,25626,2,0,B|464:180|468:132,1,67.4999979883433,0|8
364,52,25994,2,0,B|372:80|368:128,1,67.4999979883433,2|0
312,192,26362,2,0,B|240:180|184:224,1,134.999995976687
96,244,26914,1,0
16,200,27098,2,0,B|4:120,1,67.4999979883433,0|8
40,52,27467,6,0,B|96:96|172:76,1,134.999995976687,2|0
256,68,28019,2,0,B|292:64|324:76,1,67.4999979883433,8|0
376,144,28387,1,0
348,228,28571,5,0
252,304,28755,1,8
232,184,28939,1,0
232,184,29031,1,0
232,184,29123,2,0,B|284:244,1,67.4999979883433,4|0
356,328,29491,1,8
448,248,29675,2,0,B|496:192|472:112,1,134.999995976687,4|0
400,52,30227,5,2
400,52,30319,1,0
400,52,30411,1,0
400,52,30503,1,0
400,52,30595,2,0,B|304:12|232:76,1,180,4|8
196,156,31147,2,0,B|132:232|28:200,1,180
16,300,31700,1,8
108,336,31884,2,0,B|172:260|276:292,1,180
360,308,32436,5,8
444,272,32620,2,0,B|468:232|468:180,1,90
356,96,32988,2,0,B|332:136|332:188,1,90,0|8
228,280,33356,2,0,B|204:240|204:188,2,90
336,324,33908,1,8
380,216,34092,1,0
336,108,34276,2,0,B|300:140|268:176,1,90,0|0
276,320,34644,5,8
432,308,34828,2,0,B|501:244|453:129,1,180
388,44,35381,1,8
340,160,35565,1,0
268,68,35749,2,0,B|184:16|96:60,1,180,0|8
48,136,36301,5,0
48,136,36393,1,0
48,136,36485,1,4
84,220,36669,2,0,B|96:272|72:308,1,90,0|8
156,348,37037,2,0,B|188:264|284:228,1,180
240,144,37589,2,0,B|205:167|153:155,1,90,8|0
56,68,37957,2,0,B|93:41|141:53,2,90,0|0|8
56,232,38509,2,0,B|136:288|236:252,1,180
312,220,39062,1,8
404,240,39246,5,0
404,240,39338,1,0
404,240,39430,2,0,B|452:228|500:196,1,90,4|0
500,64,39798,2,0,B|452:76|404:108,1,90,8|0
332,124,40166,1,0
248,96,40350,2,0,B|200:84|152:80,1,90,0|8
72,116,40718,6,0,B|104:216|36:288,1,180,6|0
112,352,41270,1,10
252,320,41454,1,0
132,244,41638,1,10
272,212,41822,1,6
332,48,42190,6,0,B|417:75|452:174,1,180,4|0
476,260,42743,1,8
388,244,42927,2,0,B|288:208|200:272,1,180,0|0
144,208,43479,1,8
24,364,43663,2,0,B|124:400|212:336,1,180,4|0
224,160,44215,2,0,B|188:136|140:120,1,90,8|0
36,172,44583,1,0
48,56,44767,2,0,B|84:32|132:16,1,90,0|8
220,52,45135,6,0,B|288:112|392:88,1,180,4|0
468,228,45687,2,0,B|400:168|296:192,1,180,8|0
212,332,46240,2,0,B|256:346|301:333,1,90,0|8
212,191,46608,2,0,B|112:168|44:228,1,180,4|0
80,88,47160,2,0,B|34:98|-3:136,1,90,8|0
36,332,47528,2,0,B|82:322|119:284,1,90,4|0
192,76,47896,1,8
292,48,48080,6,0,B|392:56|444:132,1,180,4|0
484,212,48632,1,8
416,272,48816,2,0,B|336:328|240:284,1,180
324,212,49368,1,8
260,128,49552,6,0,B|224:168|216:212,1,90,4|0
148,264,49921,1,0
148,264,50013,1,0
148,264,50105,1,8
60,240,50289,2,0,B|-12:180|24:64,1,180,0|0
88,16,50841,1,8
124,100,51025,2,0,B|192:172|300:136,1,180,4|0
376,116,51577,6,0,B|420:96|472:92,1,90,10|0
344,216,51945,2,0,B|300:236|248:240,1,90,2|0
420,292,52313,2,0,B|464:272|516:268,2,90,10|0|0
336,328,52865,1,0
248,312,53049,6,0,B|200:304|160:324,1,90,10|0
36,328,53417,2,0,B|66:290|69:245,1,90,2|0
136,140,53786,2,0,B|153:185|190:210,1,90,10|0
300,248,54154,5,6
404,200,54338,1,0
404,200,54430,1,0
404,200,54522,2,0,B|436:240|452:280,2,90,10|0|10
456,104,55074,1,2
456,104,55166,1,0
456,104,55258,2,0,B|416:84|352:92,1,90,8|2
280,96,55626,5,6
160,168,55810,1,4
232,288,55994,1,6
352,216,56178,1,6
252,100,56362,6,0,B|208:113|177:146,1,90,6|4
259,283,56730,2,0,B|303:270|334:237,1,90,4|6
256,192,57835,6,0,B|312:104,1,90,2|2
368,56,58387,5,0
368,56,58479,1,0
368,56,58571,1,6
448,96,58755,1,0
440,184,58939,2,2,B|424:232|448:304,1,90,10|0
488,352,59307,1,2
400,352,59491,2,0,B|360:336|312:336,1,90,2|8
288,224,59859,6,2,B|240:248|216:288,1,90,2|0
144,168,60227,2,2,B|127:218|138:264,1,90,2|8
0,232,60595,2,2,B|24:280|64:303,1,90,2|0
144,352,60963,1,10
144,352,61055,1,0
144,352,61148,2,0,B|184:336|232:344,1,90,8|2
328,360,61516,5,6
416,324,61700,2,0,B|460:240,1,90,0|10
360,252,62068,2,0,B|344:164,1,90,0|2
372,68,62436,2,2,B|324:64|284:84,1,90,2|8
248,172,62804,6,0,B|152:212|72:140,1,180,2|2
92,48,63356,1,8
188,20,63540,2,8,B|196:72|172:108,1,90,2|0
16,296,63908,2,0,B|8:248|32:208,2,90,2|10|2
112,320,64460,6,0,B|204:280|284:344,1,180,6|8
404,312,65013,1,0
352,196,65197,2,0,B|274:257|182:217,1,180,0|10
172,112,65749,5,0
172,112,65841,1,0
172,112,65933,2,0,B|249:50|341:90,1,180,6|10
416,20,66485,2,0,B|354:97|394:189,1,180,6|0
344,276,67037,1,8
312,268,67129,1,0
280,268,67221,1,0
248,272,67313,1,0
220,284,67405,6,0,B|184:216|208:192|172:108,1,180,6|8
96,36,67957,2,0,B|61:116|85:140|49:208,1,180,6|0
96,292,68509,1,10
128,300,68601,1,0
160,300,68694,1,0
192,296,68786,1,0
220,284,68878,6,0,B|304:244|392:292,1,180,6|8
292,100,69430,2,0,B|208:140|120:92,1,180,6|0
24,124,69982,1,10
24,124,70074,1,0
24,124,70166,1,0
24,124,70258,1,0
24,124,70350,6,2,B|16:228,1,90,6|0
56,304,70718,2,2,B|104:296|144:316,1,90,10|0
240,296,71086,1,2
416,268,71270,6,2,B|368:276|328:256,1,90,2|8
96,116,71638,2,2,B|144:108|184:128,1,90,2|0
183,256,72006,6,2,B|144:276|96:268,1,90,2|8
328,127,72374,2,2,B|368:108|416:116,1,90,2|0
480,192,72743,1,10
480,192,72835,1,0
480,192,72927,1,8
416,268,73111,5,2
416,268,73203,1,0
416,268,73295,1,6
320,248,73479,2,0,B|280:228|256:180,1,90,0|10
260,24,73847,2,0,B|262:68|233:113,1,90,0|2
96,188,74215,2,2,B|133:163|186:166,1,90,2|8
312,132,74583,6,0,B|388:76|484:112,1,180,6|2
408,212,75135,1,8
504,292,75319,2,0,B|428:348|332:312,1,180,2|2
272,232,75871,2,2,B|239:264|227:313,1,90,10|2
128,300,76240,6,0,B|143:214|212:144,1,180,6|8
292,104,76792,1,0
376,136,76976,2,0,B|400:180|388:236,1,90
356,304,77344,1,10
268,328,77528,6,0,B|176:288|92:344,1,180,6|0
40,248,78080,1,10
76,144,78264,2,0,B|168:184|252:128,1,180,6|0
348,92,78816,1,8
436,156,79000,5,2
436,156,79092,1,0
436,156,79184,2,0,B|460:196|464:244,1,90,6|0
324,352,79552,2,0,B|300:312|296:264,1,90,10|0
316,176,79921,1,2
316,176,80013,1,0
316,176,80105,1,2
376,248,80289,6,0,B|400:288|404:336,1,90,8|2
220,308,80657,2,0,B|196:268|192:220,1,90,6|0
200,132,81025,5,8
132,72,81209,1,2
60,128,81393,2,0,B|33:171|40:213|46:256|18:307,2,180,2|10|6
256,192,82221,12,8,84706
360,136,85074,6,0,B|380:180|372:228,1,90,4|4
152,248,85442,2,0,B|132:204|140:156,1,90,4|4
312,296,85810,6,0,B|268:316|220:308,1,90,4|4
200,88,86178,2,0,B|244:68|292:76,1,90,4|4
256,192,86546,5,4
72,280,86914,2,0,B|64:176,1,90,2|0
440,104,87467,2,0,B|448:208,1,90,0|2
308,256,88019,5,2
272,336,88203,1,0
212,272,88387,1,0
176,352,88571,2,0,B|116:384|44:356,1,134.999995976687,2|0
16,272,89123,1,8
56,192,89307,5,0
56,192,89399,1,0
56,192,89491,2,0,B|124:176,1,67.4999979883433,2|0
180,68,89859,2,0,B|112:84,1,67.4999979883433,0|2
228,236,90411,2,0,B|296:252,1,67.4999979883433,0|8
380,276,90779,5,0
380,276,90871,1,0
380,276,90963,1,2
464,252,91148,2,0,B|488:288|492:320,2,67.4999979883433,0|0|2
340,128,91884,2,0,B|316:92|312:60,2,67.4999979883433,0|8|2
300,312,92620,2,0,B|264:336|232:340,2,67.4999979883433,0|0|2
380,276,93172,5,4
412,196,93356,1,0
388,112,93540,1,4
316,60,93724,5,0
316,60,93816,1,0
316,60,93908,2,0,B|276:40|228:48,1,90,6|0
72,88,94276,1,10
124,172,94460,2,2,B|164:192|212:184,1,90,2|0
300,176,94828,1,2
356,248,95013,1,10
312,328,95197,2,2,B|220:288|140:348,1,180,6|2
20,292,95749,2,2,B|72:288|112:252,1,90,10|2
184,220,96117,5,2
264,176,96301,1,0
192,120,96485,1,10
272,76,96669,1,0
200,20,96853,6,2,B|124:76|28:44,1,180,6|10
32,160,97405,2,2,B|126:128|202:184,1,180,2|2
332,280,97957,1,10
224,292,98141,1,2
224,292,98233,1,0
224,292,98325,1,0
312,172,98509,1,2
312,172,98601,1,0
312,172,98694,2,2,B|388:115|482:147,1,180,10|0
472,240,99246,6,0,B|424:244|384:228,1,90,0|8
404,44,99614,2,0,B|452:40|492:56,2,90,0|4|4
296,112,100166,2,0,B|268:72|262:29,2,90,4|4|4
408,176,100718,2,0,B|387:219|353:246,1,90,4|4
264,268,101086,6,0,B|176:224|92:280,1,180,4|2
28,208,101638,1,0
68,116,101822,2,0,B|108:100|160:92,1,90,2|2
244,80,102190,1,0
328,112,102374,1,4
388,180,102559,5,0
388,180,102651,1,0
388,180,102743,2,0,B|404:224|396:268,1,90,4|0
292,332,103111,2,0,B|276:288|284:244,1,90,0|0
164,188,103479,2,0,B|180:232|172:276,1,90,0|0
68,348,103847,2,0,B|52:304|60:260,1,90,0|0
68,124,104215,6,0,B|148:68|240:108,1,180,2|0
444,260,104767,2,0,B|364:316|272:276,1,180,2|0
164,188,105319,5,2
348,196,105503,1,4
