osu file format v9

[General]
AudioFilename: sora no mukou de sakimasu youni.mp3
AudioLeadIn: 0
PreviewTime: 57835
Countdown: 0
SampleSet: Soft
StackLeniency: 0.7
Mode: 0
LetterboxInBreaks: 0

[Editor]
DistanceSpacing: 0.8
BeatDivisor: 4
GridSize: 8

[Metadata]
Title:The Moon is Not Alone (Short Ver.)
Artist:Itou Kanako
Creator:Hinacle
Version:Easy
Source:Sora no Mukou de Sakimasu Youni
Tags:akatsuki works cRyo[iceeicee] Kiiwa opening

[Difficulty]
HPDrainRate:2
CircleSize:3
OverallDifficulty:2
ApproachRate:2
SliderMultiplier:0.8
SliderTickRate:2

[Events]
//Background and Video events
Video,0,"op.flv"
0,0,"BG.jpg"
//Break Periods
//Storyboard Layer 0 (Background)
//Storyboard Layer 1 (Fail)
//Storyboard Layer 2 (Pass)
//Storyboard Layer 3 (Foreground)
//Storyboard Sound Samples
//Background Colour Transformations
3,100,163,162,255

[TimingPoints]
1148,368.098159509202,4,2,1,60,1,0
4092,-100,4,2,2,60,0,0
9982,-100,4,1,1,50,0,0
15871,-100,4,1,1,60,0,0
17344,-100,4,2,1,70,0,0
18448,-100,4,1,1,60,0,0
18540,-100,4,2,1,60,0,0
18816,-100,4,2,2,60,0,0
30227,-100,4,2,1,60,0,0
30595,-100,4,2,2,80,0,0
30687,-100,4,1,1,50,0,0
42006,-100,4,1,1,60,0,0
58571,-100,4,1,1,70,0,1
82129,-100,4,1,1,50,0,1
86546,-100,4,2,1,70,0,1
88019,-100,4,2,2,70,0,0
93908,-100,4,1,1,60,0,0
101454,-100,4,2,1,60,0,0
102374,-100,4,1,1,60,0,0
105503,-100,4,2,2,60,0,0

[Colours]
Combo1 : 238,166,253
Combo2 : 241,201,133
Combo3 : 115,211,253
Combo4 : 197,252,152

[HitObjects]
200,304,4092,2,0,B|128:352|48:312,2,160,2|8|2
256,192,6301,1,8
312,80,7037,6,0,B|384:32|464:72,2,160,2|8|2
256,192,9246,2,0,B|256:280,1,79.9999999999999,4|4
256,336,9982,6,0,B|184:376|96:344,1,160,4|8
48,232,11454,1,0
104,120,12190,1,8
232,96,12927,6,0,B|304:56|400:80,1,160,4|8
400,208,14399,2,0,B|328:248|232:224,1,160,4|8
152,136,15871,6,0,B|72:136|16:224|72:312|152:312,1,280,4|4
216,312,17528,2,0,B|280:304|352:320|416:312,1,200,2|4
448,256,18816,6,0,B|496:184|456:96,1,160,4|8
336,56,20289,1,0
272,168,21025,2,0,B|200:208|112:184,1,160,8|2
136,312,22497,2,0,B|208:272|296:296,1,160,8|0
400,224,23970,1,8
376,96,24706,6,0,B|336:64|302:81|302:81|264:64|224:96,1,160,2|8
152,200,26178,2,0,B|189:229|227:212|227:212|261:229|301:197,1,160,0|8
424,176,27651,1,0
456,296,28387,1,8
336,328,29123,2,4,B|280:352|216:344,2,120,4|4|8
328,264,30595,6,0,B|288:192|320:104,1,160,4|8
193,109,32068,2,0,B|224:192|184:264,1,160,0|8
56,256,33540,2,0,B|25:173|65:101,2,160,0|8|0
168,192,35749,1,8
296,192,36485,6,4,B|336:184|376:192|416:200|464:192,2,160,4|8|0
256,72,38694,1,8
216,192,39430,6,4,B|176:200|136:192|96:184|48:192,2,160,4|8|4
256,312,41638,1,8
352,312,42190,6,0,B|424:288|464:192|424:80|352:56,1,320,4|4
256,144,44399,1,2
160,55,45135,6,0,B|88:80|48:192|88:288|160:312,1,320,4|4
256,224,47344,1,2
256,88,48080,6,0,B|304:56|352:32|432:48|464:96|480:152|424:208,1,320,4|4
336,288,50289,1,2
216,328,51025,6,0,B|168:360|120:384|40:368|8:320|-8:264|48:208,1,320,4|4
112,144,53049,2,0,B|128:64,2,79.9999999999999,2|8|2
176,160,54154,2,0,B|256:168|336:192,1,160,4|8
256,192,55626,12,4,56914
256,232,58571,6,0,B|336:272|424:240,1,160,4|8
456,128,60043,1,0
344,64,60779,1,8
224,112,61516,6,0,B|152:144|64:128,1,160,4|8
67,255,62988,2,0,B|152:240|224:272,1,160,0|8
352,304,64460,6,0,B|432:264|432:168,1,160,4|8
320,112,65933,2,0,B|240:152|240:248,1,160,0|8
152,336,67405,5,4
32,288,68141,1,8
144,224,68878,1,0
24,176,69614,1,8
136,112,70350,6,0,B|200:72|296:72,1,160,4|8
240,192,71822,2,0,B|315:189|398:237,1,160,0|8
288,312,73295,5,4
160,288,74031,2,0,B|80:256|0:296,2,160,8|0|8
176,160,76240,6,0,B|256:200|336:160,2,160,4|8|0
256,56,78448,1,8
384,56,79184,6,0,B|432:120|408:208,1,160,4|8
320,296,80657,1,0
192,296,81393,1,8
256,192,82129,12,4,85074
176,64,86546,5,0
176,192,87282,1,2
304,192,88019,6,0,B|344:264|312:352,1,160,2|8
440,344,89491,2,0,B|470:261|430:189,1,160,2|8
376,72,90963,5,2
256,40,91700,1,8
136,72,92436,1,2
81,189,93172,2,0,B|80:272,1,79.9999999999999,4|4
80,336,93908,6,0,B|256:336,1,160,4|8
336,248,95381,2,0,B|160:248,1,160,0|8
80,160,96853,6,0,B|256:160,1,160,4|8
336,72,98325,2,0,B|160:72,1,160,0|8
48,72,99798,6,0,B|64:160|48:208|24:272|48:352,1,280,4|4
112,352,101454,2,0,B|200:312|312:344,1,200,2|4
368,344,102743,6,0,B|432:296|448:192,1,160,4|0
392,96,104215,2,0,B|256:24|120:96,1,280,0|4
