osu file format v5

[General]
AudioFilename: SchoolDaysBadEndRemix.mp3
AudioLeadIn: 0
PreviewTime: -1
Countdown: 1
SampleSet: Normal
StackLeniency: 0.7
Mode: 0
LetterboxInBreaks: 1

[Metadata]
Title:School Days Bad End Remix
Artist:Itou Kanako
Creator:shippokren
Version:NICE BOAT!
Source:
Tags:school days

[Difficulty]
HPDrainRate:8
CircleSize:5
OverallDifficulty:7
SliderMultiplier:1.2
SliderTickRate:1

[Events]
//Background and Video events
0,0,"Konotha.jpg"
//Break Periods
//Storyboard Layer 0 (Background)
//Storyboard Layer 1 (Failing)
//Storyboard Layer 2 (Passing)
//Storyboard Layer 3 (Foreground)
//Storyboard Sound Samples
//Background Colour Transformations
3,100,0,0,0

[TimingPoints]
0,413.209287002454,4,1,0,100,1

[HitObjects]
224,192,3202,1,0
288,192,3925,1,0
160,192,4648,1,0
224,192,5061,1,0
288,192,5475,1,0
160,32,6198,5,0
160,32,6611,1,0
224,32,7127,1,0
224,64,7334,1,0
320,32,8470,5,0
320,32,8883,1,0
320,128,9400,1,0
320,160,9607,1,0
224,128,10743,1,0
224,64,11466,1,0
160,64,11879,1,0
96,64,12189,1,0
128,160,12602,1,0
192,160,12912,2,0,L|192:288,3,120
256,160,14875,5,0
320,160,15288,1,0
352,160,15598,1,0
480,160,16115,1,0
480,128,16321,1,0
384,32,17044,5,0
384,96,17458,1,0
320,96,17871,1,0
224,96,18387,1,0
224,96,18594,1,0
128,192,19317,2,0,L|352:192,1,210
338,192,20453,2,0,L|118:192,1,210
128,96,21590,1,0
160,96,21900,5,0
160,96,22003,2,0,L|352:96,1,180
352,128,23036,1,0
352,128,23139,2,0,L|160:256,1,210
96,192,24172,5,4
96,192,24585,1,0
192,128,25309,1,0
192,128,25928,2,0,L|192:192,1,60
192,224,26445,1,0
192,320,26858,1,0
96,320,27271,1,0
32,320,27581,1,0
32,224,28098,1,0
64,224,28304,1,0
128,224,28718,6,0,L|480:224,1,330
448,160,30370,2,0,L|384:160,1,60
320,160,30990,1,0
288,160,31403,1,0
192,160,31713,1,0
128,160,32127,1,0
64,224,32643,1,0
64,256,32850,1,0
128,320,33160,6,0,L|320:320,1,180,4|0
320,320,33883,1,0
384,256,34193,1,0
384,256,34296,2,0,L|192:256,1,180,4|0
192,256,35019,1,0
96,192,35329,1,0
96,192,35432,2,0,L|224:192,1,120
224,192,35949,2,0,L|352:192,1,120
352,192,36569,2,4,L|462:192,1,90
442,192,37085,1,4
442,192,37292,1,4
256,192,37602,12,0,38428
128,288,38841,5,4
192,288,39564,1,0
256,288,39977,1,0
320,288,40391,1,0
384,288,40701,1,0
480,288,41114,1,0
480,192,41734,1,0
352,192,42147,1,0
416,192,42560,2,0,L|352:192,2,60
416,192,43283,5,4
288,192,44006,1,0
224,192,44419,1,0
160,192,44833,1,0
96,192,45246,1,0
32,192,45556,1,0
32,288,46279,1,0
160,288,46692,1,0
96,288,47105,2,0,L|160:288,2,60
288,288,47828,6,0,L|288:160,1,120
288,160,48552,1,0
224,96,48965,1,0
224,32,49378,1,0
288,96,49895,1,0
288,96,50101,1,0
288,160,50411,1,4
288,160,51237,6,0,L|160:160,1,120
160,160,52167,5,0
160,128,52374,1,0
160,64,52684,1,4
160,64,53510,6,0,L|288:64,2,120
160,160,54646,1,0
160,256,55576,1,0
192,256,55783,1,0
256,256,56093,2,4,L|384:256,1,120,4|0
448,128,56816,6,4,L|256:128,1,180,4|4
224,128,57642,1,4
192,128,57952,1,0
96,128,58365,1,0
96,64,58675,5,0
96,64,59088,6,4,L|288:64,1,180
288,64,60225,1,4
288,128,60948,6,0,L|192:224,1,120
203,212,62084,2,0,L|96:128,1,120
64,160,63221,5,8
64,160,63634,1,8
128,160,64357,1,8
160,160,64563,1,8
192,160,64770,1,8
160,224,65493,5,0
160,256,65803,1,0
192,256,66216,1,0
224,224,66629,1,0
224,160,66939,1,4
224,96,67353,1,0
224,64,67663,1,0
160,160,68076,1,4
160,64,68489,1,0
160,32,68799,1,0
96,64,69212,1,0
96,96,69522,1,0
288,96,70142,5,0
288,96,70348,1,0
288,96,71485,2,0,L|288:224,2,120
288,96,72621,2,0,L|64:96,1,210
32,96,73757,2,0,L|32:320,1,210
64,320,74790,2,0,L|320:160,1,300
318,161,76030,2,0,L|96:64,1,240
64,128,77270,5,0
160,128,78303,1,0
256,128,79439,1,0
192,192,80575,1,0
256,256,81608,1,0
320,192,82641,1,0
448,64,83778,2,0,L|448:288,1,210
384,320,85017,2,0,L|384:96,1,210
256,32,86050,5,4
256,32,86257,6,4,L|256:320,1,270
256,302,87600,1,0
256,320,88323,1,4
256,320,88530,2,4,L|256:160,1,150
256,128,89459,1,4
256,192,90596,1,4
224,192,90906,2,4,L|256:192,2,30
256,160,91422,1,4
256,128,91732,1,4
256,128,92042,2,4,L|288:128,2,30
256,160,92558,1,4
256,192,92765,5,0
288,192,93178,1,4
352,192,93488,1,4
352,192,93591,1,0
352,192,93901,2,4,L|160:192,1,180
192,160,95038,1,0
320,160,95451,1,0
256,128,95967,5,0
256,192,96174,1,0
256,224,97310,1,0
256,160,97723,1,0
256,96,98240,1,0
256,96,98447,1,0
224,192,99583,5,0
224,192,100306,2,0,L|96:192,2,120
224,192,101442,5,0
224,192,101856,1,0
288,192,102165,2,0,L|416:192,2,120
64,64,104128,1,4
128,64,104541,1,0
64,128,105058,1,4
96,128,105265,1,0
160,64,106298,5,4
224,64,106711,1,4
160,128,107331,1,0
192,128,107537,1,0
320,128,108570,1,0
416,192,109707,1,0
256,192,110843,1,0
352,256,111979,1,4
256,192,112702,12,4,113631
416,96,114149,6,4,L|224:96,1,180
160,96,115388,1,0
160,96,115698,2,0,L|128:96,3,30
64,96,116421,2,0,L|64:288,1,180,4|4
64,288,117558,1,0
64,288,117867,2,0,L|96:288,3,30
128,288,118694,1,4
128,256,118900,1,4
128,256,119210,2,4,L|128:128,1,120
128,96,119830,1,0
128,96,120140,2,0,L|160:96,3,30
256,288,120967,2,0,L|256:96,1,180,4|4
256,64,122103,1,0
256,64,122413,2,0,L|224:64,3,30
480,192,123239,6,4,L|256:192,1,210
224,192,124169,1,4
224,192,124375,2,4,L|0:192,1,210
32,128,125305,1,4
32,128,125512,2,4,L|256:128,1,210
288,128,126442,1,4
288,128,126648,2,4,L|512:128,1,210
480,192,127681,5,4
320,192,128094,2,4,L|448:192,1,120
480,192,128817,1,4
288,192,129954,1,4
288,192,130160,6,0,L|256:192,16,30
288,192,132020,5,0
288,192,132226,6,4,L|224:192,10,60
256,192,134499,2,0,L|256:64,1,120
256,64,135222,5,0
256,128,135635,1,0
256,192,136049,1,0
256,256,136359,1,0
256,256,136772,1,0
256,256,137495,6,0,L|256:320,2,60
160,192,138941,5,4
256,192,140077,1,4
352,192,141214,1,4
256,96,141937,1,8
256,96,142350,1,8
96,96,143073,1,0
160,96,143486,1,0
224,96,143900,1,0
256,96,144210,1,0
256,192,144623,5,0
224,224,144984,1,0
192,256,145346,1,0
128,288,145759,5,0
192,320,146069,1,0
256,288,146482,1,0
320,288,146895,1,0
352,288,147205,1,0
256,192,147825,5,0
256,192,148032,1,0
128,128,149065,5,4
192,128,149478,1,0
224,128,149788,1,0
288,128,150201,1,4
288,128,151337,1,4
288,128,151751,2,0,L|96:320,1,270
96,224,153197,1,4
96,224,153610,5,0
160,224,153920,1,0
256,224,154540,1,4
256,224,154746,1,4
256,160,155469,1,0
256,96,155883,1,0
256,64,156193,1,0
416,64,156812,1,4
416,64,157019,1,4
416,128,157742,2,0,L|192:128,1,210
224,128,158775,6,0,L|224:256,4,120
224,128,160738,1,4
224,128,161151,1,4
224,128,161564,1,4
384,256,162081,6,0,L|384:128,1,120
384,128,162907,6,0,L|192:128,1,180
160,128,163734,1,0
128,224,164457,6,0,L|256:224,2,120
64,192,165800,1,0
64,192,166006,1,0
64,192,166729,2,0,L|384:192,1,300
352,128,167866,2,0,L|32:64,1,300
64,160,169312,1,0
64,160,170448,1,4
64,64,171275,1,0
64,64,171585,6,0,L|288:64,1,210
320,64,172514,1,0
320,64,172721,1,0
448,128,173444,2,0,L|96:128,1,330
64,128,174787,1,0
64,128,174994,1,0
64,256,176027,1,0
192,256,176853,1,0
256,256,177266,1,0
320,256,177628,1,0
320,256,177989,1,0
320,192,178299,2,0,L|224:192|192:192|128:192|64:192|64:160|64:128|64:96|64:64|64:64|64:64|128:64|128:64|128:64|128:64|128:64|128:64|128:64,1,420
160,64,180262,5,0
192,64,180572,5,0
288,64,180985,1,0
288,160,181502,1,0
288,128,181708,1,0
224,192,182431,5,0
288,192,182845,1,0
352,192,183258,1,0
448,192,183774,1,0
448,192,183981,1,0
448,192,184704,6,0,L|320:192,1,120
320,192,185530,5,0
448,192,185840,1,0
448,288,186254,1,0
448,320,186563,1,0
320,320,186977,1,0
256,192,187493,12,0,189561
