osu file format v12

[General]
AudioFilename: ragnarok.mp3
AudioLeadIn: 1000
PreviewTime: 64219
Countdown: 0
SampleSet: Normal
StackLeniency: 0.7
Mode: 0
LetterboxInBreaks: 0
WidescreenStoryboard: 0

[Editor]
Bookmarks: 1417,11967,22516,30428,40978,51527,64714,75263,85813,96362,106747
DistanceSpacing: 1.5
BeatDivisor: 4
GridSize: 4

[Metadata]
Title:Ragnarok
TitleUnicode:Ragnarok
Artist:Itou Kanako
ArtistUnicode:いとうかなこ
Creator:Cah-m
Version:Insane
Source:Soukyuu no soleil -FULLMETAL EYES-
Tags:eroge game visual novel skyfish
BeatmapID:251936
BeatmapSetID:93367

[Difficulty]
HPDrainRate:7
CircleSize:4
OverallDifficulty:7
ApproachRate:9
SliderMultiplier:1.8
SliderTickRate:1

[Events]
//Background and Video events
Video,46,"soleil-movie.avi"
0,0,"back.jpg",0,0
//Break Periods
//Storyboard Layer 0 (Background)
//Storyboard Layer 1 (Fail)
//Storyboard Layer 2 (Pass)
//Storyboard Layer 3 (Foreground)
//Storyboard Sound Samples
//Background Colour Transformations
3,100,163,162,255

[TimingPoints]
87,329.67032967033,4,1,0,60,1,0
1240,-166.666666666667,4,2,0,60,0,0
11790,-125,4,2,1,60,0,0
19867,-166.666666666667,4,2,1,40,0,0
20196,-142.857142857143,4,2,1,50,0,0
20526,-125,4,2,1,60,0,0
20856,-111.111111111111,4,2,1,70,0,0
21185,-105.263157894737,4,2,1,80,0,0
21350,-105.263157894737,4,1,1,60,0,0
21845,-83.3333333333333,4,1,1,60,0,0
22174,-100,4,1,1,60,0,0
28933,-125,4,1,1,60,0,0
30416,-111.111111111111,4,1,2,60,0,0
30499,-111.111111111111,4,2,2,60,0,0
51515,-125,4,2,2,60,0,0
62065,-111.111111111111,4,2,2,60,0,0
64207,-111.111111111111,4,1,2,60,0,0
64702,-100,4,1,1,60,0,1
85801,-125,4,2,1,60,0,0
95196,-125,4,2,2,60,0,0
95361,-125,4,2,1,60,0,0
96350,-100,4,1,1,60,0,0
109537,-100,4,2,1,5,0,0

[Colours]
Combo1 : 0,105,210
Combo2 : 255,68,68
Combo3 : 255,131,6
Combo4 : 0,187,187

[HitObjects]
432,240,1240,1,0,0:0:0:0:
364,212,1405,2,0,P|308:208|252:224,1,107.999996704102,2|0,0:0|0:0,0:0:0:0:
196,264,1900,1,2,0:0:0:0:
120,252,2065,1,0,0:0:0:0:
72,196,2229,2,0,P|56:144|62:91,2,107.999996704102,2|2|0,0:0|0:0|0:0,0:0:0:0:
72,196,3054,1,2,0:0:0:0:
256,192,3136,12,0,4043,0:0:0:0:
172,104,6515,5,0,0:0:0:0:
240,72,6680,1,2,0:0:0:0:
316,76,6845,1,0,0:0:0:0:
380,116,7010,2,0,P|400:124|432:128,2,53.9999983520508,2|0|0,0:0|0:0|0:0,0:0:0:0:
312,152,7504,2,0,B|276:200|304:260,2,107.999996704102,2|2|0,0:0|0:0|0:0,0:0:0:0:
312,152,8328,1,2,0:0:0:0:
256,192,8411,12,0,9317,0:0:0:0:
240,112,11790,5,0,0:0:0:0:
240,112,11872,1,0,0:0:0:0:
240,112,11955,2,0,L|320:124,1,72,12|0,0:0|0:0,0:0:0:0:
404,180,12284,2,0,L|476:191,1,72,10|0,0:0|0:0,0:0:0:0:
304,216,12614,2,0,P|288:256|284:288,1,72,10|0,0:0|0:0,0:0:0:0:
404,180,12944,2,0,P|420:140|424:108,1,72,8|0,0:0|0:0,0:0:0:0:
304,32,13273,6,0,B|228:12|244:56|164:44,1,144,10|8,0:0|0:0,0:0:0:0:
20,104,13768,2,0,P|56:104|91:115,1,72,2|8,0:0|0:0,0:0:0:0:
121,211,14097,1,2,0:0:0:0:
212,167,14262,1,8,0:0:0:0:
260,256,14427,6,0,P|264:296|260:332,2,72,2|8|0,0:0|0:0|0:0,0:0:0:0:
168,304,14922,2,0,P|128:312|92:312,1,72,10|0,0:0|0:0,0:0:0:0:
260,256,15251,2,0,P|300:248|336:248,1,72,10|0,0:0|0:0,0:0:0:0:
428,272,15581,2,0,P|472:220|432:168,1,144,10|10,0:0|0:0,0:0:0:0:
328,184,16076,6,0,P|312:144|312:108,1,72,0|8,0:0|0:0,0:0:0:0:
188,100,16405,2,0,P|156:100|112:116,1,72,2|8,0:0|0:0,0:0:0:0:
168,180,16735,1,2,0:0:0:0:
128,24,16900,1,8,0:0:0:0:
32,132,17065,1,8,0:1:0:0:
440,76,17394,5,0,0:0:0:0:
440,76,17477,1,0,0:0:0:0:
440,76,17559,2,0,L|464:152,1,72,10|0,0:0|0:0,0:0:0:0:
412,256,17889,2,0,L|390:187,1,72,10|0,0:0|0:0,0:0:0:0:
284,128,18218,2,0,L|305:196,1,72,8|0,0:0|0:0,0:0:0:0:
340,80,18548,6,0,P|272:56|220:96,1,144,10|8,0:0|0:0,0:0:0:0:
136,164,19043,2,0,P|100:184|64:192,1,72,2|8,0:0|0:0,0:0:0:0:
136,164,19372,1,2,0:0:0:0:
208,196,19537,1,8,0:0:0:0:
288,200,19702,1,0,0:0:0:0:
360,172,19867,6,0,L|424:168,1,53.9999983520508,2|0,0:0|0:0,0:0:0:0:
256,268,20196,2,0,L|188:272,1,62.9999980773926,2|0,0:0|0:0,0:0:0:0:
228,88,20526,2,0,L|308:84,1,72,2|0,0:0|0:0,0:0:0:0:
108,192,20856,2,0,L|27:195,1,80.9999975280763,2|0,0:0|0:0,0:0:0:0:
208,124,21185,1,2,0:0:0:0:
372,168,21350,5,0,0:0:0:0:
382,194,21432,1,0,0:0:0:0:
385,222,21514,1,0,0:0:0:0:
378,250,21597,1,0,0:0:0:0:
363,274,21679,1,0,0:0:0:0:
342,292,21762,1,0,0:0:0:0:
315,303,21845,2,0,P|260:316|208:316,1,107.999996704102,8|0,0:0|0:0,0:0:0:0:
84,156,22174,5,8,0:0:0:0:
84,156,22257,1,0,0:0:0:0:
84,156,22339,1,0,0:0:0:0:
84,156,22422,1,0,0:0:0:0:
84,156,22504,2,0,P|176:160|228:96,1,180,4|8,0:0|0:0,0:0:0:0:
136,76,22999,1,0,0:0:0:0:
196,244,23163,1,2,0:2:0:0:
300,188,23328,2,0,P|344:172|392:172,1,90,0|8,0:0|0:0,0:0:0:0:
507,292,23658,6,0,P|430:335|342:328,1,180,4|0,0:2|0:0,0:0:0:0:
232,288,24152,1,8,0:0:0:0:
342,329,24317,1,0,0:0:0:0:
440,212,24482,2,0,B|452:120,1,90,2|0,2:0|0:0,0:0:0:0:
344,40,24812,2,0,B|332:132,1,90,8|0,0:0|0:0,0:0:0:0:
440,40,25141,5,4,0:2:0:0:
172,88,25471,2,0,P|128:96|83:92,1,90,8|0,0:0|0:0,0:0:0:0:
256,140,25801,1,2,0:2:0:0:
256,140,25966,2,0,L|264:232,1,90,0|8,0:0|0:0,0:0:0:0:
328,112,26295,6,0,P|260:60|188:104,1,180,4|0,0:2|0:0,0:0:0:0:
156,208,26790,2,0,P|148:251|132:294,1,90,8|0,0:0|0:0,0:0:0:0:
65,228,27119,1,2,0:2:0:0:
226,278,27284,1,0,0:0:0:0:
332,132,27449,1,8,0:0:0:0:
332,132,27532,1,0,0:0:0:0:
332,132,27614,1,0,0:0:0:0:
332,132,27696,1,0,0:0:0:0:
332,132,27779,6,0,P|376:112|424:112,2,90,4|0|8,0:0|0:0|0:0,0:0:0:0:
208,204,28273,2,0,P|166:202|122:182,1,90,0|2,0:0|0:2,0:0:0:0:
188,100,28603,1,0,0:0:0:0:
232,300,28768,1,8,0:0:0:0:
408,192,28933,6,0,P|424:116|381:72,1,144,4|0,0:2|0:0,0:0:0:0:
244,160,29427,1,0,0:0:0:0:
108,248,29592,6,0,P|65:204|81:128,1,144,4|0,0:2|0:0,0:0:0:0:
244,160,30086,1,0,0:0:0:0:
248,177,30169,1,0,0:0:0:0:
252,194,30251,1,0,0:0:0:0:
256,211,30334,1,0,0:0:0:0:
261,230,30416,6,0,P|345:228|417:199,1,161.999995056153,4|8,0:0|0:0,0:0:0:0:
360,120,30911,2,0,P|348:80|347:41,1,80.9999975280763,0|2,0:0|0:0,0:0:0:0:
444,60,31240,1,0,0:0:0:0:
360,120,31405,1,0,0:0:0:0:
244,60,31570,6,0,P|161:55|85:79,1,161.999995056153,8|0,0:0|0:0,0:0:0:0:
28,192,32065,2,0,P|60:208|104:212,1,80.9999975280763,8|0,0:0|0:0,0:0:0:0:
186,145,32394,1,2,0:0:0:0:
231,257,32559,1,0,0:0:0:0:
308,164,32724,2,0,P|312:124|328:84,1,80.9999975280763,8|0,0:0|0:0,0:0:0:0:
440,52,33054,6,0,B|484:120|460:212,1,161.999995056153,4|8,0:0|0:0,0:0:0:0:
352,328,33548,1,0,0:0:0:0:
352,328,33713,2,0,L|273:346,1,80.9999975280763,2|0,0:0|0:0,0:0:0:0:
132,300,34043,1,0,0:0:0:0:
228,212,34207,6,0,P|255:136|261:55,1,161.999995056153,8|0,0:0|0:0,0:0:0:0:
136,88,34702,2,0,L|56:72,1,80.9999975280763,8|0,0:0|0:0,0:0:0:0:
44,69,34949,1,0,0:0:0:0:
31,66,35032,1,2,0:0:0:0:
96,180,35196,1,0,0:0:0:0:
240,64,35361,1,8,0:0:0:0:
336,124,35526,5,0,0:0:0:0:
336,124,35608,1,0,0:0:0:0:
336,124,35691,2,0,P|384:136|424:136,1,80.9999975280763,4|0,0:0|0:0,0:0:0:0:
240,64,36021,2,0,P|192:52|152:52,1,80.9999975280763,8|0,0:0|0:0,0:0:0:0:
92,132,36350,2,0,P|44:144|4:144,2,80.9999975280763,2|0|0,0:0|0:0|0:0,0:0:0:0:
168,176,36845,6,0,P|204:240|172:324,1,161.999995056153,8|0,0:0|0:0,0:0:0:0:
96,348,37339,2,0,P|64:348|16:340,1,80.9999975280763,8|0,0:0|0:0,0:0:0:0:
132,252,37669,1,2,0:0:0:0:
278,252,37834,1,0,0:0:0:0:
338,120,37999,1,8,0:0:0:0:
398,208,38163,5,0,0:0:0:0:
398,208,38246,1,0,0:0:0:0:
398,208,38328,2,0,P|450:216|490:216,2,80.9999975280763,4|0|8,0:0|0:0|0:0,0:0:0:0:
278,252,38823,1,0,0:0:0:0:
176,192,38988,2,0,P|132:180|92:184,1,80.9999975280763,2|0,0:0|0:0,0:0:0:0:
188,304,39317,1,8,0:0:0:0:
272,136,39482,6,0,P|292:96|296:56,1,80.9999975280763,4|0,0:0|0:0,0:0:0:0:
184,80,39812,1,2,0:0:0:0:
232,236,39977,1,8,0:0:0:0:
364,144,40141,2,0,P|404:136|444:140,1,80.9999975280763,4|0,0:0|0:0,0:0:0:0:
344,268,40471,2,0,L|344:352,1,80.9999975280763,2|8,0:0|0:0,0:0:0:0:
188,304,40801,5,0,0:0:0:0:
188,304,40883,1,0,0:0:0:0:
188,304,40966,2,0,P|112:320|60:256,1,161.999995056153,4|8,0:0|0:0,0:0:0:0:
164,168,41460,1,0,0:0:0:0:
164,168,41625,2,0,L|136:244,1,80.9999975280763,2|2,0:0|0:0,0:0:0:0:
362,331,42119,6,0,P|402:343|446:339,1,80.9999975280763,10|0,0:0|0:0,0:0:0:0:
508,232,42449,1,0,0:0:0:0:
508,232,42532,1,0,0:0:0:0:
508,232,42614,2,0,L|516:148,1,80.9999975280763,8|0,0:0|0:0,0:0:0:0:
376,104,42944,2,0,L|368:188,1,80.9999975280763,2|0,0:0|0:0,0:0:0:0:
292,308,43273,2,0,P|248:320|200:320,1,80.9999975280763,8|0,0:0|0:0,0:0:0:0:
156,212,43603,6,0,P|232:176|312:192,1,161.999995056153,4|8,0:0|0:0,0:0:0:0:
388,240,44097,1,0,0:0:0:0:
388,240,44262,2,0,P|428:256|465:257,1,80.9999975280763,2|0,0:0|0:0,0:0:0:0:
432,112,44592,1,0,0:0:0:0:
306,188,44757,6,0,P|264:200|224:196,1,80.9999975280763,10|0,0:0|0:0,0:0:0:0:
92,144,45087,2,0,L|12:132,1,80.9999975280763,0|8,0:0|0:0,0:0:0:0:
196,92,45416,1,0,0:0:0:0:
196,92,45499,1,0,0:0:0:0:
196,92,45581,1,2,0:0:0:0:
140,244,45746,1,0,0:0:0:0:
256,200,45911,6,0,P|300:196|344:208,1,80.9999975280763,8|0,0:0|0:0,0:0:0:0:
347,215,46158,1,0,0:0:0:0:
359,226,46241,2,0,P|394:234|438:230,1,80.9999975280763,4|0,0:0|0:0,0:0:0:0:
292,288,46570,5,8,0:0:0:0:
408,148,46735,1,0,0:0:0:0:
356,32,46900,1,2,0:0:0:0:
268,72,47065,2,0,P|228:76|188:72,1,80.9999975280763
52,104,47394,6,0,P|56:196|80:264,1,161.999995056153,8|0,0:0|0:0,0:0:0:0:
219,164,47889,2,0,P|180:168|140:176,1,80.9999975280763,8|0,0:0|0:0,0:0:0:0:
280,260,48218,1,2,0:0:0:0:
392,212,48383,1,0,0:0:0:0:
300,132,48548,2,0,P|288:96|280:52,1,80.9999975280763,8|0,0:0|0:0,0:0:0:0:
412,12,48878,6,0,P|473:64|459:139,1,161.999995056153,4|8,0:0|0:0,0:0:0:0:
392,212,49372,2,0,L|384:292,1,80.9999975280763,0|2,0:0|0:0,0:0:0:0:
300,132,49702,5,0,0:0:0:0:
204,284,49867,1,8,0:0:0:0:
383,292,50032,1,4,0:0:0:0:
172,44,50361,5,0,0:0:0:0:
88,140,50526,2,0,L|96:224,1,80.9999975280763,10|0,0:0|0:0,0:0:0:0:
98,236,50773,1,0,0:0:0:0:
100,252,50856,1,8,0:0:0:0:
208,220,51021,1,0,0:0:0:0:
300,284,51185,1,2,0:0:0:0:
192,320,51350,1,0,0:0:0:0:
323,205,51515,6,0,P|393:182|456:208,1,144,4|2,0:0|0:0,0:0:0:0:
268,300,52174,1,2,0:0:0:0:
192,320,52339,1,0,0:0:0:0:
112,308,52504,1,0,0:0:0:0:
56,252,52669,2,0,P|44:220|44:172,1,72,2|8,0:0|0:0,0:0:0:0:
232,40,53163,6,0,P|284:84|292:156,2,144,2|2|0,0:0|0:0|0:0,0:0:0:0:
152,76,53988,2,0,L|80:76,1,72,0|4,0:0|0:0,0:0:0:0:
236,224,54483,2,0,L|308:224,1,72,2|0,0:0|0:0,0:0:0:0:
372,168,54812,6,0,P|424:112|492:116,2,144,2|0|2,0:0|0:0|0:0,0:0:0:0:
296,340,55801,2,0,P|221:322|190:262,2,144,0|10|0,0:0|0:0|0:0,0:0:0:0:
340,216,56625,1,2,0:0:0:0:
432,308,56790,1,4,0:0:0:0:
228,236,57119,6,0,P|188:232|148:232,1,72,2|0,0:0|0:0,0:0:0:0:
92,336,57449,2,0,P|68:264|72:192,1,144,2|0,0:0|0:0,0:0:0:0:
120,116,57944,2,0,L|132:40,1,72,2|8,0:0|0:0,0:0:0:0:
340,104,58438,6,0,L|411:115,1,72,2|0,0:0|0:0,0:0:0:0:
280,176,58768,2,0,P|208:188|138:179,1,144,2|0,0:0|0:0,0:0:0:0:
240,88,59262,6,0,P|248:48|252:16,1,72,0|4,0:0|0:0,0:0:0:0:
138,179,59757,2,0,P|130:219|126:251,1,72
236,236,60087,2,0,P|276:244|308:248,2,72,2|0|2,0:0|0:0|0:0,0:0:0:0:
52,120,60746,6,0,P|20:188|20:260,2,144,10|0|10,0:0|0:0|0:0,0:0:0:0:
148,68,61570,2,0,P|184:80|224:84,1,72,0|2,0:0|0:0,0:0:0:0:
308,60,61900,1,0,0:0:0:0:
416,172,62065,5,12,0:0:0:0:
414,285,62229,1,0,0:0:0:0:
316,227,62394,1,0,0:0:0:0:
457,174,62559,5,12,0:0:0:0:
391,320,62723,1,0,0:0:0:0:
297,189,62888,1,0,0:0:0:0:
499,200,63054,5,12,0:0:0:0:
346,344,63218,1,0,0:0:0:0:
160,300,63383,6,0,L|72:288,1,80.9999975280763,0|8,0:0|0:0,0:0:0:0:
12,148,63713,2,0,L|92:158,1,80.9999975280763,8|8,0:0|0:0,0:0:0:0:
184,92,64043,5,2,0:0:0:0:
252,224,64207,1,0,0:0:0:0:
280,241,64289,1,0,0:0:0:0:
313,247,64371,1,0,0:0:0:0:
347,243,64454,1,0,0:0:0:0:
376,227,64536,1,0,0:0:0:0:
399,203,64619,1,0,0:0:0:0:
413,172,64702,6,0,P|459:155|499:154,1,90
336,96,65032,1,8,0:0:0:0:
228,200,65197,1,0,0:0:0:0:
191,54,65361,1,2,0:2:0:0:
312,180,65527,5,0,0:0:0:0:
275,33,65692,1,8,0:0:0:0:
167,138,65856,2,0,P|144:216|208:278,1,180,2|0,0:2|0:0,0:0:0:0:
312,220,66350,2,0,P|309:175|284:138,1,90,8|0,0:0|0:0,0:0:0:0:
208,279,66680,5,2,0:2:0:0:
340,316,66845,1,0,0:0:0:0:
412,192,67010,2,0,L|508:195,1,90,8|0,0:0|0:0,0:0:0:0:
440,108,67339,6,4,L|460:20,1,90,2|0,0:2|0:0,0:0:0:0:
320,140,67669,2,0,P|272:148|220:144,1,90,8|0,0:0|0:0,0:0:0:0:
256,48,67999,1,2,0:2:0:0:
188,236,68163,1,0,0:0:0:0:
120,108,68328,5,8,0:0:0:0:
296,188,68493,2,0,P|388:200|480:172,1,180,2|0,0:2|0:0,0:0:0:0:
508,56,68988,2,0,P|468:40|420:36,1,90,8|0,0:0|0:0,0:0:0:0:
288,88,69317,2,0,P|241:83|201:67,1,90,2|0,0:2|0:0,0:0:0:0:
64,16,69647,1,8,0:0:0:0:
58,42,69729,1,0,0:0:0:0:
52,68,69812,1,0,0:0:0:0:
46,94,69894,1,0,0:0:0:0:
40,120,69977,6,0,L|19:209,1,90,4|0,0:2|0:0,0:0:0:0:
136,208,70306,2,0,P|181:289|125:354,1,180,8|2,0:0|0:2,0:0:0:0:
80,280,70801,1,0,0:0:0:0:
260,288,70966,1,8,0:0:0:0:
344,172,71130,6,0,P|356:124|356:83,1,90,2|0,0:2|0:0,0:0:0:0:
200,120,71461,2,0,L|108:112,2,90,2|8|0,0:2|0:0|0:0,0:0:0:0:
272,192,71955,2,0,P|343:249|411:204,1,180,2|8,0:2|0:0,0:0:0:0:
352,96,72449,5,0,0:0:0:0:
160,288,72614,2,0,L|70:288,1,90,4|0,0:2|0:0,0:0:0:0:
272,192,72944,1,8,0:0:0:0:
380,256,73108,2,0,L|476:256,1,90,4|0,0:0|0:0,0:0:0:0:
352,96,73438,1,2,0:2:0:0:
272,192,73603,1,8,0:0:0:0:
144,148,73768,6,0,P|100:156|56:152,2,90,4|0|0,0:2|0:0|0:0,0:0:0:0:
264,100,74262,2,0,P|308:92|352:96,1,90,2|0,0:2|0:0,0:0:0:0:
500,252,74592,1,2,0:2:0:0:
348,352,74757,5,0,0:0:0:0:
310,352,74839,1,0,0:0:0:0:
275,339,74921,1,0,0:0:0:0:
248,315,75004,1,0,0:0:0:0:
231,281,75086,1,0,0:0:0:0:
228,244,75169,1,0,0:0:0:0:
238,208,75252,6,0,P|247:169|239:118,1,90,4|0,0:0|0:0,0:0:0:0:
140,73,75581,1,8,0:0:0:0:
342,181,75746,1,0,0:0:0:0:
187,231,75911,1,2,0:2:0:0:
292,44,76076,2,0,L|392:36,1,90,0|8,0:0|0:0,0:0:0:0:
488,104,76405,6,0,P|504:192|432:228,1,180,2|0,0:2|0:0,0:0:0:0:
312,192,76900,2,0,L|216:184,1,90,8|0,0:0|0:0,0:0:0:0:
128,156,77229,1,2,0:2:0:0:
244,268,77394,1,0,0:0:0:0:
283,111,77559,1,8,0:0:0:0:
152,240,77724,5,0,0:0:0:0:
312,192,77889,2,0,L|408:192,1,90,2|0,0:2|0:0,0:0:0:0:
244,268,78218,1,8,0:0:0:0:
192,84,78383,2,0,P|148:68|100:64,2,90,2|0|0,0:2|0:0|0:0,0:0:0:0:
312,192,78878,1,8,0:0:0:0:
348,52,79043,6,0,P|432:8|491:54,1,180,2|0,0:2|0:0,0:0:0:0:
456,136,79537,2,0,P|444:184|444:228,1,90,8|0,0:0|0:0,0:0:0:0:
348,344,79867,5,2,0:2:0:0:
288,204,80032,1,0,0:0:0:0:
188,280,80196,1,8,0:0:0:0:
188,280,80279,1,0,0:0:0:0:
188,280,80361,1,0,0:0:0:0:
188,280,80444,1,0,0:0:0:0:
188,280,80526,6,0,L|96:268,1,90,4|0,0:2|0:0,0:0:0:0:
52,100,80856,2,0,L|144:112,1,90,8|0,0:0|0:0,0:0:0:0:
224,160,81185,1,2,0:2:0:0:
328,12,81350,1,0,0:0:0:0:
208,52,81515,5,8,0:0:0:0:
364,144,81680,2,0,P|404:220|348:292,1,180,4|0,0:0|0:0,0:0:0:0:
296,208,82174,2,0,L|206:200,1,90,8|0,0:0|0:0,0:0:0:0:
256,96,82504,5,2,0:2:0:0:
156,304,82669,1,0,0:0:0:0:
14,124,82834,2,0,L|104:132,1,90,8|0,0:0|0:0,0:0:0:0:
212,196,83163,5,8,0:0:0:0:
392,180,83328,1,8,0:0:0:0:
216,188,83493,5,8,0:0:0:0:
387,187,83658,1,8,0:0:0:0:
280,284,83823,2,0,L|272:384,2,90,2|0|8,0:2|0:0|0:0,0:0:0:0:
292,56,84317,5,4,0:2:0:0:
292,56,84812,1,8,0:0:0:0:
292,56,85141,5,2,0:2:0:0:
180,196,85306,2,0,L|88:200,2,90,4|0|0,0:0|0:0|0:0,0:0:0:0:
365,123,85801,5,12,0:0:0:0:
365,123,86130,2,0,P|369:81|378:41,1,72,8|0,0:0|0:0,0:0:0:0:
284,164,86460,2,0,P|279:205|271:245,1,72,10|0,0:0|0:0,0:0:0:0:
340,324,86790,2,0,P|276:356|204:348,2,144,8|10|8,0:0|0:0|0:0,0:0:0:0:
392,236,87614,6,0,L|464:240,1,72,2|8,0:0|0:0,0:0:0:0:
304,160,87944,2,0,L|232:156,1,72,2|8,0:0|0:0,0:0:0:0:
128,208,88273,2,0,P|88:224|48:224,2,72,2|8|0,0:0|0:0|0:0,0:0:0:0:
196,152,88768,6,0,L|204:80,1,72,10|0,0:0|0:0,0:0:0:0:
320,20,89097,2,0,L|312:92,1,72,10|0,0:0|0:0,0:0:0:0:
428,148,89427,2,0,L|436:76,1,72,10|0,0:0|0:0,0:0:0:0:
360,200,89757,6,0,P|340:268|340:344,1,144,10|8,0:0|0:0,0:0:0:0:
460,324,90251,2,0,P|468:284|468:248,1,72,2|8,0:0|0:0,0:0:0:0:
360,200,90581,2,0,P|320:192|284:192,1,72,2|8,0:0|0:0,0:0:0:0:
160,256,90911,5,0,0:0:0:0:
147,263,90993,1,0,0:0:0:0:
134,270,91076,2,0,L|62:270,1,72,12|0,0:0|0:0,0:0:0:0:
240,176,91405,2,0,L|312:176,1,72,10|0,0:0|0:0,0:0:0:0:
156,112,91735,2,0,P|88:84|20:96,2,144,10|8|10,0:0|0:0|0:0,0:0:0:0:
376,44,92724,5,8,0:0:0:0:
440,132,92889,2,0,P|448:168|448:208,1,72,2|8,0:0|0:0,0:0:0:0:
344,300,93218,2,0,P|336:264|335:229,2,72,2|8|2,0:0|0:0|0:0,0:0:0:0:
252,356,93713,6,0,L|180:364,1,72,8|0,0:0|0:0,0:0:0:0:
68,300,94043,2,0,P|32:236|32:164,1,144,10|10,0:0|0:0,0:0:0:0:
76,92,94537,2,0,P|115:85|151:82,1,72,0|8,0:0|0:0,0:0:0:0:
244,160,94867,6,0,P|324:164|376:128,1,144,2|4,0:0|0:0,0:0:0:0:
296,76,95361,1,10,0:0:0:0:
328,248,95526,1,0,0:0:0:0:
374,129,95691,6,0,L|452:108,1,72,8|0,0:3|0:0,0:0:0:0:
328,248,96021,2,0,L|250:269,1,72,4|0,0:3|0:0,0:0:0:0:
120,324,96350,5,4,0:0:0:0:
40,236,96515,1,0,0:0:0:0:
160,216,96680,2,0,P|208:224|252:220,1,90,8|0,0:0|0:0,0:0:0:0:
424,132,97010,2,0,P|376:124|336:128,1,90,2|0,0:2|0:0,0:0:0:0:
208,176,97339,2,0,L|200:272,1,90,8|0,0:0|0:0,0:0:0:0:
344,348,97669,6,0,P|436:356|492:296,1,180,2|8,0:2|0:0,0:0:0:0:
412,196,98163,1,2,0:2:0:0:
440,72,98328,1,0,0:0:0:0:
340,24,98493,2,0,P|296:16|248:16,1,90,0|8,0:0|0:0,0:0:0:0:
132,60,98823,6,0,L|40:52,2,90,2|0|0,0:2|0:0|0:0,0:0:0:0:
280,116,99317,2,0,L|372:124,1,90,8|0,0:0|0:0,0:0:0:0:
200,180,99647,2,0,P|152:208|112:212,1,90,2|0,0:2|0:0,0:0:0:0:
201,100,99977,2,0,P|274:141|268:228,1,180,8|2,0:0|0:2,0:0:0:0:
129,237,100471,6,0,P|110:275|98:321,1,90,0|8,0:0|0:0,0:0:0:0:
200,180,100802,1,2,0:2:0:0:
34,234,100966,1,0,0:0:0:0:
200,288,101131,2,0,L|295:288,1,90,2|8,0:2|0:0,0:0:0:0:
98,321,101460,1,0,0:0:0:0:
98,147,101625,5,4,0:0:0:0:
388,52,101955,2,0,L|480:48,1,90,12|0,0:0|0:0,0:0:0:0:
312,124,102284,2,0,P|264:136|216:136,1,90,2|0,0:2|0:0,0:0:0:0:
164,48,102614,1,12,0:0:0:0:
223,136,102779,1,0,0:0:0:0:
160,248,102944,6,0,L|152:337,1,90,4|0,0:0|0:0,0:0:0:0:
232,296,103273,1,12,0:0:0:0:
80,240,103438,1,0,0:0:0:0:
236,184,103603,2,0,P|284:172|324:171,1,90,2|0,0:2|0:0,0:0:0:0:
88,80,103933,2,0,P|40:92|-4:92,1,90,12|0,0:0|0:0,0:0:0:0:
160,132,104262,5,4,0:0:0:0:
324,171,104427,1,0,0:0:0:0:
204,292,104592,2,0,P|160:304|112:304,1,90,12|0,0:0|0:0,0:0:0:0:
324,171,104922,1,8,0:0:0:0:
353,154,105004,1,0,0:0:0:0:
386,147,105086,1,0,0:0:0:0:
419,151,105169,1,0,0:0:0:0:
450,164,105251,1,0,0:0:0:0:
312,320,105416,5,4,0:2:0:0:
200,64,105746,5,0,0:0:0:0:
124,228,105911,1,8,0:0:0:0:
304,212,106076,1,0,0:0:0:0:
304,212,106158,1,0,0:0:0:0:
304,212,106240,1,2,0:2:0:0:
208,172,106405,5,0,0:0:0:0:
388,156,106570,1,0,0:0:0:0:
312,320,106735,1,4,0:0:0:0:
256,192,106817,12,0,109537,0:0:0:0:
