osu file format v12

[General]
AudioFilename: ragnarok.mp3
AudioLeadIn: 1000
PreviewTime: 64219
Countdown: 0
SampleSet: Normal
StackLeniency: 0.7
Mode: 0
LetterboxInBreaks: 0
WidescreenStoryboard: 0

[Editor]
Bookmarks: 1417,11967,22516,30428,36845,40978,51527,64714,75263,85813,96362,106747
DistanceSpacing: 1.5
BeatDivisor: 4
GridSize: 4

[Metadata]
Title:Ragnarok
TitleUnicode:Ragnarok
Artist:Itou Kanako
ArtistUnicode:いとうかなこ
Creator:Cah-m
Version:Hard
Source:Soukyuu no soleil -FULLMETAL EYES-
Tags:eroge game visual novel skyfish
BeatmapID:251935
BeatmapSetID:93367

[Difficulty]
HPDrainRate:6
CircleSize:4
OverallDifficulty:5
ApproachRate:7
SliderMultiplier:1.5
SliderTickRate:1

[Events]
//Background and Video events
Video,46,"soleil-movie.avi"
0,0,"back.jpg",0,0
//Break Periods
//Storyboard Layer 0 (Background)
//Storyboard Layer 1 (Fail)
//Storyboard Layer 2 (Pass)
//Storyboard Layer 3 (Foreground)
//Storyboard Sound Samples
//Background Colour Transformations
3,100,163,162,255

[TimingPoints]
87,329.67032967033,4,1,0,60,1,0
1240,-125,4,2,0,60,0,0
11790,-111.111111111111,4,2,1,60,0,0
21185,-111.111111111111,4,2,1,80,0,0
21350,-100,4,1,1,60,0,0
28933,-125,4,1,1,60,0,0
30416,-111.111111111111,4,1,2,60,0,0
30499,-111.111111111111,4,2,2,60,0,0
51515,-125,4,2,2,60,0,0
62065,-111.111111111111,4,2,2,60,0,0
64207,-111.111111111111,4,1,2,60,0,0
64702,-100,4,1,1,60,0,1
85801,-125,4,2,1,60,0,0
95196,-125,4,2,2,60,0,0
95361,-125,4,2,1,60,0,0
96350,-100,4,1,1,60,0,0
109537,-100,4,2,1,5,0,0

[Colours]
Combo1 : 0,105,210
Combo2 : 255,68,68
Combo3 : 255,131,6
Combo4 : 0,187,187

[HitObjects]
112,140,1241,1,0,0:0:0:0:
112,140,1406,2,0,P|108:200|136:264,1,120,2|0,0:0|0:0,0:0:0:0:
196,212,1900,2,0,L|260:200,1,60,2|0,0:0|0:0,0:0:0:0:
324,160,2230,2,0,P|345:214|341:274,2,120,2|2|0,0:0|0:0|0:0,0:0:0:0:
324,160,3054,1,2,0:0:0:0:
256,192,3136,12,0,4043,0:0:0:0:
376,96,6515,5,0,0:0:0:0:
376,96,6680,2,0,P|344:88|312:84,1,60,2|0,0:0|0:0,0:0:0:0:
244,116,7010,2,0,P|212:124|180:128,2,60,2|0|0,0:0|0:0|0:0,0:0:0:0:
308,160,7505,2,0,P|319:224|308:278,2,120,2|2|0,0:0|0:0|0:0,0:0:0:0:
308,160,8329,1,2,0:0:0:0:
256,192,8411,12,0,9317,0:0:0:0:
104,80,11790,5,0,0:0:0:0:
104,80,11873,1,0,0:0:0:0:
104,80,11955,2,0,P|84:152|100:216,1,134.999995880127,12|8,0:0|0:0,0:0:0:0:
148,272,12450,1,0,0:0:0:0:
148,272,12614,2,0,P|184:264|216:264,1,67.4999979400635,10|0,0:0|0:0,0:0:0:0:
307,287,12944,2,0,P|373:285|418:237,2,134.999995880127,8|10|8,0:0|0:0|0:0,0:0:0:0:
340,212,13768,2,0,P|332:144|308:80,1,134.999995880127,2|0,0:0|0:0,0:0:0:0:
220,32,14263,1,8,0:0:0:0:
220,32,14428,6,0,L|80:48,1,134.999995880127,2|0,0:0|0:0,0:0:0:0:
116,124,14922,2,0,P|120:160|116:192,1,67.4999979400635,10|0,0:0|0:0,0:0:0:0:
59,251,15252,2,0,P|120:276|178:245,2,134.999995880127,10|8|10,0:0|0:0|0:0,0:0:0:0:
236,132,16241,1,8,0:0:0:0:
236,132,16405,2,0,P|293:101|354:125,1,134.999995880127,2|0,0:0|0:0,0:0:0:0:
423,200,16900,1,8,0:0:0:0:
457,104,17065,1,8,0:0:0:0:
488,304,17395,5,0,0:0:0:0:
488,304,17559,2,0,L|420:316,1,67.4999979400635,10|0,0:0|0:0,0:0:0:0:
352,276,17889,2,0,P|284:276|216:292,1,134.999995880127,10|8,0:0|0:0,0:0:0:0:
92,132,18548,2,0,P|160:132|228:116,1,134.999995880127,10|8,0:0|0:0,0:0:0:0:
269,48,19043,2,0,P|309:100|291:163,1,134.999995880127,2|0,0:0|0:0,0:0:0:0:
238,224,19537,2,0,P|230:260|230:296,1,67.4999979400635,10|0,0:0|0:0,0:0:0:0:
320,344,19867,6,0,L|392:340,1,67.4999979400635,10|0,0:0|0:0,0:0:0:0:
348,268,20197,2,0,L|420:264,1,67.4999979400635,10|0,0:0|0:0,0:0:0:0:
376,192,20526,2,0,L|448:188,1,67.4999979400635,10|0,0:0|0:0,0:0:0:0:
404,116,20856,2,0,L|471:112,1,67.4999979400635,10|0,0:0|0:0,0:0:0:0:
324,56,21186,5,10,0:0:0:0:
236,100,21351,2,0,L|192:112,5,37.5,0|0|0|0|0|8,0:0|0:0|0:0|0:0|0:0|0:0,0:0:0:0:
152,96,21845,2,0,P|112:92|72:92,1,75,8|0,0:0|0:0,0:0:0:0:
32,192,22175,2,0,P|60:264|128:264,1,150,8|4,0:0|0:0,0:0:0:0:
304,184,22834,6,0,L|384:176,1,75,8|0,0:0|0:0,0:0:0:0:
442,252,23164,1,2,0:2:0:0:
442,252,23329,2,0,L|368:260,1,75,0|8,0:0|0:0,0:0:0:0:
312,340,23658,2,0,P|240:324|160:332,1,150,4|0,0:2|0:0,0:0:0:0:
84,324,24153,2,0,P|48:308|24:276,1,75,8|0,0:0|0:0,0:0:0:0:
100,248,24483,2,0,P|85:211|91:171,2,75,2|0|8,0:2|0:0|0:0,0:0:0:0:
256,84,25142,5,4,0:2:0:0:
364,264,25472,1,8,0:0:0:0:
496,104,25801,2,0,P|508:72|512:24,2,75,2|0|8,0:2|0:0|0:0,0:0:0:0:
428,56,26296,2,0,P|348:60|304:112,1,150,4|0,0:2|0:0,0:0:0:0:
348,180,26790,2,0,P|272:188|224:132,1,150,8|2,0:0|0:2,0:0:0:0:
176,72,27285,1,0,0:0:0:0:
176,72,27450,2,0,P|136:72|96:80,1,75,8|0,0:0|0:0,0:0:0:0:
140,160,27779,6,0,P|136:232|148:316,2,150,4|8|2,0:0|0:0|0:2,0:0:0:0:
226,100,28603,1,0,0:0:0:0:
283,187,28768,1,8,0:0:0:0:
390,148,28933,6,0,P|396:91|380:31,1,120,4|0,0:0|0:0,0:0:0:0:
122,236,29592,2,0,P|116:293|132:353,1,120,4|0,0:0|0:0,0:0:0:0:
132,353,30087,1,0,0:0:0:0:
349,278,30417,6,0,P|417:270|481:294,2,134.999995880127,4|8|2,0:0|0:0|0:0,0:0:0:0:
349,278,31241,1,0,0:0:0:0:
281,322,31406,1,0,0:0:0:0:
273,242,31570,2,0,P|249:182|257:102,1,134.999995880127,8|0,0:0|0:0,0:0:0:0:
199,51,32065,2,0,L|131:43,1,67.4999979400635,8|0,0:0|0:0,0:0:0:0:
47,115,32395,2,0,L|115:123,1,67.4999979400635,2|0,0:0|0:0,0:0:0:0:
114,122,32724,1,8,0:0:0:0:
255,243,33054,6,0,P|306:286|371:278,1,134.999995880127,4|8,0:0|0:0,0:0:0:0:
412,208,33548,1,0,0:0:0:0:
452,278,33713,2,0,P|460:314|461:348,2,67.4999979400635,2|0|0,0:0|0:0|0:0,0:0:0:0:
452,278,34208,1,8,0:0:0:0:
261,346,34537,1,0,0:0:0:0:
261,346,34702,2,0,L|173:330,1,67.4999979400635,8|0,0:0|0:0,0:0:0:0:
130,283,35032,2,0,P|102:279|58:287,2,67.4999979400635,2|0|8,0:0|0:0|0:0,0:0:0:0:
200,240,35526,5,0,0:0:0:0:
200,240,35609,1,0,0:0:0:0:
200,239,35691,2,0,P|212:175|193:110,1,134.999995880127,4|8,0:0|0:0,0:0:0:0:
260,64,36185,1,0,0:0:0:0:
340,88,36351,2,0,P|328:152|348:218,1,134.999995880127,2|0,0:0|0:0,0:0:0:0:
420,156,36845,2,0,P|439:221|427:285,1,134.999995880127,8|0,0:0|0:0,0:0:0:0:
348,312,37340,2,0,L|332:380,2,67.4999979400635,8|0|2,0:0|0:0|0:0,0:0:0:0:
348,312,37834,1,0,0:0:0:0:
304,244,37999,2,0,P|272:232|236:228,1,67.4999979400635,8|0,0:0|0:0,0:0:0:0:
152,264,38329,6,0,P|104:304|24:300,2,134.999995880127,4|8|2,0:0|0:0|0:0,0:0:0:0:
90,212,39153,1,0,0:0:0:0:
141,149,39318,1,8,0:0:0:0:
203,202,39483,2,0,P|240:212|272:212,1,67.4999979400635,2|0,0:0|0:0,0:0:0:0:
333,142,39812,2,0,P|296:132|268:132,1,67.4999979400635,0|8,0:0|0:0,0:0:0:0:
388,200,40142,1,4,0:0:0:0:
388,200,40472,2,0,L|399:266,1,67.4999979400635,2|8,0:0|0:0,0:0:0:0:
468,64,40966,6,0,P|404:52|332:48,1,134.999995880127,4|8,0:1|0:0,0:0:0:0:
260,80,41460,1,0,0:0:0:0:
260,80,41625,2,0,L|192:88,1,67.4999979400635,2|2,0:0|0:0,0:0:0:0:
192,88,42119,2,0,P|117:67|59:91,1,134.999995880127,10|0,0:0|0:0,0:0:0:0:
4,140,42614,2,0,P|0:176|8:208,1,67.4999979400635,8|0,0:0|0:0,0:0:0:0:
96,239,42944,2,0,P|100:203|92:171,2,67.4999979400635,2|0|8,0:0|0:0|0:0,0:0:0:0:
304,344,43603,6,0,P|368:320|440:336,1,134.999995880127,4|8,0:0|0:0,0:0:0:0:
496,284,44098,2,0,L|512:216,1,67.4999979400635,0|2,0:0|0:0,0:0:0:0:
496,140,44428,1,0,0:0:0:0:
432,192,44592,1,0,0:0:0:0:
412,112,44757,2,0,P|356:76|288:104,1,134.999995880127,8|0,0:0|0:0,0:0:0:0:
348,160,45252,2,0,L|344:236,1,67.4999979400635,8|0,0:0|0:0,0:0:0:0:
292,288,45581,2,0,P|256:300|220:300,2,67.4999979400635,2|0|8,0:0|0:0|0:0,0:0:0:0:
240,200,46076,5,0,0:0:0:0:
240,200,46158,1,0,0:0:0:0:
240,200,46241,2,0,P|172:180|108:188,2,134.999995880127,4|8|2,0:0|0:0|0:0,0:0:0:0:
192,268,47065,2,0,L|192:340,2,67.4999979400635,0|0|8,0:0|0:0|0:0,0:0:0:0:
392,300,47724,1,0,0:0:0:0:
392,300,47889,2,0,L|392:228,1,67.4999979400635,8|0,0:0|0:0,0:0:0:0:
436,164,48219,2,0,P|448:128|448:96,2,67.4999979400635,2|0|8,0:0|0:0|0:0,0:0:0:0:
244,92,48878,6,0,P|180:72|112:72,1,134.999995880127,4|8,0:0|0:0,0:0:0:0:
56,132,49373,2,0,P|60:168|72:200,1,67.4999979400635,0|2,0:0|0:0,0:0:0:0:
144,160,49702,1,0,0:0:0:0:
176,256,49867,1,8,0:0:0:0:
256,196,50032,1,4,0:0:0:0:
420,336,50362,5,0,0:0:0:0:
420,336,50526,2,0,P|444:296|448:240,1,101.249996910095,10|0,0:0|0:0,0:0:0:0:
428,208,50856,2,0,L|436:132,1,67.4999979400635,10|0,0:0|0:0,0:0:0:0:
360,56,51186,2,0,L|352:123,1,67.4999979400635,8|0,0:0|0:0,0:0:0:0:
284,212,51515,6,0,P|228:228|160:220,2,120,4|0|2,0:0|0:0|0:0,0:0:0:0:
316,140,52340,2,0,P|308:112|304:80,1,60
372,21,52669,2,0,P|380:49|383:79,1,60,2|8,0:0|0:0,0:0:0:0:
180,56,53164,2,0,P|120:40|72:80,2,120,2|2|0,0:0|0:0|0:0,0:0:0:0:
248,96,53988,6,0,L|312:88,1,60,0|4,0:0|0:0,0:0:0:0:
268,240,54483,2,0,L|204:248,1,60,2|0,0:0|0:0,0:0:0:0:
160,312,54812,2,0,P|116:343|56:327,2,120,2|0|10,0:0|0:0|0:0,0:0:0:0:
124,187,55801,2,0,P|168:156|228:172,2,120,0|10|0,0:0|0:0|0:0,0:0:0:0:
88,280,56625,1,2,0:0:0:0:
20,204,56790,1,4,0:0:0:0:
196,312,57120,6,0,L|255:319,2,60,2|0|2,0:0|0:0|0:0,0:0:0:0:
124,187,57779,2,0,L|64:179,2,60,2|0|8,0:0|0:0|0:0,0:0:0:0:
320,244,58439,2,0,L|328:184,1,60,2|0,0:0|0:0,0:0:0:0:
396,148,58768,2,0,P|344:108|280:120,1,120,2|0,0:0|0:0,0:0:0:0:
208,56,59263,1,0,0:0:0:0:
208,56,59428,6,0,P|168:100|172:160,1,120,4|0,0:0|0:0,0:0:0:0:
108,236,59922,2,0,P|166:247|215:213,1,120,2|0,0:0|0:0,0:0:0:0:
280,140,60417,2,0,P|338:128|386:160,2,120,2|10|0,0:0|0:0|0:0,0:0:0:0:
136,284,61406,2,0,L|128:344,1,60,10|0,0:0|0:0,0:0:0:0:
32,312,61735,2,0,L|40:252,1,60
104,156,62065,6,0,P|112:120|112:89,2,67.4999979400635,12|0|2,0:0|0:0|0:0,0:0:0:0:
172,248,62559,2,0,P|228:288|292:260,1,134.999995880127,12|2,0:0|0:0,0:0:0:0:
364,184,63054,2,0,L|430:173,1,67.4999979400635,12|0,0:0|0:0,0:0:0:0:
276,112,63384,5,8,0:0:0:0:
276,112,63548,1,8,0:0:0:0:
276,112,63713,1,8,0:0:0:0:
276,112,63878,1,8,0:0:0:0:
200,224,64043,2,0,L|134:235,1,67.4999979400635,2|0,0:0|0:0,0:0:0:0:
56,216,64373,2,0,L|8:212,2,33.7499989700318
132,132,64702,6,0,L|124:56,1,75,4|0,0:0|0:0,0:0:0:0:
204,12,65032,2,0,L|212:88,1,75,8|0,0:0|0:0,0:0:0:0:
280,144,65362,1,2,0:2:0:0:
348,88,65526,1,0,0:0:0:0:
404,156,65691,1,8,0:0:0:0:
336,216,65856,6,0,P|304:284|336:352,1,150,2|0,0:2|0:0,0:0:0:0:
390,278,66351,2,0,P|459:253|485:185,2,150,8|2|8,0:0|0:2|0:0,0:0:0:0:
396,189,67175,1,0,0:0:0:0:
316,231,67340,6,0,P|276:223|240:223,1,75,2|0,0:2|0:0,0:0:0:0:
160,276,67669,2,0,P|84:284|8:256,2,150,8|2|8,0:0|0:2|0:0,0:0:0:0:
104,204,68494,2,0,P|68:144|120:84,1,150,2|0,0:2|0:0,0:0:0:0:
184,140,68988,1,8,0:0:0:0:
200,52,69153,1,0,0:0:0:0:
268,112,69318,2,0,P|304:128|344:136,2,75,2|0|8,0:2|0:0|0:0,0:0:0:0:
268,112,69812,1,0,0:0:0:0:
352,36,69977,6,0,P|388:20|428:12,1,75,4|0,0:0|0:0,0:0:0:0:
444,100,70307,2,0,P|460:176|444:248,1,150,8|2,0:0|0:2,0:0:0:0:
360,216,70801,2,0,L|280:208,1,75,0|8,0:0|0:0,0:0:0:0:
220,128,71131,6,0,P|160:76|88:92,1,150,2|0,0:2|0:0,0:0:0:0:
136,168,71625,2,0,P|113:229|38:255,2,150,8|2|8,0:0|0:2|0:0,0:0:0:0:
136,168,72450,1,0,0:0:0:0:
236,116,72614,6,0,L|312:108,1,75,4|0,0:0|0:0,0:0:0:0:
460,276,73109,2,0,P|400:324|324:296,1,150,4|0,0:2|0:0,0:0:0:0:
256,224,73603,1,8,0:0:0:0:
177,306,73768,2,0,P|112:324|52:276,1,150,4|0,0:2|0:0,0:0:0:0:
104,204,74263,6,0,P|120:168|124:128,1,75,0|0,0:0|0:0,0:0:0:0:
116,20,74592,1,2,0:2:0:0:
216,72,74757,2,0,L|256:80,5,37.5
292,100,75252,6,0,P|328:88|364:86,1,75,4|0,0:0|0:0,0:0:0:0:
447,51,75581,1,8,0:0:0:0:
506,119,75746,1,0,0:0:0:0:
460,196,75911,1,2,0:2:0:0:
372,176,76076,1,0,0:0:0:0:
372,176,76241,1,8,0:0:0:0:
284,120,76406,6,0,P|216:84|156:120,1,150,2|0,0:2|0:0,0:0:0:0:
98,177,76900,2,0,P|166:213|224:180,2,150,8|2|8,0:0|0:2|0:0,0:0:0:0:
44,104,77724,5,0,0:0:0:0:
120,52,77889,1,2,0:2:0:0:
172,124,78054,2,0,P|256:136|324:132,2,150,0|2|0,0:0|0:2|0:0,0:0:0:0:
98,177,78878,5,0,0:0:0:0:
98,177,79043,2,0,P|80:252|92:324,1,150,2|0,0:2|0:0,0:0:0:0:
160,264,79537,2,0,P|196:256|240:256,1,75,8|0,0:0|0:0,0:0:0:0:
297,341,79867,2,0,P|315:266|304:196,1,150,2|8,0:2|0:0,0:0:0:0:
303,195,80362,1,0,0:0:0:0:
236,108,80526,6,0,P|300:56|360:72,1,150,4|8,0:0|0:0,0:0:0:0:
472,212,81186,1,2,0:2:0:0:
484,300,81351,1,0,0:0:0:0:
396,312,81515,1,8,0:0:0:0:
308,256,81680,6,0,P|228:240|160:256,1,150,4|0,0:0|0:0,0:0:0:0:
88,304,82175,2,0,L|14:316,1,75,8|0,0:0|0:0,0:0:0:0:
40,204,82505,2,0,L|120:192,1,75,2|0,0:2|0:0,0:0:0:0:
114,192,82834,1,8,0:0:0:0:
300,68,83164,5,0,0:0:0:0:
300,68,83329,1,0,0:0:0:0:
300,68,83494,1,0,0:0:0:0:
300,68,83658,1,0,0:0:0:0:
392,136,83823,2,0,L|472:136,2,75,2|0|8,0:2|0:0|0:0,0:0:0:0:
288,180,84318,1,4,0:2:0:0:
288,180,84812,5,8,0:0:0:0:
288,180,85142,1,8,0:0:0:0:
216,288,85307,2,0,P|124:324|48:236,1,225,4|4,0:2|0:0,0:0:0:0:
152,180,86131,5,10,0:0:0:0:
104,68,86461,1,10,0:0:0:0:
216,24,86790,1,8,0:0:0:0:
264,132,87120,1,10,0:0:0:0:
264,132,87450,2,0,L|332:128,1,60,8|2,0:0|0:0,0:0:0:0:
396,84,87779,2,0,L|464:80,2,60,8|2|8,0:0|0:0|0:0,0:0:0:0:
432,172,88274,6,0,P|448:232|445:289,1,120,2|0,0:0|0:0,0:0:0:0:
356,324,88768,2,0,P|340:264|342:206,2,120,10|10|8,0:0|0:0|0:0,0:0:0:0:
420,144,89757,2,0,P|376:104|308:108,1,120,10|8,0:0|0:0,0:0:0:0:
256,144,90252,2,0,L|192:148,1,60,2|8,0:0|0:0,0:0:0:0:
212,220,90581,2,0,L|152:223,1,60,2|8,0:0|0:0,0:0:0:0:
76,280,90911,5,0,0:0:0:0:
76,280,90994,1,0,0:0:0:0:
76,280,91076,2,0,P|28:232|32:176,1,120,12|8,0:0|0:0,0:0:0:0:
92,84,91735,1,10,0:0:0:0:
184,164,92065,1,8,0:0:0:0:
228,52,92395,2,0,P|296:36|360:48,1,120,10|8,0:0|0:0,0:0:0:0:
400,88,92889,2,0,L|408:160,1,60,2|8,0:0|0:0,0:0:0:0:
360,204,93218,2,0,P|328:212|292:212,1,60,2|8,0:0|0:0,0:0:0:0:
200,192,93548,6,0,P|144:168|84:168,1,120,2|0,0:0|0:0,0:0:0:0:
128,240,94043,2,0,P|104:296|104:356,2,120,10|10|8,0:0|0:0|0:0,0:0:0:0:
128,240,94867,1,2,0:0:0:0:
204,28,95196,5,4,0:0:0:0:
284,68,95361,1,10,0:0:0:0:
284,68,95526,1,0,0:0:0:0:
368,36,95691,2,0,P|400:28|426:26,1,60,4|0,0:3|0:0,0:0:0:0:
396,120,96021,2,0,P|364:128|337:129,1,60,8|0,0:3|0:0,0:0:0:0:
468,184,96350,5,4,0:0:0:0:
344,312,96680,2,0,P|272:314|220:252,1,150,8|2,0:0|0:2,0:0:0:0:
308,228,97174,1,0,0:0:0:0:
308,228,97339,2,0,L|336:156,1,75,8|0,0:0|0:0,0:0:0:0:
324,68,97669,2,0,P|262:30|192:52,1,150,2|8,0:2|0:0,0:0:0:0:
128,116,98163,2,0,L|44:108,1,75,2|0,0:2|0:0,0:0:0:0:
104,200,98493,2,0,L|188:208,1,75,2|8,0:2|0:0,0:0:0:0:
276,168,98823,6,0,P|312:152|352:152,2,75,2|0|0,0:2|0:0|0:0,0:0:0:0:
328,240,99317,2,0,P|364:256|399:256,1,75,8|0,0:0|0:0,0:0:0:0:
472,204,99647,2,0,P|468:132|504:60,1,150,2|8,0:2|0:0,0:0:0:0:
428,12,100141,1,0,0:0:0:0:
340,32,100306,2,0,P|344:104|308:176,1,150,2|8,0:2|0:0,0:0:0:0:
220,188,100801,2,0,L|140:176,1,75,2|0,0:2|0:0,0:0:0:0:
96,84,101130,1,2,0:2:0:0:
96,84,101295,2,0,L|176:96,1,75,8|0,0:0|0:0,0:0:0:0:
280,44,101625,5,4,0:0:0:0:
376,236,101955,2,0,P|384:276|384:316,1,75,12|0,0:1|0:0,0:0:0:0:
296,320,102284,2,0,P|270:351|239:377,1,75,2|0,0:2|0:0,0:0:0:0:
180,308,102614,2,0,P|139:308|99:301,1,75,12|0,0:0|0:0,0:0:0:0:
36,244,102944,5,4,0:0:0:0:
152,52,103273,1,12,0:0:0:0:
152,52,103438,2,0,L|232:60,1,75,0|2,0:0|0:2,0:0:0:0:
93,140,103768,2,0,L|168:148,1,75,4|8,0:0|0:0,0:0:0:0:
244,196,104097,6,0,P|284:216|320:220,2,75,0|4|0,0:0|0:0|0:0,0:0:0:0:
308,132,104592,1,12,0:0:0:0:
156,272,104922,2,0,L|112:280,4,37.5,8|0|0|0|0,0:0|0:0|0:0|0:0|0:0,0:0:0:0:
256,336,105416,5,4,0:2:0:0:
256,336,105746,1,0,0:0:0:0:
356,272,105911,1,8,0:0:0:0:
356,272,106076,1,0,0:0:0:0:
248,220,106240,2,0,P|216:208|176:200,1,75,2|0,0:2|0:0,0:0:0:0:
272,128,106570,2,0,P|304:140|344:148,1,75,0|4,0:0|0:0,0:0:0:0:
256,192,106817,12,0,109537,0:0:0:0:
