osu file format v9

[General]
AudioFilename: Kinkakuji.mp3
AudioLeadIn: 1004
PreviewTime: 85242
Countdown: 0
SampleSet: Soft
StackLeniency: 0.7
Mode: 0
LetterboxInBreaks: 0

[Editor]
DistanceSpacing: 1.4
BeatDivisor: 4
GridSize: 8

[Metadata]
Title:Kinkakuji
Artist:Itou Kanako
Creator:Selee
Version:Hard
Source:Axanael
Tags:Temple of the Golden Pavilion Nitroplus Nitro+ Gentsuki TTTTTTTTTTTT H-boy

[Difficulty]
HPDrainRate:6
CircleSize:4
OverallDifficulty:6
ApproachRate:7
SliderMultiplier:1.6
SliderTickRate:1

[Events]
//Background and Video events
0,0,"axanael.jpg"
Video,-64,"2.avi"
//Break Periods
2,64940,69143
//Storyboard Layer 0 (Background)
//Storyboard Layer 1 (Fail)
//Storyboard Layer 2 (Pass)
//Storyboard Layer 3 (Foreground)
//Storyboard Sound Samples
//Background Colour Transformations
3,100,163,162,255

[TimingPoints]
710,333.333333333333,4,1,1,60,1,0
10709,-100,4,1,0,60,0,0
11376,-100,4,2,1,50,0,0
11710,-100,4,1,1,50,0,0
11793,-100,4,2,1,50,0,0
12376,-100,4,1,1,50,0,0
12459,-100,4,2,1,50,0,0
13043,-100,4,1,1,50,0,0
13126,-100,4,2,1,50,0,0
13710,-100,4,1,1,50,0,0
13959,-100,4,2,1,50,0,0
14376,-100,4,1,1,50,0,0
14459,-100,4,2,1,50,0,0
15043,-100,4,1,1,50,0,0
15126,-100,4,2,1,50,0,0
15709,-100,4,1,1,50,0,0
15793,-100,4,2,1,50,0,0
16043,-100,4,1,1,50,0,0
16126,-100,4,2,1,50,0,0
16376,-100,4,1,1,50,0,0
16459,-100,4,2,1,50,0,0
17043,-100,4,1,1,50,0,0
17126,-100,4,2,1,50,0,0
17709,-100,4,1,1,50,0,0
17793,-100,4,2,1,50,0,0
18376,-100,4,1,1,50,0,0
18459,-100,4,2,1,50,0,0
19043,-100,4,1,1,50,0,0
19376,-100,4,2,1,75,0,0
20709,-100,4,2,1,20,0,0
20876,-100,4,2,1,30,0,0
21043,-100,4,2,1,40,0,0
21209,-100,4,2,1,50,0,0
21376,-100,4,1,0,60,0,0
21543,-100,4,2,1,60,0,0
22043,-100,4,1,1,60,0,0
22126,-100,4,2,1,60,0,0
22543,-100,4,1,1,60,0,0
22626,-100,4,2,1,60,0,0
23043,-100,4,1,1,60,0,0
23126,-100,4,2,1,60,0,0
23709,-100,4,1,1,60,0,0
23793,-100,4,2,1,60,0,0
24376,-100,4,1,1,60,0,0
24459,-100,4,2,1,60,0,0
25043,-100,4,1,1,60,0,0
25126,-100,4,2,1,60,0,0
25709,-100,4,1,1,60,0,0
26043,-100,4,2,0,60,0,0
26209,-100,4,1,0,60,0,0
26293,-100,4,2,0,60,0,0
26876,-133.333333333333,4,1,0,60,0,0
27043,-100,4,2,0,60,0,0
27376,-100,4,1,1,60,0,0
27543,-100,4,2,1,60,0,0
28376,-100,4,1,1,60,0,0
28459,-100,4,2,1,60,0,0
29043,-100,4,1,1,60,0,0
29126,-100,4,2,1,60,0,0
30043,-100,4,1,1,60,0,0
30126,-100,4,2,1,60,0,0
30543,-100,4,1,1,60,0,0
30626,-100,4,2,1,60,0,0
31043,-100,4,1,1,60,0,0
31126,-100,4,2,1,60,0,0
31709,-100,4,1,1,60,0,0
31793,-100,4,2,1,60,0,0
32209,-133.333333333333,4,1,0,60,0,0
32376,-100,4,2,0,60,0,0
32709,-100,4,1,0,60,0,0
32793,-100,4,2,1,60,0,0
33043,-100,4,1,1,60,0,0
33126,-100,4,2,1,60,0,0
33709,-100,4,1,1,60,0,0
33793,-100,4,2,1,60,0,0
34376,-100,4,1,1,60,0,0
34459,-100,4,2,1,60,0,0
35043,-100,4,1,1,60,0,0
35126,-100,4,2,1,60,0,0
35376,-100,4,1,1,60,0,0
35459,-100,4,2,1,60,0,0
35709,-100,4,1,1,60,0,0
35793,-100,4,2,1,60,0,0
36376,-100,4,1,1,60,0,0
36459,-100,4,2,1,60,0,0
37043,-100,4,1,1,60,0,0
37126,-100,4,2,1,60,0,0
37543,-133.333333333333,4,1,0,60,0,0
37709,-100,4,2,0,60,0,0
38043,-100,4,1,0,60,0,0
38293,-100,4,2,1,60,0,0
39043,-100,4,1,1,60,0,0
39126,-100,4,2,1,60,0,0
39543,-100,4,1,1,60,0,0
39793,-100,4,2,1,60,0,0
40376,-100,4,1,1,60,0,0
40459,-100,4,2,1,60,0,0
40876,-100,4,1,1,60,0,0
41126,-100,4,2,1,60,0,0
41543,-100,4,1,1,60,0,0
41793,-100,4,2,1,60,0,0
42043,-200,4,2,0,60,0,0
42709,-100,4,1,0,60,0,0
43376,-100,4,1,1,60,0,1
51876,-100,4,1,1,40,0,1
51959,-100,4,1,1,60,0,1
53376,-100,4,1,1,60,0,0
54043,-100,4,1,1,60,0,1
64709,-100,4,2,1,60,0,0
70043,-133.333333333333,4,2,1,60,0,0
79543,-133.333333333333,4,2,1,40,0,0
79710,-133.333333333333,4,2,1,20,0,0
79877,-133.333333333333,4,2,1,30,0,0
80043,-133.333333333333,4,2,1,40,0,0
80210,-133.333333333333,4,2,1,50,0,0
80377,-100,4,1,0,60,0,0
83543,-100,4,2,1,50,0,0
85342,-100,4,2,1,60,0,0
86043,-100,4,1,1,60,0,1
101209,-100,4,2,1,60,0,0

[Colours]
Combo1 : 180,177,248
Combo2 : 255,255,128

[HitObjects]
456,328,710,2,0,B|296:328,1,160,4|8
136,327,1376,1,0
26,210,1709,1,0
26,210,1876,2,0,B|98:173|98:173|148:109,1,160
211,63,2376,2,0,B|286:99|286:99|362:165,1,160,8|4
391,214,2876,1,0
412,291,3043,1,8
184,328,3376,6,0,B|24:328,2,160,4|8|0
344,312,4376,1,0
344,312,4543,2,0,B|416:256|416:256|488:224,1,160
480,104,5043,2,0,B|416:144|416:144|336:176,1,160,8|0
256,192,5543,1,4
176,176,5709,1,8
400,296,6043,5,4
256,352,6376,1,8
112,296,6709,1,0
352,144,7043,2,0,B|434:206,1,80
160,144,7543,2,0,B|78:206,1,80,0|8
256,56,8043,2,0,B|256:160,2,80,4|0|8
464,64,8709,6,0,B|440:160|440:160|408:232,1,160,4|8
256,184,9376,1,0
336,320,9709,1,0
336,320,9876,2,0,B|256:344|256:344|168:352,1,160
96,352,10376,1,8
64,192,10709,5,0
64,192,10876,2,0,B|32:160|34:120,1,80,6|0
264,56,11376,6,0,B|313:92|318:144,1,80,10|0
352,200,11710,1,0
312,280,11876,2,0,B|301:324|241:346,1,80
176,352,12210,1,0
88,336,12376,2,0,B|35:321|-8:276,1,80,0|0
72,168,12710,5,8
158,128,12876,2,0,B|189:115|222:82,1,80
305,50,13210,2,0,B|361:112|380:219,1,160,0|0
385,279,13710,1,0
385,279,13876,1,0
256,328,14043,5,8
176,288,14210,1,0
88,264,14376,1,0
0,248,14543,2,0,B|0:144,1,80
0,80,14876,1,0
80,40,15043,2,0,B|160:79|214:147,1,160,0|8
272,192,15543,6,0,B|352:192,1,80,0|0
392,272,15876,2,0,B|312:272,1,80,0|0
224,272,16210,1,8
272,192,16376,1,0
323,120,16543,1,8
256,32,16710,5,12
176,72,16876,2,0,B|128:104|112:152,1,80
72,200,17210,2,0,B|47:242|0:272,2,80
128,272,17710,2,0,B|184:328,1,80,2|0
267,357,18043,5,8
336,302,18210,2,0,B|384:310|416:342,1,80
493,311,18543,2,0,B|480:224|424:144,1,160
320,120,19043,1,0
192,120,19209,1,0
256,200,19376,5,2
80,352,19876,1,0
432,352,20376,1,2
256,336,20709,5,4
256,295,20876,1,4
256,254,21043,1,4
256,214,21209,1,4
256,173,21376,5,4
464,56,22043,5,0
464,56,22209,2,0,B|392:96|288:112,1,160,8|0
217,109,22709,2,0,B|190:90|190:90|144:80,1,80,8|2
114,170,23043,2,0,B|67:183|67:183|19:207,1,80,2|2
17,290,23376,1,0
88,353,23543,1,0
88,353,23709,1,0
183,346,23876,1,10
409,266,24209,5,0
409,266,24376,2,0,B|323:234|263:168,1,160,2|2
219,101,24876,1,8
315,97,25043,2,0,B|352:83|352:83|380:53,1,80,2|0
475,48,25376,2,0,B|467:96|467:96|456:132,1,80,8|2
485,218,25709,1,2
490,310,25876,2,0,B|464:360|432:384,1,80,2|0
386,289,26209,2,2,B|366:343|316:360|316:360|262:341,1,160
64,328,26876,6,0,B|127:328,1,59.9999982118607,4|4
292,288,27376,5,0
292,288,27543,2,0,B|203:262|203:262|113:213,1,160,8|2
45,233,28043,1,10
89,148,28209,1,2
143,229,28376,1,2
187,144,28543,1,0
276,92,28709,2,0,B|333:105|371:135,1,80,10|0
352,232,29043,1,2
414,322,29209,2,0,B|463:262|463:262|477:155,1,160,8|2
459,84,29709,1,8
270,44,30043,5,0
193,101,30209,2,0,B|163:156|109:171|109:171|72:243,1,160,8|0
65,307,30709,1,8
142,364,30876,1,2
237,355,31043,2,0,B|315:340|315:340|361:317|380:265,1,160,2|2
418,200,31543,1,0
423,104,31709,2,0,B|372:122|341:148,1,80,2|4
256,304,32209,6,0,B|256:369,1,59.9999982118607,4|4
63,337,32709,6,0,B|163:291,1,80,0|8
90,217,33043,2,0,B|146:160,1,80,2|2
94,79,33376,2,0,B|164:52|164:52|262:39,1,160,8|0
343,56,33876,1,2
343,56,34043,1,0
426,103,34209,2,0,B|398:177,1,80,2|2
450,258,34543,2,0,B|384:312|384:312|292:356,1,160,2|0
221,356,35043,1,2
165,172,35376,5,0
87,229,35543,2,0,B|53:259|-1:269,2,80,8|0|2
74,133,36043,1,0
154,81,36209,1,2
244,112,36376,2,0,B|284:112|284:112|326:132,1,80,2|0
396,187,36709,1,8
396,187,36876,1,0
466,263,37043,2,0,B|466:364,1,80,2|4
256,344,37543,6,0,B|191:344,1,59.9999982118607,4|4
38,111,38043,5,0
38,111,38209,2,0,B|108:154|219:163,1,160,2|2
284,173,38709,1,8
379,184,38876,1,2
448,250,39043,2,0,B|391:315|290:326,1,160,2|2
260,240,39543,2,0,B|216:243|159:216,1,80,0|2
203,132,39876,2,0,B|120:91|50:15,1,160,10|0
73,135,40376,6,0,B|107:218|181:292,1,160,2|8
267,301,40876,2,0,B|351:301,1,80,2|0
443,299,41210,1,6
490,216,41376,1,8
394,222,41543,2,0,B|314:222,1,80,2|0
354,134,41876,1,2
269,88,42043,6,0,B|208:56|147:72|129:128,1,160,4|0
193,217,42876,1,0
83,239,43043,1,0
32,344,43210,1,0
144,344,43376,6,0,B|320:344,1,160,6|8
416,344,43876,1,0
360,248,44043,2,0,B|280:248,1,80,0|2
200,168,44376,1,8
312,144,44543,2,2,B|420:132|456:32,2,160,2|2|2
210,79,45376,1,0
101,130,45543,1,0
101,254,45710,1,8
211,306,45876,6,0,B|338:303|448:225,1,240,6|8
508,156,46543,2,0,B|489:116|444:102,1,80
347,120,46876,2,0,B|304:114|284:73,1,80,2|8
180,69,47210,2,2,B|104:120|65:201,1,160,2|2
35,283,47710,1,10
243,341,48043,6,0,B|358:333|422:293,1,160,0|10
457,220,48543,2,2,B|487:134|497:52,1,160
393,86,49043,2,0,B|389:115|367:161,1,80,8|0
298,239,49376,1,2
200,277,49543,1,2
96,267,49710,1,8
19,197,49876,1,2
81,113,50043,6,0,B|134:165|243:149,1,160,0|10
344,160,50543,1,0
264,232,50710,1,2
376,240,50876,1,2
296,320,51043,1,8
408,328,51210,1,2
465,249,51376,6,0,B|454:187|369:114,1,160,6|0
281,73,51876,2,0,B|212:35|104:44,2,160,6|2|0
283,177,52710,2,0,B|241:271|184:317,1,160,6|0
90,313,53210,2,0,B|45:314,2,40,0|0|0
126,214,53543,2,0,B|70:205|60:149,2,80
246,245,54043,6,0,B|297:251|398:292,1,160,6|8
398,292,54543,1,2
465,212,54710,1,0
419,111,54876,2,2,B|339:121|284:208,2,160,2|2|2
419,111,55710,1,10
188,55,56043,1,2
206,157,56210,1,2
285,90,56376,1,8
188,55,56543,1,2
111,124,56710,6,0,B|96:205|36:275,1,160,0|8
137,310,57210,2,0,B|107:343|63:360,2,80,2|0|2
241,303,57710,2,0,B|268:304|312:334,1,80,8|6
386,106,58210,2,0,B|420:140|429:176,1,80,2|10
245,72,58710,5,0
144,95,58876,1,2
64,161,59043,1,8
168,164,59210,2,2,B|106:240|88:366,1,160,2|2
199,336,59710,1,8
261,253,59876,1,0
318,339,60043,2,2,B|350:312|368:254,1,80
393,173,60376,1,8
406,69,60543,1,2
300,136,60710,6,0,B|332:184|424:234,1,160,0|8
506,298,61210,1,0
413,344,61376,2,2,B|379:364|324:361,1,80,2|2
232,348,61710,1,8
134,313,61876,1,2
56,168,62043,6,0,B|139:202|205:274,1,160,6|8
135,140,62543,2,0,B|108:224|30:259,1,160,2|2
280,352,63210,1,0
280,352,63376,2,0,B|268:262|357:201,1,160,6|8
400,296,63876,2,0,B|464:283|500:236|518:166|496:84,1,240,4|0
422,47,64543,2,0,B|364:30,2,40,8|0|4
71,286,70043,6,0,B|120:256|207:238,1,119.999996423721,0|2
330,243,70710,1,0
256,32,71210,2,0,B|256:152,2,119.999996423721,2|2|2
31,98,72710,6,0,B|91:105|148:123,1,119.999996423721,2|0
106,189,73210,2,0,B|171:207|220:238,1,119.999996423721,2|0
151,279,73710,2,0,B|203:307|234:377,1,119.999996423721,2|0
305,347,74210,2,0,B|363:327|408:287,1,119.999996423721,2|2
312,84,75376,6,0,B|256:38|189:94,1,119.999996423721,0|2
256,217,76043,1,0
408,64,76543,1,2
472,192,76876,1,2
408,320,77210,1,2
376,72,78043,6,0,B|334:145|289:165,1,119.999996423721,2|0
360,194,78543,2,0,B|422:243|482:259,1,119.999996423721,2|0
396,279,79043,2,0,B|355:351|301:364,1,119.999996423721,2|0
256,351,79543,1,2
256,320,79709,1,4
257,289,79876,1,4
257,258,80043,1,4
258,228,80209,1,4
258,197,80376,5,4
43,138,80709,6,0,B|112:100|227:98,1,160,0|2
277,99,81209,2,0,B|346:101|432:67,1,160,0|0
473,136,81709,2,0,B|453:176|401:216,1,80,0|0
371,259,82043,2,0,B|333:291|328:335,2,80,0|2|0
371,259,82543,1,0
434,61,82876,5,0
434,61,83043,2,0,B|314:37|250:41,1,160
207,83,83543,1,2
135,47,83709,1,2
67,89,83876,2,0,B|-5:160|3:239,2,160,2|0|0
182,199,84876,1,2
182,199,85043,1,2
107,340,85376,6,0,B|216:340,1,80,0|0
347,340,85876,1,0
347,340,86043,6,0,B|385:301|385:301|360:237|369:181,1,160,6|8
388,95,86543,1,0
299,148,86709,2,0,B|249:169|249:169|211:180,1,80,0|2
121,197,87043,1,8
64,115,87209,2,2,B|128:72|224:64,2,160,2|2|2
9,204,88043,1,0
84,279,88209,1,0
55,367,88376,1,8
158,378,88543,6,2,B|279:340|336:219,1,240,2|8
398,144,89209,2,0,B|344:64,1,80
253,109,89543,2,0,B|238:155|178:179,1,80,2|8
113,112,89876,2,2,B|59:177|58:291,1,160,2|2
59,260,90376,1,10
256,328,90709,5,2
312,240,90876,1,0
368,152,91043,1,8
416,56,91209,2,2,B|495:79|540:171|499:248|464:256,2,240,2|2|0
328,112,92376,1,8
240,160,92543,1,0
160,208,92709,2,2,B|79:200|40:136|48:72|88:24,2,240,2|2|8
360,152,94043,6,0,B|432:192|432:192|480:272,1,160,6|0
400,328,94543,1,2
256,176,94876,1,2
112,328,95209,1,4
50,244,95376,6,0,B|10:171|35:76,1,160,6|0
134,79,95876,2,0,B|92:37,2,40
222,138,96209,1,0
319,100,96376,2,0,B|358:127|372:165,1,80
413,64,96709,6,0,B|477:138|446:228,1,160,6|0
346,219,97209,2,0,B|342:313|250:371,1,160,2|2
70,302,97876,5,0
70,302,98043,2,0,B|43:214|108:129,1,160,6|0
191,112,98543,2,0,B|165:72,2,40
292,137,98876,1,0
379,193,99043,2,0,B|377:240|353:300,1,80
270,315,99376,5,6
178,264,99543,1,0
233,176,99709,1,0
326,221,99876,1,2
176,264,100209,1,2
344,96,100543,5,2
256,40,100709,1,6
168,96,100876,1,2
256,288,101209,5,4
