osu file format v9

[General]
AudioFilename: Kinkakuji.mp3
AudioLeadIn: 1004
PreviewTime: 85242
Countdown: 0
SampleSet: Soft
StackLeniency: 0.7
Mode: 0
LetterboxInBreaks: 0

[Editor]
DistanceSpacing: 1.2
BeatDivisor: 4
GridSize: 8

[Metadata]
Title:Kinkakuji
Artist:Itou Kanako
Creator:Selee
Version:Axanael
Source:Axanael
Tags:Temple of the Golden Pavilion Nitroplus Nitro+ Gentsuki TTTTTTTTTTTT H-boy

[Difficulty]
HPDrainRate:8
CircleSize:4
OverallDifficulty:8
ApproachRate:8
SliderMultiplier:2
SliderTickRate:1

[Events]
//Background and Video events
0,0,"axanael.jpg"
Video,-64,"2.avi"
//Break Periods
2,64910,69293
//Storyboard Layer 0 (Background)
//Storyboard Layer 1 (Fail)
//Storyboard Layer 2 (Pass)
//Storyboard Layer 3 (Foreground)
//Storyboard Sound Samples
//Background Colour Transformations
3,100,163,162,255

[TimingPoints]
710,333.333333333333,4,1,1,60,1,0
10709,-100,4,1,0,60,0,0
11376,-100,4,2,1,50,0,0
11710,-100,4,1,1,50,0,0
11793,-100,4,2,1,50,0,0
12376,-100,4,1,1,50,0,0
12459,-100,4,2,1,50,0,0
13043,-100,4,1,1,50,0,0
13126,-100,4,2,1,50,0,0
13710,-100,4,1,1,50,0,0
14043,-100,4,2,1,50,0,0
14376,-100,4,1,1,50,0,0
14459,-100,4,2,1,50,0,0
15043,-100,4,1,1,50,0,0
15126,-100,4,2,1,50,0,0
15709,-100,4,1,1,50,0,0
15793,-100,4,2,1,50,0,0
16043,-100,4,1,1,50,0,0
16126,-100,4,2,1,50,0,0
16376,-100,4,1,1,50,0,0
16459,-100,4,2,1,50,0,0
17043,-100,4,1,1,50,0,0
17126,-100,4,2,1,50,0,0
17710,-100,4,1,1,50,0,0
17793,-100,4,2,1,50,0,0
18376,-100,4,1,1,50,0,0
18459,-100,4,2,1,50,0,0
19043,-100,4,1,1,50,0,0
19376,-100,4,2,1,75,0,0
20709,-100,4,2,1,20,0,0
20876,-100,4,2,1,30,0,0
21043,-100,4,2,1,40,0,0
21209,-100,4,2,1,50,0,0
21376,-100,4,1,0,60,0,0
21543,-100,4,2,1,60,0,0
22043,-100,4,1,1,60,0,0
22126,-100,4,2,1,60,0,0
22543,-100,4,1,1,60,0,0
22626,-100,4,2,1,60,0,0
23043,-100,4,1,1,60,0,0
23126,-100,4,2,1,60,0,0
23709,-100,4,1,1,60,0,0
23793,-100,4,2,1,60,0,0
24376,-100,4,1,1,60,0,0
24459,-100,4,2,1,60,0,0
25043,-100,4,1,1,60,0,0
25126,-100,4,2,1,60,0,0
25709,-100,4,1,1,60,0,0
25876,-200,4,2,1,60,0,0
26043,-100,4,2,0,60,0,0
26209,-100,4,1,0,60,0,0
26293,-100,4,2,0,60,0,0
26876,-200,4,1,0,60,0,0
27043,-100,4,2,0,60,0,0
27376,-100,4,1,1,60,0,0
27543,-100,4,2,1,60,0,0
28376,-100,4,1,1,60,0,0
28459,-100,4,2,1,60,0,0
29043,-100,4,1,1,60,0,0
29126,-100,4,2,1,60,0,0
30043,-100,4,1,1,60,0,0
30126,-100,4,2,1,60,0,0
30543,-100,4,1,1,60,0,0
30626,-100,4,2,1,60,0,0
31043,-100,4,1,1,60,0,0
31126,-100,4,2,1,60,0,0
31709,-100,4,1,1,60,0,0
31793,-100,4,2,1,60,0,0
32209,-200,4,1,0,60,0,0
32376,-100,4,2,0,60,0,0
32709,-100,4,1,0,60,0,0
32793,-100,4,2,1,60,0,0
33043,-100,4,1,1,60,0,0
33126,-100,4,2,1,60,0,0
33709,-100,4,1,1,60,0,0
33793,-100,4,2,1,60,0,0
34376,-100,4,1,1,60,0,0
34459,-100,4,2,1,60,0,0
35043,-100,4,1,1,60,0,0
35126,-100,4,2,1,60,0,0
35376,-100,4,1,1,60,0,0
35459,-100,4,2,1,60,0,0
35709,-100,4,1,1,60,0,0
35793,-100,4,2,1,60,0,0
36376,-100,4,1,1,60,0,0
36459,-100,4,2,1,60,0,0
37043,-100,4,1,1,60,0,0
37126,-100,4,2,1,60,0,0
37543,-200,4,1,0,60,0,0
37709,-100,4,2,0,60,0,0
38043,-100,4,1,0,60,0,0
38293,-100,4,2,1,60,0,0
39043,-100,4,1,1,60,0,0
39126,-100,4,2,1,60,0,0
39543,-100,4,1,1,60,0,0
39793,-100,4,2,1,60,0,0
40376,-100,4,1,1,60,0,0
40459,-100,4,2,1,60,0,0
40876,-100,4,1,1,60,0,0
41126,-100,4,2,1,60,0,0
41543,-100,4,1,1,60,0,0
41793,-100,4,2,1,60,0,0
42043,-200,4,2,0,60,0,0
42709,-100,4,1,0,60,0,0
43376,-100,4,1,1,60,0,1
51876,-100,4,1,1,40,0,1
51959,-100,4,1,1,60,0,1
53376,-100,4,1,1,60,0,0
54043,-100,4,1,1,60,0,1
64709,-100,4,2,0,60,0,0
70043,-133.333333333333,4,2,1,60,0,0
79543,-133.333333333333,4,2,1,40,0,0
79710,-133.333333333333,4,2,1,20,0,0
79877,-133.333333333333,4,2,1,30,0,0
80043,-133.333333333333,4,2,1,40,0,0
80210,-133.333333333333,4,2,1,50,0,0
80377,-100,4,1,0,60,0,0
83543,-100,4,2,1,60,0,0
85342,-100,4,1,1,60,0,0
86043,-100,4,1,1,60,0,1
101209,-100,4,2,1,60,0,0

[Colours]
Combo1 : 180,177,248
Combo2 : 255,255,128

[HitObjects]
69,330,710,2,0,B|168:312|168:312|263:240,1,200,4|8
384,112,1376,1,0
480,88,1543,1,0
480,88,1626,1,0
480,88,1709,1,0
504,184,1876,2,0,B|432:256|432:256|344:304,1,200
256,344,2376,1,8
144,120,2709,1,4
256,64,2876,1,0
368,120,3043,1,8
76,263,3376,6,0,B|28:231|12:183|25:130|83:97,2,200,4|8|0
136,344,4209,2,0,B|88:384,2,50
240,344,4543,2,0,B|312:288|312:288|416:256,1,200
480,336,5043,2,0,B|496:248|496:248|480:104,1,200,8|0
440,48,5543,1,4
344,24,5709,1,8
408,320,6043,5,4
208,352,6376,1,8
56,224,6709,2,0,B|68:181|56:124,1,100
41,76,6959,1,0
86,98,7043,2,0,B|198:154,1,100
456,296,7543,2,0,B|352:240,1,100,0|8
176,272,8043,2,0,B|136:312|136:312|56:336,2,100,4|0|8
464,64,8709,6,0,B|440:160|440:160|384:280,1,200,4|8
248,112,9376,2,0,B|288:144|288:144|320:208,1,100
309,187,9626,1,0
309,187,9709,1,0
279,282,9876,2,0,B|184:332|184:332|58:357,1,200
93,350,10376,1,8
62,152,10709,5,0
62,152,10876,2,0,B|24:112|23:60,1,100,4|0
31,38,11126,1,0
53,26,11209,1,2
77,29,11293,1,0
98,40,11376,6,0,B|104:97|167:141,1,100,8|0
257,170,11710,1,0
334,261,11876,2,0,B|321:315|254:365,1,100
161,326,12210,1,0
67,250,12376,2,0,B|98:173|156:110,1,150,0|0
144,122,12710,5,8
235,44,12876,2,0,B|275:81|275:81|352:101,1,100
428,42,13210,2,0,B|391:111|392:162|320:246,1,200,0|0
251,302,13710,1,0
132,325,13876,1,0
55,115,14043,5,8
159,174,14210,1,0
159,174,14293,1,0
159,174,14376,1,0
260,86,14543,2,0,B|309:111|390:106,1,100
476,122,14876,1,0
398,213,15043,2,0,B|318:252|264:333,1,150,0|0
282,307,15376,5,8
178,303,15543,2,0,B|78:303,1,100,0|0
158,212,15876,2,0,B|258:212,1,100,0|0
358,213,16210,1,8
418,133,16376,1,0
402,120,16460,1,0
386,107,16543,1,8
370,94,16626,1,0
354,81,16710,5,12
234,72,16876,1,0
122,116,17043,1,0
47,212,17210,1,0
22,329,17376,1,0
136,275,17543,1,0
149,260,17626,1,0
164,247,17710,2,0,B|207:199|265:164,1,100,0|0
256,336,18043,5,8
336,264,18210,2,0,B|384:272|440:320,1,100
176,264,18543,2,0,B|128:272|72:320,1,100
256,192,18876,1,0
176,120,19043,1,0
336,120,19209,1,0
256,48,19376,5,2
64,328,19876,1,0
448,328,20376,1,2
256,352,20709,5,4
184,256,20876,1,4
304,176,21043,1,4
112,104,21209,1,4
336,40,21376,5,4
464,328,22043,5,0
464,328,22209,2,0,B|368:311|368:311|260:249,1,200,8|0
150,86,22709,2,0,B|200:96|200:96|248:136,1,100,8|2
144,208,23043,2,0,B|96:216|96:216|34:255,1,100,2|2
8,352,23376,1,0
120,304,23543,1,0
120,304,23626,1,0
120,304,23709,1,0
240,312,23876,1,10
450,72,24209,1,0
450,72,24376,6,0,B|352:120|352:120|248:88,1,200,2|2
160,40,24876,1,8
208,176,25043,2,0,B|256:160|256:160|320:184,1,100,2|0
457,218,25376,2,0,B|440:272|440:272|384:320,1,100,8|2
256,240,25709,1,2
256,240,25876,2,0,B|256:272,2,25,0|0|2
122,156,26209,2,2,B|77:168|77:168|52:220|73:276|73:276|121:287,1,200
256,48,26876,6,0,B|256:112,1,50,4|4
432,72,27376,5,0
432,72,27543,2,0,B|380:152|380:152|278:201,1,200,8|2
152,200,28043,1,10
16,160,28209,1,2
15,33,28376,1,2
152,56,28543,1,0
152,200,28709,2,0,B|172:253|172:253|240:312,1,100,10|0
204,281,28959,1,0
204,281,29043,1,2
400,82,29209,2,0,B|448:172|448:172|472:300,1,200,8|2
343,337,29709,1,8
48,40,30043,5,0
177,130,30209,2,0,B|147:185|93:200|93:200|32:320,1,200,8|0
200,344,30709,1,8
303,216,30876,1,2
464,248,31043,2,0,B|477:161|477:161|450:101|384:64,1,200,2|2
280,48,31543,1,0
260,40,31626,1,0
240,48,31709,1,2
256,160,31876,1,4
256,304,32209,6,0,B|256:354,1,50,4|4
424,56,32709,6,0,B|400:112|400:112|344:152,1,100,0|8
248,192,33043,2,0,B|288:240|288:240|344:264,1,100,2|2
480,312,33376,2,0,B|384:344|384:344|280:352,1,200,8|0
166,334,33876,1,2
166,334,33959,1,0
166,334,34043,1,0
64,270,34209,2,0,B|88:220|88:220|99:140,1,100,2|2
48,48,34543,2,0,B|123:110|123:110|240:128,1,200,2|0
376,72,35043,1,2
368,320,35376,5,0
368,320,35543,2,0,B|416:352|416:352|472:368,2,100,8|0|2
448,168,36043,1,0
320,48,36209,1,2
234,203,36376,2,0,B|186:219|186:219|135:211,1,100,2|0
25,167,36709,1,8
37,69,36876,1,0
54,53,36959,1,0
82,47,37043,1,2
176,56,37209,1,4
257,92,37543,6,0,B|257:148,1,50,4|4
91,303,38043,5,0
171,213,38209,2,0,B|221:268|298:212|362:291,1,200,2|2
461,192,38709,2,0,B|415:190|353:159,1,100,8|2
246,114,39043,2,0,B|198:114|118:134,1,100,2|2
53,218,39376,2,0,B|83:271|143:296,2,100,0|0|2
31,88,39876,2,0,B|129:98|129:98|273:60,1,200,10|0
225,192,40376,6,0,B|316:155|316:155|460:164,1,200,2|8
435,280,40876,2,0,B|495:313,2,50,2|0|0
328,224,41210,1,6
328,344,41376,1,8
224,272,41543,2,0,B|168:232,2,50,2|0|0
328,344,41876,1,2
328,224,42043,6,0,B|384:208|400:144|376:80|328:72,1,200,4|0
308,72,42793,1,0
288,72,42876,1,0
267,72,42960,1,0
247,71,43043,1,0
227,71,43126,1,0
206,71,43210,1,0
186,71,43293,1,0
166,71,43376,6,0,B|113:132|113:132|112:184|112:184|72:248,1,200,6|8
0,352,43876,1,0
144,352,44043,2,0,B|243:352,1,100,0|2
438,308,44376,1,8
304,160,44543,2,2,B|412:148|464:40,2,200,2|2|2
152,59,45376,1,0
49,208,45543,1,0
196,317,45710,1,8
372,278,45876,1,0
390,269,45960,1,0
403,254,46043,6,0,B|445:183|445:183|470:40,1,200,6|8
352,114,46543,2,0,B|317:151|317:151|268:169,1,100
83,113,46876,2,0,B|118:76|118:76|166:57,1,100,2|8
292,48,47210,2,2,B|228:90|228:90|203:146|203:146|140:189,1,200,2|2
59,258,47710,1,10
5,360,47876,1,0
125,360,48043,6,0,B|240:352|352:299,1,200,0|8
416,240,48543,2,2,B|446:154|452:43,1,200
286,208,49043,2,0,B|308:162|322:79,1,100,8|0
220,39,49376,1,2
100,54,49543,1,2
32,153,49710,1,8
55,271,49876,1,2
67,287,49960,1,0
82,299,50043,6,0,B|128:331|212:326,1,100,0|0
368,328,50376,1,10
424,192,50543,1,0
256,192,50710,1,2
424,192,50876,1,2
368,56,51043,1,8
256,192,51210,1,2
188,63,51376,6,0,B|88:88|-8:176,1,200,6|0
169,167,51876,2,0,B|144:264|40:345,2,200,6|2|0
324,63,52710,2,0,B|424:88|520:176,1,200,6|0
391,169,53210,1,0
396,188,53293,1,0
401,207,53376,1,0
405,226,53460,1,0
409,245,53543,1,0
414,264,53626,1,0
408,283,53710,1,0
400,301,53793,1,0
393,319,53876,1,0
384,337,53960,1,0
376,355,54043,6,0,B|275:314|164:304,1,200,6|8
189,186,54543,1,2
81,238,54710,1,0
81,238,54876,2,2,B|63:140|0:37,2,200,2|2|2
81,238,55710,1,10
260,78,56043,1,2
377,58,56210,1,2
482,115,56376,1,8
361,145,56543,5,0
357,164,56626,1,0
353,183,56710,2,0,B|325:282|263:340,1,150,2|0
286,315,57043,1,8
173,354,57210,2,0,B|112:370|37:376,2,100,2|0|2
78,280,57710,2,0,B|34:250|12:183,1,100,8|6
434,104,58210,2,0,B|478:134|500:201,1,100,2|10
283,323,58710,5,0
147,288,58876,1,2
58,179,59043,1,8
102,42,59210,2,2,B|134:143|220:198,1,200,2|2
232,37,59710,1,8
364,38,59876,1,0
382,45,59960,1,0
398,56,60043,1,2
484,130,60210,1,2
447,224,60376,2,0,B|433:182|387:146,1,100,8|2
252,124,60710,6,0,B|353:180|402:287,1,200,0|8
265,327,61210,1,0
247,337,61293,1,0
228,343,61376,2,0,B|168:358|102:350,1,100,2|2
13,216,61710,1,8
93,53,61876,1,2
275,54,62043,6,0,B|390:115|459:203,1,200,6|8
263,215,62543,2,0,B|202:310|121:356,1,200,2|2
118,61,63210,1,0
244,124,63376,2,0,B|330:173|478:205,1,200,6|8
445,307,63876,1,2
445,307,63960,1,0
445,307,64043,2,0,B|399:344|352:348|352:348|308:323|292:274,1,200,10|8
292,274,64460,1,0
292,274,64543,1,8
292,274,64626,1,0
292,274,64710,1,4
232,352,70043,6,0,B|328:344|384:280,1,149.999995529652,0|2
488,144,70710,1,0
121,40,71210,2,0,B|164:109|231:138,1,149.999995529652,2|2
328,184,71710,2,0,B|364:202|432:208,1,74.9999977648259,0|2
160,41,72710,6,0,B|232:36|306:79,1,149.999995529652,2|0
224,152,73210,2,0,B|296:147|370:190,1,149.999995529652,2|0
288,262,73710,2,0,B|360:257|434:300,1,149.999995529652,2|0
275,351,74210,2,0,B|195:365|122:351,1,149.999995529652,2|2
449,63,75210,5,0
432,78,75293,1,0
416,94,75376,2,0,B|349:151|283:163,1,149.999995529652,0|2
107,184,76043,1,0
393,292,76543,1,2
205,351,76876,1,2
245,253,77043,1,0
279,154,77210,1,2
455,11,78043,6,0,B|379:50|349:116,1,149.999995529652,2|0
454,139,78543,2,0,B|413:211|349:242,1,149.999995529652,2|0
455,267,79043,2,0,B|380:282|350:370,1,149.999995529652,2|0
351,365,79543,1,2
257,307,79709,1,4
169,251,79876,1,4
257,187,80043,1,4
345,123,80209,1,4
257,67,80376,5,4
40,88,80709,6,0,B|136:80|136:80|240:40,1,200,0|2
472,88,81209,2,0,B|376:96|376:96|272:136,1,200,0|0
168,176,81709,2,0,B|120:208|120:208|88:272,1,100
96,264,81959,1,0
92,283,82043,2,0,B|52:323|52:323|6:340,2,100,0|2|0
48,192,82543,1,0
464,192,82876,5,0
424,280,83043,2,0,B|304:256|236:164,1,200
189,106,83543,1,2
106,48,83709,1,2
100,148,83876,2,0,B|186:222|230:308,2,200,2|0|0
44,340,84876,1,2
44,340,85043,1,2
256,344,85376,5,0
275,344,85459,1,0
294,344,85543,1,0
314,344,85626,1,0
333,343,85709,1,0
352,343,85793,1,0
372,343,85876,1,0
391,343,85959,1,0
410,343,86043,6,0,B|463:282|463:282|464:230|464:230|412:161,1,200,6|8
329,73,86543,1,0
256,192,86709,2,0,B|206:213|206:213|156:221,1,100,0|2
23,249,87043,1,8
64,115,87209,2,2,B|141:73|141:73|255:60,2,200,2|2|2
23,249,88043,5,0
164,360,88209,1,0
343,347,88376,1,8
436,120,88543,2,2,B|408:163|355:195,1,100,2|0
248,192,88876,1,0
136,192,89043,1,8
254,89,89209,2,0,B|200:101|200:101|140:104,1,100
254,295,89543,2,0,B|200:283|200:283|140:280,1,100,2|8
28,96,89876,2,2,B|-12:192|31:311,1,200,2|2
128,192,90376,1,10
256,88,90709,5,2
320,192,90876,1,0
256,296,91043,1,8
352,80,91209,2,2,B|431:103|476:195|435:272|330:309,2,300,2|2|0
256,192,92376,1,8
160,304,92543,1,0
160,304,92626,1,0
160,304,92709,2,2,B|80:280|36:189|77:112|182:75,2,300,2|2|8
324,63,94043,6,0,B|422:93|422:93|520:176,1,200,6|0
448,328,94543,1,2
256,56,94876,1,2
64,328,95209,1,4
200,272,95376,6,0,B|152:184|144:72,1,200,6|0
24,184,95876,1,0
17,165,95959,1,0
13,144,96043,1,0
10,124,96126,1,0
13,104,96209,1,0
16,84,96293,1,0
23,65,96376,2,0,B|59:17|132:40,1,100
367,60,96709,6,0,B|436:155|383:276,1,200,6|0
238,176,97209,2,0,B|209:286|118:352,1,200,2|2
54,102,97876,5,0
54,102,98043,2,0,B|144:48|251:65,1,200,6|0
352,122,98543,1,0
367,134,98626,1,0
377,150,98709,1,0
288,216,98876,1,0
269,321,99043,1,0
249,325,99126,1,0
229,323,99209,1,0
104,320,99376,5,6
16,192,99543,1,0
104,64,99709,1,0
192,192,99876,1,2
472,192,100209,1,2
360,96,100543,5,2
192,192,100709,1,6
360,288,100876,1,2
296,192,101209,5,4
