osu file format v9

[General]
AudioFilename: i bless thy life short.mp3
AudioLeadIn: 0
PreviewTime: 51557
Countdown: 0
SampleSet: Normal
StackLeniency: 0.4
Mode: 0
LetterboxInBreaks: 0

[Editor]
Bookmarks: 3950,52033
DistanceSpacing: 1.2
BeatDivisor: 4
GridSize: 8

[Metadata]
Title:I Bless Thy Life
Artist:Itou Kanako
Creator:Lanttu
Version:Insane
Source:Angelos Armas
Tags:nitro+ Tenshi no Nichoukenjuu Garven

[Difficulty]
HPDrainRate:7
CircleSize:4
OverallDifficulty:7
ApproachRate:7
SliderMultiplier:1.6
SliderTickRate:1

[Events]
//Background and Video events
0,0,"bg.jpg"
//Break Periods
//Storyboard Layer 0 (Background)
//Storyboard Layer 1 (Fail)
//Storyboard Layer 2 (Pass)
//Storyboard Layer 3 (Foreground)
//Storyboard Sound Samples
//Background Colour Transformations
3,100,255,255,255

[TimingPoints]
3891,476.190476190476,4,2,0,60,1,0
20914,-100,4,1,0,60,0,0
21152,-100,4,2,0,80,0,0
22343,-100,4,1,0,60,0,0
22581,-100,4,2,0,80,0,0
24307,-100,4,1,0,60,0,0
24486,-100,4,2,0,80,0,0
26212,-100,4,1,0,60,0,0
26390,-100,4,2,0,80,0,0
28057,-100,4,1,0,60,0,0
28295,-100,4,2,0,80,0,0
29962,-100,4,1,0,60,0,0
30200,-100,4,2,0,80,0,0
31867,-100,4,1,0,60,0,0
32105,-100,4,2,0,80,0,0
33771,-100,4,1,0,60,0,0
34010,-100,4,2,0,80,0,0
35438,-100,4,1,0,40,0,0
35736,-100,4,1,0,60,0,0
35914,-100,4,2,0,80,0,0
36629,-100,4,1,0,60,0,0
36867,-100,4,2,0,80,0,0
37640,-100,4,1,0,60,0,0
37819,-100,4,2,0,80,0,0
38533,-100,4,1,0,60,0,0
38771,-100,4,2,0,80,0,0
39486,-100,4,1,0,60,0,0
39724,-100,4,2,0,80,0,0
40438,-100,4,1,0,60,0,0
40676,-100,4,2,0,80,0,0
41390,-100,4,1,0,60,0,0
41629,-100,4,2,0,80,0,0
42343,-100,4,1,0,60,0,0
42581,-100,4,2,0,80,0,0
43295,-100,4,1,0,60,0,0
43771,-100,4,2,0,80,0,0
44248,-100,4,1,0,60,0,0
44486,-100,4,2,0,80,0,0
45189,-100,4,1,0,60,0,0
45438,-100,4,2,0,80,0,0
46152,-100,4,1,0,60,0,0
46390,-100,4,2,0,80,0,0
47105,-100,4,1,0,60,0,0
47343,-100,4,2,0,80,0,0
48057,-100,4,1,0,60,0,0
48295,-100,4,2,0,80,0,0
49010,-100,4,1,0,60,0,0
49605,-100,4,2,0,0,0,0
51986,-100,4,2,0,100,0,0
53414,-100,4,1,0,60,0,1
60319,-100,4,1,0,60,0,0
61033,-100,4,1,0,60,0,1
70319,-100,4,1,0,60,0,0
70557,-100,4,1,0,60,0,1
70795,-100,4,1,0,60,0,0
85914,-100,4,2,0,60,0,0

[Colours]
Combo1 : 242,245,249
Combo2 : 39,61,116
Combo3 : 115,125,145

[HitObjects]
40,40,3891,2,0,B|40:184,1,120
40,160,4367,1,2
144,280,4605,2,0,B|144:128,1,120
144,160,5081,1,2
144,40,5319,1,2
472,344,5795,6,0,B|472:200,1,120
472,224,6271,1,2
368,104,6510,2,0,B|368:256,1,120
368,224,6986,1,2
368,344,7224,1,2
304,168,7700,6,0,B|288:136|256:128|224:136|208:168,1,120
208,167,8176,1,2
200,72,8414,2,0,B|224:56|256:48|288:56|312:72,1,120
313,72,8891,1,2
313,72,9129,1,2
208,216,9605,6,0,B|224:248|256:256|288:248|304:216,1,120
303,216,10081,1,2
312,312,10319,2,0,B|288:328|256:336|224:328|200:312,1,120
198,311,10795,1,2
198,311,11033,1,2
16,240,11510,6,0,B|-16:224|-24:192|-16:160|16:144,1,120
15,144,11986,1,2
96,192,12224,2,0,B|120:168|152:192|184:216|208:192,1,120
208,191,12700,1,2
256,112,12938,1,8
304,192,13176,1,2
496,144,13414,6,0,B|528:160|536:192|528:224|496:240,1,120
496,239,13891,1,2
416,192,14129,2,0,B|392:216|360:192|328:168|304:192,1,120
303,192,14605,1,2
256,272,14843,1,8
208,192,15081,1,2
200,96,15319,6,0,B|320:96,1,120
320,96,15795,1,2
320,288,16033,2,0,B|200:288,1,120
200,288,16510,1,2
256,192,16748,1,8
256,192,16986,1,2
392,256,17224,6,0,B|392:208|456:208|456:128,1,120
452,155,17700,1,10
360,104,17938,2,0,B|360:152|296:152|296:232,1,120
299,204,18414,1,2
256,288,18652,1,8
212,204,18890,1,2
120,256,19129,6,0,B|120:208|56:208|56:128,1,120
59,155,19605,1,10
152,104,19843,2,0,B|152:152|216:152|216:232,1,120
212,204,20319,1,2
256,288,20557,1,8
299,204,20795,1,2
328,112,21033,6,0,B|296:80|256:72|216:80|184:112,1,160,4|2
256,176,21748,2,0,B|256:16,1,160,0|2
344,56,22462,1,0
344,152,22700,1,2
432,112,22938,6,0,B|432:176|496:168|496:240,1,120
491,211,23414,1,2
488,304,23652,2,0,B|464:328|416:352|368:328|344:304,1,160
343,303,24248,1,2
343,303,24367,1,0
256,248,24605,1,0
256,248,24724,1,0
256,248,24843,6,0,B|256:80,1,160,2|2
184,144,25557,2,0,B|184:208|96:200|96:272,1,160
96,267,26152,1,2
96,267,26271,1,0
96,360,26510,1,2
16,312,26748,6,0,B|16:176,1,120
16,192,27224,1,2
16,96,27462,2,0,B|16:16|96:16,1,120
86,16,27938,1,2
176,40,28176,1,0
256,96,28414,1,0
256,96,28533,1,2
256,96,28652,6,0,B|256:216,1,120,0|0
256,216,29129,1,2
184,272,29367,2,0,B|216:312|256:304|296:312|328:272,1,160,0|2
408,224,30081,1,0
408,320,30319,1,2
488,272,30557,6,0,B|488:120,1,120
488,152,31033,1,2
488,56,31271,2,0,B|416:56|400:120,1,120
399,120,31748,1,2
304,96,31986,1,0
208,96,32224,1,2
256,176,32462,6,0,B|256:344,1,160,0|2
344,304,33176,2,0,B|384:304|440:256|384:208|344:208,1,160,0|2
216,128,33891,2,0,B|296:128,1,80,0|2
168,208,34367,2,0,B|128:208|72:256|128:304|168:304,1,160,0|4
256,344,35081,1,0
256,344,35200,1,2
256,344,35319,1,0
256,248,35557,1,0
256,248,35676,1,0
256,248,35795,1,0
304,160,36033,5,0
208,160,36271,1,4
256,80,36510,1,0
176,48,36748,2,0,B|176:120|112:120|112:192,1,160,0|0
112,288,37462,1,0
112,288,37581,1,0
112,288,37700,1,0
176,360,37938,6,0,B|336:360,1,160
400,288,38652,1,0
312,256,38891,2,0,B|304:208|256:192|208:208|200:256,1,160
256,336,39605,1,0
369,192,40081,5,4
256,78,40319,1,0
256,192,40557,1,0
425,112,40795,2,0,B|441:72|419:27|374:4|334:21,1,160,2|0
312,135,41510,1,0
143,192,41986,5,0
256,306,42224,1,0
256,192,42462,1,0
87,272,42700,2,0,B|70:311|92:356|137:379|177:362,1,160,2|0
200,249,43414,1,0
200,248,43652,1,0
312,192,43891,6,0,B|312:144|368:144,1,80
332,56,44367,2,0,B|288:64|256:80|256:80|224:64|180:56,1,160
148,144,45081,2,0,B|200:144|200:192,1,80
216,288,45557,6,0,B|218:321|240:371|292:383|326:380,1,160,0|0
296,288,46271,2,0,B|293:321|271:371|219:383|185:380,1,160,0|0
144,296,46986,1,0
368,296,47224,1,0
256,80,47700,6,0,B|256:0,2,80
184,144,48414,2,0,B|216:176|256:184|296:176|328:144,1,160
368,232,49129,1,0
144,232,49367,1,0
256,192,49605,12,0,51509
344,192,52700,5,0
256,88,52938,1,2
168,192,53176,1,0
168,192,53295,1,2
168,192,53414,2,0,B|168:272|96:272,1,120,4|0
99,271,53891,1,8
344,192,54129,2,0,B|344:272|416:272,1,120
412,271,54605,1,0
312,352,54843,5,8
200,352,55081,1,0
256,264,55319,2,0,B|256:168,1,80
256,176,55676,2,2,B|296:160|256:128|216:96|256:80,1,120,10|2
344,112,56271,1,0
168,112,56510,1,0
256,216,56748,5,8
304,304,56986,1,0
256,312,57105,1,0
208,304,57224,2,0,B|160:304|160:232|96:232,1,120,4|0
114,234,57700,1,8
304,304,57938,2,0,B|352:304|352:232|416:232,1,120
397,234,58414,1,0
464,160,58652,6,0,B|464:72,1,80,8|0
376,128,59129,2,0,B|320:128|320:64,1,80
320,72,59486,2,2,B|200:72,1,120,10|2
136,128,60081,2,0,B|192:128|192:64,1,80
256,152,60557,5,8
256,272,60795,1,0
256,272,60914,1,8
256,272,61033,2,0,B|256:144,1,120,4|0
256,152,61510,1,8
312,72,61748,2,0,B|288:56|256:40|224:56|200:72,1,120
152,80,62224,1,0
256,152,62462,1,8
360,80,62700,1,0
368,208,62938,5,0
256,48,63295,1,10
144,208,63652,1,2
256,152,63891,6,0,B|256:248,1,80,0|8
256,328,64367,1,0
256,328,64486,1,8
256,328,64605,1,0
200,208,64843,6,0,B|112:208|112:112,1,120,4|8
256,112,65557,1,0
312,208,65795,2,0,B|400:208|400:112,1,120,0|8
256,112,66510,1,0
200,32,66748,6,0,B|224:16|256:0|288:16|312:32,1,120,4|8
256,160,67462,1,0
200,240,67700,2,0,B|224:256|256:272|288:256|312:240,1,120,0|8
256,112,68414,1,0
192,40,68652,5,4
96,192,69010,1,2
192,344,69367,1,2
320,344,69605,5,4
416,192,69962,1,2
320,40,70319,1,2
256,104,70557,6,0,B|263:131|219:146|175:162|183:189,1,120,4|0
182,188,71033,1,8
256,104,71271,2,0,B|248:131|292:146|336:162|328:189,1,120,0|0
329,188,71747,1,0
256,256,71986,1,8
256,256,72224,1,8
184,192,72462,6,0,B|184:248|128:248|128:328,1,120,4|0
131,297,72938,1,8
328,192,73176,2,0,B|328:248|384:248|384:328,1,120
380,297,73652,1,0
256,352,73890,1,8
256,352,74129,1,8
200,232,74367,6,0,B|256:272|312:232,1,120,4|0
336,192,74843,1,8
312,96,75081,2,0,B|256:56|200:96,1,120
176,136,75557,1,0
256,192,75795,1,8
256,192,76033,1,8
336,136,76271,5,4
256,16,76629,1,2
176,136,76986,1,2
256,192,77224,5,4
328,312,77581,1,2
184,312,77938,1,2
184,216,78176,6,0,B|96:128,1,120,4|0
99,131,78652,1,8
328,216,78890,2,0,B|416:128,1,120,0|0
412,131,79367,1,0
256,144,79605,1,8
256,240,79843,1,8
184,168,80081,6,0,B|96:256,1,120,4|0
99,253,80557,1,8
328,168,80795,2,0,B|416:256,1,120,0|0
412,253,81272,1,0
256,240,81510,1,8
256,144,81748,1,8
144,96,81986,6,0,B|200:96|200:56|256:56,1,120,4|0
256,56,82462,1,8
368,288,82700,2,0,B|312:288|312:328|256:328,1,120
256,328,83176,1,0
256,192,83414,1,8
256,192,83652,1,8
192,64,83890,5,4
128,192,84248,1,2
192,320,84605,1,2
320,320,84843,5,4
384,192,85200,1,2
320,64,85557,1,2
400,120,85795,5,4
464,192,86033,1,0
464,192,86152,1,2
400,264,86390,1,0
400,264,86510,1,2
304,264,86748,5,0
304,264,86867,1,0
368,192,87105,1,0
368,192,87224,1,2
304,120,87462,1,2
208,120,87700,5,0
144,192,87938,1,0
144,192,88057,1,2
208,264,88295,1,0
208,264,88414,1,2
112,264,88652,5,0
112,264,88771,1,0
48,192,89010,1,0
48,192,89129,1,2
112,120,89367,1,2
184,48,89605,5,0
256,120,89843,1,0
256,120,89962,1,2
328,48,90200,1,0
328,48,90319,1,2
256,120,90557,5,0
256,120,90676,1,0
256,216,90914,1,0
256,216,91033,1,2
256,312,91271,1,2
168,352,91510,5,0
256,312,91748,1,0
256,312,91867,1,2
344,352,92105,1,0
344,352,92224,1,2
304,264,92462,5,0
304,264,92581,1,0
208,264,92819,1,0
208,264,92938,1,2
256,176,93176,1,2
