osu file format v9

[General]
AudioFilename: i bless thy life short.mp3
AudioLeadIn: 0
PreviewTime: 51557
Countdown: 0
SampleSet: Soft
StackLeniency: 0.7
Mode: 0
LetterboxInBreaks: 0

[Editor]
Bookmarks: 3950
DistanceSpacing: 1.1
BeatDivisor: 4
GridSize: 8

[Metadata]
Title:I Bless Thy Life
Artist:Itou Kanako
Creator:Lanttu
Version:Hard
Source:Angelos Armas
Tags:nitro+ Tenshi no Nichoukenjuu Garven

[Difficulty]
HPDrainRate:5
CircleSize:4
OverallDifficulty:5
ApproachRate:6
SliderMultiplier:1.4
SliderTickRate:0.5

[Events]
//Background and Video events
0,0,"bg.jpg"
//Break Periods
//Storyboard Layer 0 (Background)
//Storyboard Layer 1 (Fail)
//Storyboard Layer 2 (Pass)
//Storyboard Layer 3 (Foreground)
//Storyboard Sound Samples
//Background Colour Transformations
3,100,255,255,255

[TimingPoints]
3891,476.190476190476,4,2,0,60,1,0
20914,-100,4,1,0,60,0,0
21152,-100,4,2,0,80,0,0
35676,-100,4,1,0,60,0,0
35914,-100,4,2,0,80,0,0
36629,-100,4,1,0,60,0,0
36867,-100,4,2,0,80,0,0
37581,-100,4,1,0,60,0,0
37819,-100,4,2,0,80,0,0
38533,-100,4,1,0,60,0,0
38771,-100,4,2,0,80,0,0
39486,-100,4,1,0,60,0,0
39724,-100,4,2,0,80,0,0
40438,-100,4,1,0,60,0,0
40676,-100,4,2,0,80,0,0
41391,-100,4,1,0,60,0,0
41629,-100,4,2,0,80,0,0
42343,-100,4,1,0,60,0,0
42581,-100,4,2,0,80,0,0
43295,-100,4,1,0,60,0,0
43771,-100,4,2,0,80,0,0
44248,-100,4,1,0,60,0,0
44486,-100,4,2,0,80,0,0
45200,-100,4,1,0,60,0,0
45438,-100,4,2,0,80,0,0
46152,-100,4,1,0,60,0,0
46391,-100,4,2,0,80,0,0
47105,-100,4,1,0,60,0,0
47343,-100,4,2,0,80,0,0
48057,-100,4,1,0,60,0,0
48295,-100,4,2,0,80,0,0
49010,-100,4,1,0,60,0,0
49605,-100,4,2,0,0,0,0
51986,-100,4,2,0,100,0,0
53414,-100,4,1,0,60,0,1
60319,-100,4,1,0,60,0,0
61033,-100,4,1,0,60,0,1
70319,-100,4,1,0,60,0,0
70557,-100,4,1,0,60,0,1
70795,-100,4,1,0,60,0,0
85914,-100,4,2,0,60,0,0

[Colours]
Combo1 : 242,245,249
Combo2 : 39,61,116
Combo3 : 115,125,145

[HitObjects]
280,304,3891,2,0,B|344:304|344:368,2,105,0|0|2
248,152,5081,2,0,B|296:152|296:104,2,70,0|2|0
232,80,5795,2,0,B|168:80|168:16,2,105,0|0|2
264,232,6986,2,0,B|216:232|208:272,2,70,0|2|0
328,272,7700,5,0
424,336,8057,1,0
480,232,8414,1,2
328,272,8891,2,0,B|272:328,1,70,0|2
256,248,9367,1,0
184,280,9605,5,0
88,336,9962,1,0
32,232,10319,1,2
184,280,10795,2,0,B|240:336,1,70,0|2
256,248,11271,1,0
256,168,11510,6,0,B|320:168|320:96,1,105,0|2
376,200,12224,2,0,B|376:136|440:136,1,105,0|2
344,64,12938,1,8
272,96,13176,1,2
256,168,13414,6,0,B|192:168|192:96,1,105,0|2
136,200,14129,2,0,B|136:136|72:136,1,105,0|2
120,32,14843,1,8
168,96,15081,1,2
200,168,15319,5,0
312,168,15676,1,2
312,280,16033,1,0
200,280,16390,1,2
256,176,16748,2,0,B|256:104,2,70,8|2|0
176,264,17581,6,0,B|136:240|128:304|72:272,2,105,2|8|2
256,352,18652,1,8
256,272,18890,1,2
336,264,19129,2,0,B|376:240|384:304|440:272,2,105,0|2|8
256,184,20200,1,2
224,72,20557,2,0,B|256:48|288:72,1,70,8|2
352,128,21033,5,4
256,184,21390,1,0
160,128,21748,1,0
48,232,22224,5,0
80,304,22462,1,2
152,336,22700,1,0
208,280,22938,2,0,B|224:256|288:256|304:280,2,105,2|0|2
360,336,24129,1,0
432,304,24367,1,2
464,232,24605,1,0
408,176,24843,6,0,B|360:208|304:176|296:128,1,140,2|0
214,132,25557,2,0,B|208:176|152:208|104:176,1,140,2|0
32,168,26271,1,2
72,104,26510,1,0
144,120,26748,2,0,B|120:64|160:24|216:40,1,140,2|0
298,39,27462,2,0,B|352:24|392:64|368:120,1,140,2|0
440,104,28176,1,2
480,168,28414,1,0
424,216,28652,5,2
440,328,29010,1,0
328,304,29367,1,2
256,168,29843,5,0
256,248,30081,1,2
256,328,30319,1,0
184,304,30557,5,2
72,328,30914,1,0
88,216,31271,1,2
200,112,31748,5,0
256,168,31986,1,2
312,112,32224,1,0
320,32,32462,6,0,B|256:80|192:32,1,140,2|0
200,112,33176,2,0,B|200:160|104:160|104:208,2,140,2|2|0
312,112,34367,2,0,B|312:160|408:160|408:208,1,140,0|4
352,352,35319,1,0
288,304,35557,2,0,B|256:280|224:304,1,70,2|0
160,352,36033,1,0
128,280,36271,6,0,B|88:296|80:344,1,70,4|0
32,272,36748,2,0,B|88:208|40:144,1,140
112,128,37462,2,0,B|144:152|184:128,1,70
256,112,37938,6,0,B|256:256,1,140,0|0
256,328,38652,1,0
336,320,38891,2,0,B|336:232|424:232,1,140,0|0
416,312,39605,2,0,B|432:344|480:352,1,70
488,272,40081,5,4
424,232,40319,1,2
360,192,40557,1,0
288,160,40795,2,0,B|288:96|216:112|216:48,1,140,2|0
215,48,41510,1,0
24,272,41986,5,2
88,232,42224,1,2
152,192,42462,1,0
224,160,42700,2,0,B|224:96|296:112|296:48,1,140,2|0
296,48,43414,1,0
440,96,43891,6,0,B|400:80|400:24,1,70
352,104,44367,2,0,B|360:184|272:248,1,140
296,304,45081,1,0
216,304,45319,1,0
214,227,45557,2,0,B|152:184|160:104,1,140
112,40,46271,1,0
256,88,46748,5,0
256,168,46986,1,0
256,248,47224,1,0
200,104,47700,6,0,B|144:104|112:128,2,70,4|0|0
208,184,48414,2,0,B|208:224|256:240|304:224|304:184,1,140
312,104,49129,2,0,B|368:104|400:128,1,70
256,192,49605,12,0,51509
200,144,52700,5,0
256,200,52938,1,2
312,144,53176,1,0
312,144,53295,1,2
312,144,53414,2,0,B|368:144|408:216|448:144,1,140,4|0
440,80,54129,1,8
472,232,54605,5,0
408,280,54843,1,8
336,304,55081,1,0
256,296,55319,2,0,B|280:272|256:248|232:224|256:200,2,105,0|2|2
176,304,56271,1,8
104,280,56510,1,0
40,232,56748,5,8
72,157,56986,1,0
72,157,57105,1,0
72,157,57224,2,0,B|104:208|144:144|200:144,1,140,4|0
192,64,57938,2,0,B|224:32|288:32|320:64,1,140,8|0
256,120,58652,1,8
256,208,58891,1,8
192,248,59129,5,0
256,344,59486,1,2
320,248,59843,1,2
256,208,60081,1,8
296,144,60319,5,0
216,144,60557,1,0
256,80,60795,1,0
256,80,60914,1,0
256,80,61033,2,0,B|304:80|208:0|256:0,2,105,4|0|8
216,232,62224,5,0
296,232,62462,1,8
256,296,62700,1,0
256,296,62938,2,0,B|208:296|304:376|256:376,2,105,0|0|0
296,232,63891,1,0
216,232,64129,1,8
256,168,64367,1,8
296,16,64843,6,0,B|360:16|392:56,2,105,4|0|0
216,16,65795,2,2,B|152:16|120:56,2,105
256,80,66748,1,4
312,184,67105,1,0
200,184,67462,1,0
208,264,67700,2,2,B|256:304|304:264,2,105
136,280,68652,5,4
176,168,69010,1,0
216,56,69367,1,0
296,56,69605,5,4
336,168,69962,1,0
376,280,70319,1,0
312,240,70557,6,0,B|288:280|304:336|352:344,1,105,4|0
184,334,71271,2,8,B|208:320|224:280|200:240,1,105,8|8
256,136,71986,2,8,B|256:208,1,70,0|8
312,152,72462,6,0,B|288:112|304:56|352:48,1,105,4|0
184,57,73176,2,0,B|207:71|223:111|199:151,1,105,8|8
256,256,73890,2,8,B|256:184,1,70,0|8
328,176,74367,6,0,B|368:224|328:272,1,105,4|0
184,176,75081,2,0,B|144:224|184:272,1,105,8|8
256,192,75795,1,0
256,112,76033,1,8
256,32,76271,5,4
176,112,76629,1,0
256,192,76986,1,0
256,192,77224,5,4
336,272,77581,1,0
256,352,77938,1,0
185,319,78176,6,0,B|145:271|185:223,1,105,4|0
72,184,78890,2,0,B|79:122|142:118,1,105,8|8
256,144,79605,2,8,B|256:72,1,70,0|8
370,118,80081,6,0,B|432:122|440:184,1,105,4|0
327,223,80795,2,0,B|367:271|327:319,1,105,8|8
256,232,81510,2,8,B|256:160,1,70,0|8
304,104,81986,6,0,B|256:64|208:104,3,105,4|0|8|8
200,216,83414,1,0
256,160,83652,1,8
312,216,83890,5,4
312,328,84248,1,2
200,328,84605,1,2
256,272,84843,1,4
256,160,85200,1,2
256,48,85557,1,2
312,104,85795,5,4
424,80,86152,1,2
384,192,86510,1,2
424,304,86867,1,2
320,280,87224,1,0
256,240,87462,1,2
192,280,87700,5,0
88,304,88057,1,2
128,192,88414,1,2
88,80,88771,1,2
200,104,89129,1,0
256,160,89367,1,2
312,104,89605,5,0
256,208,89962,1,2
200,312,90319,1,2
312,312,90676,1,2
256,208,91033,1,0
256,208,91271,1,2
256,128,91510,5,0
320,224,91867,1,2
256,128,92224,1,2
192,224,92581,1,2
256,320,92938,1,0
256,320,93176,1,2
