osu file format v9

[General]
AudioFilename: hacking to the gate.mp3
AudioLeadIn: 1000
PreviewTime: 61829
Countdown: 0
SampleSet: Normal
StackLeniency: 0.6
Mode: 0
LetterboxInBreaks: 1

[Editor]
Bookmarks: 1853,7815,13778,19718,25680,31643,37606,43569,49531,55494,61457,67420,73382,79345,85308
DistanceSpacing: 1
BeatDivisor: 4
GridSize: 4

[Metadata]
Title:Hacking to the Gate (TV Size)
Artist:Itou Kanako
Creator:qilliam
Version:Normal
Source:Steins;Gate
Tags:5pb nitroplus nitro+

[Difficulty]
HPDrainRate:3
CircleSize:3
OverallDifficulty:3
ApproachRate:5
SliderMultiplier:0.899999999999999
SliderTickRate:1

[Events]
//Background and Video events
0,0,"bg.jpg"
Video,-300,"video.avi"
//Break Periods
//Storyboard Layer 0 (Background)
//Storyboard Layer 1 (Fail)
//Storyboard Layer 2 (Pass)
//Storyboard Layer 3 (Foreground)
//Storyboard Sound Samples
//Background Colour Transformations
3,100,0,0,0

[TimingPoints]
1830,372.670807453416,4,1,1,50,1,0
13708,-100,4,1,1,35,0,0
22652,-100,4,1,1,50,0,0
25634,-100,4,1,1,35,0,0
34578,-100,4,1,1,50,0,0
37420,-125,4,1,1,50,0,0
42823,-100,4,1,1,50,0,0
49345,-125,4,1,1,50,0,0
54749,-100,4,1,1,50,0,0
62948,-100,4,1,1,50,0,1
88103,-100,4,1,1,50,0,0

[Colours]
Combo1 : 189,65,231
Combo2 : 252,114,117
Combo3 : 166,202,255
Combo4 : 45,186,20

[HitObjects]
40,223,1830,2,0,B|64:343|196:311,1,180,6|2
232,252,2948,1,0
319,270,3320,1,2
292,183,3693,1,0
345,110,4066,2,0,B|297:74|246:108,1,89.9999999999999,2|0
170,106,4811,6,0,B|122:66|122:66|18:94|54:170,1,180,6|2
30,228,5929,1,0
84,300,6302,2,0,B|120:300|120:300|132:312|132:312|184:312,1,89.9999999999999,2|0
259,312,7047,1,2
303,312,7233,2,0,B|352:324|388:260,1,89.9999999999999
412,244,7792,6,0,B|412:208|412:208|420:192|420:192|420:152,1,89.9999999999999,6|0
377,75,8538,1,2
293,108,8910,1,0
209,75,9283,6,0,B|169:75|169:75|161:83|161:83|121:83,1,89.9999999999999,6|0
122,173,10028,1,2
206,205,10401,1,0
290,237,10774,6,0,B|375:269,1,89.9999999999999,6|0
459,240,11519,1,2
394,177,11892,1,0
349,99,12264,6,0,B|306:100|306:100|294:92|294:92|253:91,1,89.9999999999999,6|0
171,91,13010,2,0,B|108:90,2,45,2|0|0
171,181,13755,5,8
90,218,14128,1,0
101,306,14500,1,8
188,322,14873,1,0
231,245,15246,5,8
305,194,15618,1,0
355,268,15991,1,8
280,318,16364,1,0
231,245,16736,6,0,B|172:244|160:192,1,89.9999999999999,8|0
225,134,17482,2,0,B|196:82|144:96,1,89.9999999999999,8|0
68,128,18227,6,0,B|36:84|68:44,2,89.9999999999999,8|0|8
129,194,19345,1,0
214,222,19718,6,0,B|254:222|254:222|270:230|270:230|306:230,1,89.9999999999999,8|0
308,140,20463,2,0,B|348:140|348:140|364:148|364:148|400:148,1,89.9999999999999,8|0
396,238,21208,5,8
332,300,21581,1,0
256,348,21954,1,8
180,300,22326,1,0
256,248,22699,6,0,B|256:196,3,45,4|0|0|0
256,112,23631,2,0,B|256:52,2,45,4|0|0
256,292,24749,6,0,B|256:200,1,89.9999999999999,4|0
256,156,25308,1,0
193,91,25680,5,8
112,128,26053,1,0
123,216,26426,1,8
210,232,26798,1,0
256,156,27171,5,8
330,105,27544,1,0
380,179,27916,1,8
305,229,28289,1,0
256,156,28662,6,0,B|168:156,1,89.9999999999999,8|0
206,236,29407,2,0,B|114:236,1,89.9999999999999,8|0
156,316,30152,6,0,B|44:316,2,89.9999999999999,8|0|8
246,316,31270,1,0
336,316,31643,6,0,B|400:312|412:236,1,89.9999999999999,8|0
327,217,32389,2,0,B|331:170|395:166,1,89.9999999999999,8|0
478,190,33134,5,8
459,101,33507,1,0
382,53,33879,1,8
292,43,34252,1,0
279,132,34625,6,0,B|332:144,2,45,4|0|0
233,132,35184,2,0,B|180:144,2,45,4|0|0
256,170,35743,2,0,B|256:248,1,45,0|4
232,300,36302,6,0,B|180:300,1,45
280,300,36861,2,0,B|332:300,1,45,4|0
394,279,37420,6,0,B|423:215|423:215|412:163|385:137|340:133,1,180,0|2
307,83,38724,1,2
271,83,38910,6,0,B|214:83|214:83|183:71|183:71|117:72|117:72|105:64|105:64|97:76,1,180,0|2
59,132,40215,1,2
130,142,40587,6,0,B|169:142|169:142|216:156|229:202|205:246,1,144,2|2
142,236,41705,2,0,B|142:304,1,36
69,272,42264,2,0,B|69:233,1,36,0|2
177,41,43382,6,0,B|189:53|189:53|201:45|201:45|285:45,1,89.9999999999999,8|8
304,45,43941,1,0
327,132,44314,1,8
258,190,44687,1,0
213,190,44873,6,0,B|201:202|201:202|209:214|209:214|209:298,1,89.9999999999999,8|8
209,317,45432,1,0
294,346,45805,1,8
379,317,46177,1,0
442,253,46550,6,0,B|496:215|453:139,1,89.9999999999999,8|0
378,175,47295,2,0,B|391:110|308:84,1,89.9999999999999,8|0
256,71,48041,6,0,B|256:139,1,45,4|0
256,160,48413,1,0
256,250,48786,2,0,B|256:294,1,45,4|0
183,295,49345,6,0,B|146:332|146:332|87:339|55:307|51:255,1,180,0|2
39,196,50649,1,2
64,170,50836,6,0,B|121:170|121:170|152:158|152:158|216:158|216:158|232:150|232:150|236:162,1,180,0|2
306,157,52140,1,2
335,91,52513,6,0,B|375:59|375:59|435:63|459:91|451:127,1,144,2|2
450,173,53631,2,0,B|506:174,1,36,2|0
485,245,54190,2,0,B|451:245,1,36,0|2
261,120,55308,6,0,B|201:120|201:120|187:127|187:127|126:127,1,135,8|0
82,127,56053,1,8
37,205,56426,1,0
45,294,56798,6,0,B|105:294|105:294|119:301|119:301|180:301,1,135,8|0
223,301,57544,1,8
312,301,57916,1,0
374,237,58289,5,4
301,72,59034,5,4
136,145,59780,5,4
209,310,60525,5,4
256,192,61457,5,4
148,42,62948,5,4
132,83,63134,1,0
44,80,63507,2,0,B|35:136|106:172,1,89.9999999999999,4|4
164,188,64252,1,4
252,206,64625,5,8
296,206,64811,2,0,B|348:206,2,45,2|8|2
296,296,65556,1,8
341,296,65743,6,0,B|388:308|388:308|440:288|440:208,1,135,2|0
437,196,66488,1,8
420,107,66861,1,8
355,169,67233,6,0,B|316:168|316:168|300:176|300:176|248:176,1,89.9999999999999,2|8
221,176,67792,1,2
193,261,68165,2,0,B|142:243|133:185,1,89.9999999999999,0|2
98,115,68910,5,4
52,115,69097,1,0
28,201,69469,2,0,B|28:240|28:240|34:252|34:252|36:304,1,89.9999999999999,4|4
110,340,70215,1,4
189,298,70587,5,8
234,298,70774,2,0,B|283:299,2,45,2|8|2
234,207,71519,1,8
278,207,71705,6,0,B|278:168|278:168|312:120|372:128,1,135,2|0
403,137,72451,1,8
454,210,72823,1,8
364,219,73196,6,0,B|367:277|296:296,1,89.9999999999999,2|8
272,288,73755,1,2
181,288,74128,1,0
91,288,74500,1,2
138,211,74873,5,4
138,166,75059,1,0
156,77,75432,2,0,B|212:88|224:144,1,89.9999999999999,4|4
310,132,76177,1,4
387,86,76550,5,8
431,86,76736,2,0,B|485:86,2,45,2|8|2
464,169,77482,1,8
464,213,77668,6,0,B|472:220|472:220|468:233|468:233|468:261|468:261|464:269|464:269|464:321|464:321|452:337,1,135,2|0
411,317,78413,1,8
335,267,78786,1,8
247,247,79159,6,0,B|247:207|247:207|243:195|243:195|243:143,1,89.9999999999999,2|8
264,117,79718,1,2
342,73,80090,2,0,B|402:69|426:129,1,89.9999999999999,0|2
343,163,80836,5,4
378,191,81022,1,0
378,281,81395,2,0,B|339:280|339:280|324:288|324:288|284:288,1,89.9999999999999,4|4
199,288,82140,1,4
121,242,82513,5,8
104,199,82699,2,0,B|86:154,2,45,2|8|2
193,185,83444,1,8
224,153,83631,6,0,B|276:152|276:152|296:160|296:160|336:160|336:160|356:152|356:152|372:152,1,135,2|0
387,120,84376,1,8
323,56,84749,1,8
233,56,85121,6,0,B|205:56|205:56|197:52|197:52|197:60|197:60|188:56|188:56|133:56,1,89.9999999999999,2|8
107,56,85680,1,2
28,100,86053,2,0,B|44:145|104:149,1,89.9999999999999,0|2
256,192,86798,12,4,88103
