osu file format v9

[General]
AudioFilename: hacking to the gate.mp3
AudioLeadIn: 1000
PreviewTime: 61829
Countdown: 0
SampleSet: Normal
StackLeniency: 0.6
Mode: 0
LetterboxInBreaks: 1

[Editor]
Bookmarks: 1853,7815,13778,19718,25680,31643,37606,43569,49531,55494,61457,67420,73382,79345,85308
DistanceSpacing: 1
BeatDivisor: 4
GridSize: 4

[Metadata]
Title:Hacking to the Gate (TV Size)
Artist:Itou Kanako
Creator:qilliam
Version:Insane
Source:Steins;Gate
Tags:5pb nitroplus nitro+

[Difficulty]
HPDrainRate:7
CircleSize:4
OverallDifficulty:7
ApproachRate:8
SliderMultiplier:2
SliderTickRate:1

[Events]
//Background and Video events
0,0,"bg.jpg"
Video,-300,"video.avi"
//Break Periods
//Storyboard Layer 0 (Background)
//Storyboard Layer 1 (Fail)
//Storyboard Layer 2 (Pass)
//Storyboard Layer 3 (Foreground)
//Storyboard Sound Samples
//Background Colour Transformations
3,100,0,0,0

[TimingPoints]
1830,372.670807453416,4,1,1,50,1,0
13708,-100,4,1,1,35,0,0
22652,-100,4,1,1,50,0,0
25634,-100,4,1,1,35,0,0
34578,-100,4,1,1,50,0,0
37420,-133.333333333333,4,1,1,50,0,0
42823,-100,4,1,1,50,0,0
49345,-133.333333333333,4,1,1,50,0,0
54749,-100,4,1,1,50,0,0
62948,-100,4,1,1,50,0,1
88103,-100,4,1,1,50,0,0

[Colours]
Combo1 : 189,65,231
Combo2 : 252,114,117
Combo3 : 166,202,255
Combo4 : 45,186,20

[HitObjects]
256,123,1830,1,6
324,192,2016,1,0
256,260,2202,1,8
187,192,2389,1,0
287,111,2575,5,2
335,223,2761,1,0
223,271,2948,1,8
175,159,3134,1,0
327,119,3320,5,2
327,263,3507,1,0
183,263,3693,1,8
183,119,3879,1,0
365,145,4066,5,2
301,301,4252,1,0
145,237,4438,1,8
209,81,4625,1,0
392,192,4811,5,2
256,328,4997,1,0
119,192,5184,1,8
256,55,5370,1,0
366,236,5556,5,2
211,302,5743,1,0
144,147,5929,1,8
300,80,6115,1,0
327,263,6302,5,2
183,263,6488,1,0
183,119,6674,1,8
327,119,6861,1,0
352,216,7047,5,2
352,216,7233,2,0,B|340:208|340:208|328:216|328:216|252:216|252:216|244:208|244:208|172:208|172:208|164:216,1,200
64,231,7792,6,0,B|64:183|64:183|72:175|72:175|72:103,1,100,6|0
72,134,8165,1,0
150,72,8351,1,0
242,112,8538,1,2
333,72,8724,1,0
424,112,8910,2,0,B|416:170|356:168,1,100
368,268,9283,6,0,B|348:260|348:260|304:260|304:260|292:252|292:252|248:252,1,100,6|0
236,345,9656,1,0
236,345,9842,1,0
173,266,10028,1,2
173,266,10215,1,0
73,266,10401,2,0,B|65:202|5:198,1,100
11,98,10774,6,0,B|59:98|59:98|63:106|63:106|139:106,1,100,6|0
205,106,11146,1,0
275,176,11333,1,0
204,246,11519,1,2
274,316,11705,1,0
374,316,11892,2,0,B|384:252|440:248,1,100
468,151,12264,6,0,B|468:124|468:124|444:96|408:88|405:91,1,100,6|0
358,73,12544,1,0
311,92,12637,2,0,B|304:100|304:100|224:100|224:100|216:92,1,100
128,48,13010,1,2
108,92,13103,1,0
128,136,13196,1,0
108,180,13289,1,0
128,224,13382,2,0,B|128:260|128:260|136:272|136:272|120:272|120:272|128:284|128:284|128:324,1,100
220,344,13755,5,8
304,288,13941,1,0
404,288,14128,1,8
488,232,14314,1,0
460,136,14500,2,0,B|412:136|412:136|412:144|412:144|360:144,1,100,8|0
360,44,14873,2,0,B|312:44|312:44|312:52|312:52|268:52,1,100,8|0
167,52,15246,6,0,B|132:56|132:56|104:80|96:108|100:140,1,100,8|0
190,152,15618,1,8
190,252,15805,1,0
276,200,15991,2,0,B|312:200|312:200|316:196|316:196|316:204|316:204|320:200|320:200|380:200,2,100,8|0|8
276,200,16550,1,0
276,299,16736,6,0,B|320:299|320:299|320:307|320:307|368:307,1,100,8|0
403,271,17016,1,0
438,235,17109,2,0,B|438:191|438:191|430:191|430:191|430:143,1,100,8|0
376,60,17482,1,8
276,80,17668,2,0,B|271:140|330:150,2,100,0|8|0
176,60,18227,5,8
92,112,18413,1,0
124,208,18600,1,8
40,260,18786,1,0
132,304,18972,2,0,B|164:304|164:304|196:316|208:336|204:360,1,100,8|0
296,312,19345,2,0,B|296:280|296:280|308:248|328:236|352:240,1,100,8|0
443,220,19718,6,0,B|443:188|443:188|431:156|411:144|387:148,1,100,8|0
352,120,19997,1,0
310,147,20090,2,0,B|304:156|304:156|296:148|296:148|228:148|228:148|224:132|224:132|212:148,1,100,8|0
168,56,20463,1,8
88,116,20649,1,0
44,208,20836,1,8
44,307,21022,1,0
140,284,21208,6,0,B|136:280|136:280|140:276|140:276|140:240|140:240|148:236|148:236|148:188,2,100,8|0|8
140,284,21767,1,0
237,307,21954,1,8
336,307,22140,1,0
336,307,22326,2,0,B|364:303|364:303|384:287|400:271|404:247|392:235,1,100,8|0
395,143,22699,5,4
207,51,22885,1,0
115,238,23072,1,0
303,330,23258,1,0
231,146,23631,5,0
315,197,23817,1,0
227,244,24003,1,0
256,192,24749,5,4
256,192,25121,1,0
256,192,25308,1,0
424,84,25680,6,0,B|424:132|424:132|432:136|432:136|432:204,1,100,8|0
368,256,26053,1,8
268,256,26239,1,0
318,169,26426,1,8
318,169,26612,2,0,B|316:136|316:136|296:104|268:92|244:96,1,100,0|8
168,72,26985,1,0
84,128,27171,5,8
84,227,27357,2,0,B|84:268|84:268|80:276|80:276|88:276|88:276|84:284|84:284|84:340,1,100,0|8
84,317,27730,1,0
183,317,27916,2,0,B|184:284|184:284|196:264|212:252|228:248|240:248,1,100,8|0
336,224,28289,1,8
408,292,28475,1,0
428,192,28662,5,8
336,224,28848,1,0
352,123,29034,2,0,B|352:96|352:96|328:68|304:56|291:61,1,100,8|0
252,92,29314,1,0
211,62,29407,2,0,B|167:62|167:62|159:70|159:70|103:70,1,100,8|0
52,148,29780,1,8
151,148,29966,1,0
151,247,30152,5,8
50,247,30339,1,0
52,148,30525,1,8
151,148,30711,1,0
237,198,30898,2,0,B|268:196|268:196|300:172|312:148|304:128,1,100,8|0
248,60,31270,2,0,B|276:44|276:44|328:44|328:44|340:52,1,100,8|0
432,96,31643,6,0,B|440:104|440:104|432:112|432:112|432:180|432:180|424:184,1,100,8|0
404,232,31923,1,0
424,277,32016,2,0,B|420:304|420:304|400:324|384:336|356:324,1,100,8|0
264,284,32389,1,8
172,324,32575,1,0
188,224,32761,2,0,B|188:192|188:192|200:168|224:152|252:156,1,100,8|0
300,72,33134,6,0,B|344:72|344:72|352:80|352:80|408:80,2,100,8|0|8
199,72,33693,1,0
100,92,33879,1,8
56,184,34066,1,0
155,184,34252,2,0,B|200:184|200:184|208:176|208:176|252:176,1,100,8|0
303,86,34625,5,4
361,239,34811,1,0
208,297,34997,1,0
150,144,35184,1,0
343,157,35370,5,0
289,278,35556,1,0
169,224,35743,1,0
222,104,35929,1,4
256,192,36302,5,4
256,192,36488,1,4
256,192,36861,1,4
256,192,37047,1,4
360,300,37420,6,0,B|336:316|336:316|288:316|288:316|280:308|280:308|192:308,1,149.999995529652,4|0
142,308,37979,1,2
88,168,38351,2,0,B|76:124|112:96,1,74.9999977648259,2|0
240,168,38910,1,0
368,88,39283,5,0
442,77,39469,1,2
415,147,39656,1,0
288,228,40028,1,0
218,199,40215,1,2
277,153,40401,1,0
236,90,40587,6,0,B|176:78|176:78|132:94|108:118|108:146,1,149.999995529652,2|2
109,132,41146,1,0
168,268,41519,2,0,B|128:268|128:268|124:276|124:276|76:276,2,74.9999977648259,0|2|0
318,268,42264,5,0
318,268,42451,1,2
429,102,42823,2,0,B|386:58|332:74,1,100,2|0
241,96,43196,1,8
144,124,43382,1,0
220,192,43569,5,2
192,96,43755,1,0
108,152,43941,1,8
200,193,44128,1,0
148,108,44314,1,2
81,183,44500,1,0
180,199,44687,1,8
216,292,44873,6,0,B|224:300|224:300|232:292|232:292|300:292|300:292|312:300|312:300|392:300|392:300|400:288,1,200,4|0
476,220,45432,1,8
448,124,45618,1,0
376,192,45805,1,2
348,96,45991,1,0
276,164,46177,1,8
248,68,46364,1,0
148,68,46550,6,0,B|96:84|96:84|52:128|52:184|80:220,1,200,6|8
144,292,47109,1,0
239,292,47295,2,0,B|240:236|196:208,1,100,2|0
248,124,47668,2,0,B|256:116|256:116|264:124|264:124|328:124|328:124|340:132,1,100,8|0
379,222,48041,5,4
179,294,48227,1,4
219,82,48413,1,4
256,192,48786,5,4
256,192,48972,1,0
256,192,49345,6,0,B|264:204|264:204|284:192|284:192|328:192|328:192|344:180|344:180|408:180,1,149.999995529652,4|0
392,104,49904,1,2
248,60,50277,2,0,B|216:60|216:60|204:68|204:68|160:68,1,74.9999977648259,2|0
92,192,50836,1,0
224,264,51208,5,0
260,332,51395,1,2
299,268,51581,1,0
321,119,51954,1,0
268,65,52140,1,2
340,45,52326,1,0
404,84,52513,6,0,B|404:120|404:120|412:136|412:136|412:176|412:176|404:192|404:192|404:232,1,149.999995529652,2|2
404,230,53072,1,0
268,240,53444,2,0,B|268:272|268:272|276:288|276:288|276:324,2,74.9999977648259,0|2|0
268,89,54190,5,0
268,89,54376,1,2
69,111,54749,1,2
57,210,54935,1,0
127,280,55121,1,8
227,280,55308,6,0,B|280:280|280:280|296:264|296:264|356:264|356:264|376:248|376:248|424:248,1,200,4|0
368,160,55867,1,8
340,64,56053,1,0
269,134,56239,1,2
172,160,56426,2,0,B|132:160|132:160|116:168|116:168|68:168,1,100,0|8
28,256,56798,6,0,B|48:308|48:308|96:332|144:332|172:280,1,200,4|0
224,192,57357,1,8
272,104,57544,1,0
172,104,57730,1,2
124,192,57916,1,0
224,192,58103,6,0,B|272:192|272:192|276:188|276:188|276:196|276:196|280:192|280:192|340:192,1,100,8|4
362,192,58382,1,0
407,212,58475,1,2
434,254,58569,1,0
432,304,58662,2,0,B|396:304|396:304|380:316|380:316|328:316,1,100,0|8
235,316,59034,1,4
256,192,59593,12,4,61457
100,84,62202,5,0
95,108,62295,1,0
94,133,62389,1,0
98,157,62482,1,0
107,180,62575,1,0
119,201,62668,1,0
136,218,62761,1,0
159,227,62854,1,0
183,233,62948,6,0,B|224:232|224:232|239:241|239:241|299:241,1,100,4|0
422,99,63507,1,4
363,290,63879,1,4
227,143,64252,6,0,B|212:100|212:100|164:60|108:68|60:124,1,200,6|0
136,188,64811,1,8
38,208,64997,2,0,B|48:268|112:288,1,100,2|0
196,266,65370,1,0
294,283,65556,1,8
392,266,65743,6,0,B|400:258|400:258|392:238|392:238|392:182|392:182|404:162|404:162|404:102|404:102|392:74,1,200,6|0
308,130,66302,1,8
229,191,66488,1,2
166,114,66674,1,0
244,51,66861,1,0
308,130,67047,1,8
393,76,67233,6,0,B|456:102|456:102|496:159|496:202|456:234,1,200,6|0
468,222,67792,1,8
388,284,67979,1,2
345,310,68072,1,0
302,284,68165,2,0,B|256:284|256:284|244:276|244:276|200:276,1,100,0|0
133,205,68538,1,8
229,181,68724,1,0
158,110,68910,5,4
158,110,69097,1,0
336,22,69469,1,4
424,202,69842,1,4
243,290,70215,6,0,B|212:328|212:328|156:348|104:316|95:280|104:248,1,200,6|0
182,204,70774,1,8
247,129,70960,1,2
196,43,71146,1,0
99,65,71333,1,0
91,166,71519,1,8
97,265,71705,6,0,B|101:277|101:277|121:269|121:269|157:269|157:269|177:277|177:277|221:277|221:277|241:269|241:269|309:269,1,200,6|0
380,292,72264,1,8
450,221,72451,2,0,B|464:188|464:188|460:160|444:136|412:132|384:148,1,100,2|0
344,196,72823,1,0
308,100,73010,1,8
243,176,73196,6,0,B|232:192|232:192|212:184|212:184|152:184|152:184|120:168|120:168|80:168|80:168|64:180|64:180|60:184,1,200,6|0
37,279,73755,2,0,B|81:279|81:279|96:288|96:288|152:288,1,100,10|0
177,262,74034,1,0
220,288,74128,2,0,B|252:304|252:304|283:304|283:304|312:288,1,100,2|0
355,262,74407,1,0
355,212,74500,2,0,B|355:172|355:172|351:168|351:168|359:168|359:168|355:164|355:164|355:116,1,100,10|0
355,22,74873,5,4
355,22,75059,1,0
160,62,75432,1,4
294,211,75805,1,4
99,252,76177,6,0,B|246:117,1,200,6|0
340,80,76736,2,0,B|384:80|384:80|400:88|400:88|444:88,2,100,8|2|0
247,117,77295,1,0
155,80,77482,1,8
166,179,77668,6,0,B|204:232|204:232|192:284|152:312|104:288,1,200,6|0
24,228,78227,1,8
24,128,78413,2,0,B|34:69|93:73,1,100,2|0
194,73,78786,1,0
293,73,78972,1,8
243,160,79159,6,0,B|300:156|336:198|351:233|344:274|329:328,1,200,6|0
248,252,79718,2,0,B|208:252|208:252|192:264|192:264|152:264,1,100,8|2
103,252,79997,1,0
67,216,80090,1,0
67,115,80277,1,0
108,24,80463,1,8
164,106,80649,1,0
67,115,80836,5,4
67,115,81022,1,0
188,276,81395,1,4
340,148,81767,1,4
423,329,82140,6,0,B|430:325|430:325|426:313|426:313|426:249|426:249|434:233|434:233|435:153|435:153|427:137,1,200,2|0
356,65,82699,1,8
274,121,82885,1,2
191,177,83072,1,0
108,121,83258,1,0
191,66,83444,1,8
191,66,83631,6,0,B|191:130|191:130|195:138|195:138|187:138|187:138|199:150|199:150|183:150|183:150|195:162|195:162|187:162|187:162|191:170|191:170|191:258,1,200,6|0
191,322,84190,2,0,B|235:322|235:322|247:330|247:330|303:330,1,100,8|2
344,247,84562,1,0
440,220,84749,2,0,B|440:176|440:176|432:160|432:160|432:116,1,100,0|8
352,64,85121,6,0,B|292:64|292:64|272:72|272:72|228:72|228:72|208:64|208:64|172:64|172:64|156:76|156:76|148:84,1,200,6|0
74,128,85680,2,0,B|52:156|52:156|48:192|64:216|104:224,1,100,10|0
44,252,85960,1,0
74,291,86053,2,0,B|111:291|111:291|135:303|135:303|171:303,1,100,2|0
256,355,86426,1,10
256,330,86519,1,0
256,305,86612,1,0
256,280,86705,1,0
256,255,86798,6,0,B|256:140,1,100,4|0
256,114,87357,1,4
256,73,87730,1,4
256,32,88103,1,4
