osu file format v9

[General]
AudioFilename: hacking to the gate.mp3
AudioLeadIn: 1000
PreviewTime: 61829
Countdown: 0
SampleSet: Normal
StackLeniency: 0.6
Mode: 0
LetterboxInBreaks: 1

[Editor]
Bookmarks: 1853,7815,13778,19718,25680,31643,37606,43569,49531,55494,61457,67420,73382,79345,85308
DistanceSpacing: 1
BeatDivisor: 4
GridSize: 4

[Metadata]
Title:Hacking to the Gate (TV Size)
Artist:Itou Kanako
Creator:qilliam
Version:Hard
Source:Steins;Gate
Tags:5pb nitroplus nitro+

[Difficulty]
HPDrainRate:4
CircleSize:4
OverallDifficulty:6
ApproachRate:7
SliderMultiplier:1.5
SliderTickRate:1

[Events]
//Background and Video events
0,0,"bg.jpg"
Video,-300,"video.avi"
//Break Periods
//Storyboard Layer 0 (Background)
//Storyboard Layer 1 (Fail)
//Storyboard Layer 2 (Pass)
//Storyboard Layer 3 (Foreground)
//Storyboard Sound Samples
//Background Colour Transformations
3,100,0,0,0

[TimingPoints]
1830,372.670807453416,4,1,1,50,1,0
13708,-100,4,1,1,35,0,0
22652,-100,4,1,1,50,0,0
25634,-100,4,1,1,35,0,0
34578,-100,4,1,1,50,0,0
37420,-133.333333333333,4,1,1,50,0,0
42823,-100,4,1,1,50,0,0
49345,-133.333333333333,4,1,1,50,0,0
54749,-100,4,1,1,50,0,0
62948,-100,4,1,1,50,0,1
88103,-100,4,1,1,50,0,0

[Colours]
Combo1 : 189,65,231
Combo2 : 252,114,117
Combo3 : 166,202,255
Combo4 : 45,186,20

[HitObjects]
80,68,1830,2,0,B|92:56|92:56|96:64|96:64|164:64|164:64|176:68|176:68|232:68,1,150,6|8
272,121,2389,1,0
205,156,2575,2,0,B|160:192|180:248,1,75,2|0
191,294,2948,1,8
247,342,3134,1,0
320,360,3320,6,0,B|360:364|360:364|420:316|408:220,1,150,6|8
400,194,3879,1,0
472,215,4066,2,0,B|516:136|456:52,1,150,2|8
409,25,4625,1,0
340,60,4811,6,0,B|332:48|332:48|320:56|320:56|256:56|256:56|236:64|236:64|168:64,1,150,6|8
167,131,5370,1,0
122,70,5556,2,0,B|80:100|94:155,1,75,2|0
131,197,5929,1,8
56,197,6115,1,0
56,272,6302,6,0,B|80:272|80:272|84:276|84:276|84:268|84:268|88:272|88:272|160:272|160:272|164:268|164:268|164:276|164:276|168:272|168:272|200:272,1,150,2|8
258,272,6861,1,0
332,272,7047,1,2
332,272,7233,2,0,B|372:235|372:235|380:183|356:155|292:143,1,150,2|0
259,166,7792,6,0,B|256:115|279:87|320:71|359:83,1,150,6|8
428,81,8351,2,0,B|496:27,2,75,0|2|0
469,143,8910,1,8
428,206,9097,1,0
469,268,9283,6,0,B|419:295|381:273|354:242|356:206,1,150,6|8
318,148,9842,1,0
318,148,10028,1,2
251,114,10215,1,0
251,114,10401,1,8
177,128,10587,1,0
177,128,10774,6,0,B|169:136|169:136|177:144|177:144|177:192|177:192|169:212|169:212|169:256|169:256|185:268|185:268|193:260,1,150,6|8
233,317,11333,2,0,B|336:368,2,75,0|2|0
180,264,11892,1,8
127,317,12078,1,0
74,264,12264,6,0,B|74:208|74:208|62:180|62:180|62:132|62:132|76:112|76:112|76:112,1,150,6|8
142,143,12823,1,0
212,170,13010,2,0,B|264:176|288:104,1,75,2|0
308,69,13382,2,0,B|360:63|384:135,1,75,8|0
395,173,13755,5,8
395,173,13941,1,0
395,248,14128,2,0,B|395:276|395:276|391:288|391:288|399:288|399:288|395:300|395:300|395:336,1,75,8|0
321,313,14500,1,8
321,313,14687,1,0
245,313,14873,2,0,B|236:260|176:256,1,75,8|0
123,259,15246,6,0,B|95:259|95:259|79:263|79:263|39:263,2,75,8|0|8
149,188,15805,1,0
175,118,15991,2,0,B|203:118|203:118|219:122|219:122|259:122,2,75,8|0|8
201,47,16550,1,0
275,47,16736,6,0,B|324:64|332:128,1,75,8|0
272,152,17109,2,0,B|289:201|353:209,1,75,8|0
399,202,17482,2,0,B|448:219|456:283,1,75,8|0
449,328,17854,2,0,B|432:377|368:385,1,75,8|0
321,378,18227,5,8
287,311,18413,1,0
213,328,18600,1,8
179,261,18786,1,0
106,278,18972,2,0,B|100:230|140:193,1,75,8|0
199,191,19345,2,0,B|186:142|139:134,1,75,8|0
128,64,19718,6,0,B|204:64,2,75,8|0|8
57,90,20277,1,0
22,156,20463,2,0,B|6:192|22:228,1,75,8|0
88,193,20836,2,0,B|127:195|152:225,1,75,8|0
194,288,21208,5,8
256,329,21395,1,0
318,288,21581,1,8
256,245,21767,1,0
256,245,21954,2,0,B|256:224|256:224|252:212|252:212|260:212|260:212|256:200|256:200|256:156,1,75,8|0
256,104,22326,1,8
256,104,22513,1,0
360,136,22699,6,0,B|360:119|360:119|420:79|437:100,1,75,4|0
152,136,23072,2,0,B|151:119|151:119|91:79|74:100,1,75
256,192,23631,5,4
256,192,23817,1,0
256,192,24003,1,0
256,259,24749,6,0,B|256:239|256:239|260:231|260:231|252:231|252:231|256:223|256:223|256:167|256:167|252:159|252:159|260:159|260:159|256:151|256:151|256:123,1,150,4|0
256,53,25308,1,0
395,211,25680,5,8
395,211,25867,1,0
395,136,26053,2,0,B|395:108|395:108|391:96|391:96|399:96|399:96|395:84|395:84|395:48,1,75,8|0
321,71,26426,1,8
321,71,26612,1,0
245,71,26798,2,0,B|236:124|176:128,1,75,8|0
123,125,27171,6,0,B|95:125|95:125|79:121|79:121|39:121,2,75,8|0|8
149,196,27730,1,0
175,266,27916,2,0,B|203:266|203:266|219:262|219:262|259:262,2,75,8|0|8
201,337,28475,1,0
275,337,28662,6,0,B|324:320|332:256,1,75,8|0
272,232,29034,2,0,B|289:183|353:175,1,75,8|0
399,182,29407,2,0,B|448:165|456:101,1,75,8|0
449,56,29780,2,0,B|432:7|368:-1,1,75,8|0
321,6,30152,5,8
287,73,30339,1,0
213,56,30525,1,8
179,123,30711,1,0
106,106,30898,2,0,B|100:154|140:191,1,75,8|0
199,193,31270,2,0,B|186:242|139:250,1,75,8|0
128,320,31643,6,0,B|204:320,2,75,8|0|8
57,294,32202,1,0
22,228,32389,2,0,B|6:192|22:156,1,75,8|0
88,191,32761,2,0,B|127:189|152:159,1,75,8|0
194,96,33134,5,8
256,55,33320,1,0
318,96,33507,1,8
256,139,33693,1,0
256,139,33879,6,0,B|256:160|256:160|252:172|252:172|260:172|260:172|256:184|256:184|256:228,1,75,8|0
256,280,34252,1,8
256,280,34438,1,0
188,313,34625,6,0,B|134:259,1,75,4|0
135,124,34997,2,0,B|188:70,1,75
324,71,35370,2,0,B|377:124,1,75
377,260,35743,2,0,B|323:313,1,75,0|4
256,192,36302,6,4,B|256:172|256:172|260:160|260:160|252:160|252:160|256:148|256:148|256:116,1,75
256,192,36861,2,4,B|256:212|256:212|260:224|260:224|252:224|252:224|256:236|256:236|256:268,1,75
149,293,37420,6,0,B|162:198|162:198|108:240|48:232|21:185|36:128,1,281.249991618097,6|8
92,50,38724,1,0
148,50,38910,6,0,B|152:38|152:38|160:46|160:46|212:46|212:46|236:54|236:54|296:54|296:54|300:66,1,168.749994970858,2|0
275,112,39656,2,0,B|254:139|254:139|261:191|323:196,1,112.499996647239,2|0
356,211,40215,1,8
393,253,40401,1,0
400,308,40587,6,0,B|392:320|392:320|196:320|196:320|188:308,1,224.999993294478,2|8
86,259,41705,2,0,B|129:204,1,56.2499983236194,2|0
80,109,42264,2,0,B|37:164,1,56.2499983236194,0|2
236,273,43010,5,0
215,200,43196,1,8
235,127,43382,2,0,B|246:120|246:120|251:126|251:126|291:127|291:127|319:119|319:119|375:119|375:119|374:128,1,150
348,193,43941,2,0,B|364:232|412:240,1,75,8|0
403,313,44314,2,0,B|363:319|347:358,1,75,2|0
275,379,44687,1,8
203,357,44873,6,0,B|151:348|151:348|119:300|123:244|147:228,1,150
161,187,45432,1,8
88,169,45618,2,0,B|101:123|160:108,1,75,0|2
205,84,45991,1,0
280,84,46177,2,0,B|312:84|312:84|328:76|328:76|364:76,1,75,8|0
352,152,46550,6,0,B|336:188|336:188|272:216|224:156,1,150,2|8
161,151,47109,2,0,B|122:141|122:141|61:174|79:249,1,150
114,298,47668,1,8
182,327,47854,1,0
256,308,48041,6,0,B|256:220,1,75
256,233,48413,1,0
256,82,48786,5,0
256,82,48972,1,0
365,53,49345,6,0,B|426:126|426:126|358:119|311:158|313:212|356:252,1,281.249991618097,6|8
439,300,50649,1,0
404,344,50836,6,0,B|400:356|400:356|392:348|392:348|340:348|340:348|320:356|320:356|264:356|264:356|256:344,1,168.749994970858,2|0
285,295,51581,2,0,B|306:268|306:268|299:216|237:211,1,112.499996647239,2|0
200,218,52140,1,8
160,257,52326,1,0
128,304,52513,6,0,B|12:324|-32:220|8:148,1,224.999993294478,2|8
96,120,53631,2,0,B|36:80,1,56.2499983236194,2|0
152,40,54190,2,0,B|212:80,1,56.2499983236194,0|2
140,288,54935,5,0
205,252,55121,1,0
270,288,55308,2,0,B|284:300|284:300|296:292|296:292|400:292|400:292|416:284,1,150
379,217,55867,2,0,B|348:188|360:132,1,75
430,164,56239,1,0
411,90,56426,2,0,B|404:47|360:35,1,75
297,69,56798,6,0,B|273:77|273:77|173:77|173:77|149:69,1,150
81,36,57357,1,0
13,69,57544,1,0
75,110,57730,2,0,B|96:156|164:160,1,75
112,336,58103,6,0,B|165:282,1,75,0|4
400,336,58662,6,0,B|346:282,2,75,0|0|4
400,48,59407,6,0,B|346:101,2,75,0|0|4
112,48,60152,6,0,B|165:101,2,75,0|0|4
256,192,60898,5,0
256,192,61084,1,0
256,192,61457,1,4
324,256,62948,5,4
324,256,63134,1,0
470,221,63507,2,4,B|450:129|364:120,1,150
222,121,64252,6,0,B|210:113|210:113|202:117|202:117|146:117|146:117|134:125|134:125|66:125,1,150,4|0
38,189,64811,1,8
40,264,64997,2,0,B|87:263|115:208,1,75,0|2
138,162,65370,1,0
151,88,65556,1,8
193,26,65743,6,0,B|206:18|206:18|330:18|330:18|342:26,1,150,6|0
381,85,66302,1,8
316,123,66488,2,0,B|280:96|280:96|204:108|220:192,1,150,2|0
255,231,67047,1,8
255,231,67233,6,0,B|267:243|267:243|275:235|275:235|387:235|387:235|399:227,1,150,6|0
428,162,67792,1,8
428,162,67979,2,0,B|481:191|483:254|438:293,1,150,2|0
376,320,68538,2,0,B|348:320|348:320|332:328|332:328|288:328,1,75,8|0
228,328,68910,5,4
228,328,69097,1,0
172,189,69469,2,4,B|132:217|132:217|64:209|52:141,1,150
185,81,70215,6,0,B|193:69|193:69|201:77|201:77|245:77|245:77|261:69|261:69|305:69|305:69|321:77,1,150,4|0
392,103,70774,2,0,B|464:127,2,75,8|0|2
333,150,71333,1,0
261,172,71519,1,8
315,223,71705,6,0,B|336:260|336:260|304:328|236:288,1,150,6|0
186,337,72264,1,8
123,295,72451,2,0,B|111:291|111:291|119:275|119:275|119:223|119:223|115:215|115:215|115:175|115:175|123:159,1,150,2|0
189,193,73010,1,8
189,193,73196,6,0,B|216:224|216:224|272:240|296:160,1,150,6|0
366,146,73755,1,8
433,112,73941,1,0
421,39,74128,1,2
348,27,74314,1,0
314,94,74500,1,8
314,94,74687,1,0
239,94,74873,6,0,B|159:94,1,75,4|0
34,169,75432,2,4,B|6:209|6:209|10:285|82:285,1,150
201,337,76177,6,0,B|261:337|261:337|281:329|281:329|353:329,1,150,4|0
421,307,76736,2,0,B|406:263|364:256,1,75,8|0
299,228,77109,2,0,B|308:192|353:181,1,75,2|0
427,181,77482,1,8
427,181,77668,6,0,B|472:160|472:160|484:100|408:52,1,150,6|0
376,25,78227,1,8
305,51,78413,2,0,B|166:109,1,150,2|0
211,168,78972,1,8
211,168,79159,6,0,B|248:196|248:196|252:264|200:288,1,150,6|0
141,321,79718,1,8
75,285,79904,2,0,B|67:269|67:269|67:157|67:157|79:141,1,150,2|0
146,174,80463,2,0,B|164:129|134:87,1,75,8|0
76,66,80836,5,4
76,66,81022,1,0
223,35,81395,2,4,B|323:51|339:155,1,150
211,213,82140,6,0,B|220:287|320:303,1,150,4|0
392,302,82699,1,8
457,265,82885,1,0
496,201,83072,2,0,B|496:121,1,75,2|0
496,51,83444,1,8
496,51,83631,6,0,B|488:39|488:39|480:43|480:43|368:43|368:43|356:51,1,150,6|0
395,115,84190,1,8
395,115,84376,2,0,B|387:127|387:127|379:123|379:123|267:123|267:123|255:115,1,150,2|0
205,57,84935,1,8
205,57,85121,6,0,B|152:44|152:44|88:80|100:148,1,150,6|0
98,193,85680,2,0,B|98:225|98:225|90:241|90:241|90:289,1,75,8|0
161,290,86053,2,0,B|161:258|161:258|169:242|169:242|169:194,1,75,2|0
185,143,86426,2,0,B|237:157|246:221,1,75,8|0
256,192,86798,12,4,88103
