osu file format v9

[General]
AudioFilename: hacking to the gate.mp3
AudioLeadIn: 1000
PreviewTime: 61829
Countdown: 0
SampleSet: Normal
StackLeniency: 0.6
Mode: 0
LetterboxInBreaks: 1

[Editor]
Bookmarks: 1853,7815,13778,19718,25680,31643,37606,43569,49531,55494,61457,67420,73382,79345,85308
DistanceSpacing: 1
BeatDivisor: 2
GridSize: 4

[Metadata]
Title:Hacking to the Gate (TV Size)
Artist:Itou Kanako
Creator:qilliam
Version:Easy
Source:Steins;Gate
Tags:5pb nitroplus nitro+

[Difficulty]
HPDrainRate:2
CircleSize:3
OverallDifficulty:2
ApproachRate:3
SliderMultiplier:0.500000005960464
SliderTickRate:1

[Events]
//Background and Video events
0,0,"bg.jpg"
Video,-300,"video.avi"
//Break Periods
//Storyboard Layer 0 (Background)
//Storyboard Layer 1 (Fail)
//Storyboard Layer 2 (Pass)
//Storyboard Layer 3 (Foreground)
//Storyboard Sound Samples
//Background Colour Transformations
3,100,0,0,0

[TimingPoints]
1830,372.670807453416,4,1,1,50,1,0
13708,-100,4,1,1,35,0,0
22652,-100,4,1,1,50,0,0
25634,-100,4,1,1,35,0,0
37420,-125,4,1,1,50,0,0
42823,-100,4,1,1,50,0,0
49345,-125,4,1,1,50,0,0
54749,-100,4,1,1,50,0,0
62948,-100,4,1,1,50,0,1
88103,-100,4,1,1,50,0,0

[Colours]
Combo1 : 189,65,231
Combo2 : 252,114,117
Combo3 : 166,202,255
Combo4 : 45,186,20

[HitObjects]
104,84,1829,2,0,B|112:76|112:76|132:88|132:88|196:88|196:88|224:80|224:80|296:80,1,200.000002384186,6|2
396,80,4066,1,0
348,168,4811,6,0,B|411:205|411:205|432:280|408:312|372:328,1,200.000002384186,6|2
303,264,7047,1,0
216,216,7792,6,0,B|172:216|172:216|156:208|156:208|104:208,1,100.000001192093,6|0
68,294,9283,2,0,B|112:294|112:294|128:302|128:302|180:302,1,100.000001192093,2|0
266,302,10774,6,0,B|300:304|300:304|336:284|344:244,1,100.000001192093,6|0
435,220,12264,2,0,B|431:186|431:186|406:153|365:152,1,100.000001192093,2|0
323,237,13755,5,8
236,286,14500,1,0
188,199,15246,1,8
276,152,15991,1,0
316,60,16736,6,0,B|272:60|272:60|256:52|256:52|216:52,1,100.000001192093,8|0
164,136,18227,2,0,B|131:127|131:127|91:140|76:178,1,100.000001192093,8|0
151,238,19718,6,0,B|151:282|151:282|143:298|143:298|143:338,1,100.000001192093,8|0
242,336,21208,1,8
312,265,21954,1,0
256,184,22699,6,0,B|256:144,3,25.0000002980232,4|0|0|0
256,59,24003,1,4
256,159,24749,2,0,B|256:239,1,75.0000008940696,4|0
256,283,25680,5,8
354,301,26426,1,0
400,212,27171,1,8
496,238,27916,1,0
426,309,28662,6,0,B|422:317|422:317|406:313|406:313|374:313|374:313|358:305|358:305|334:305,1,100.000001192093,8|0
264,232,30152,2,0,B|262:197|262:197|237:163|196:161,1,100.000001192093,8|0
121,211,31643,6,0,B|96:187|96:187|86:146|111:113,1,100.000001192093,8|0
177,54,33134,1,8
256,114,33879,1,0
256,192,34625,12,4,36861
84,84,37420,6,0,B|84:136|84:136|76:160|76:160|76:196,1,100.000001192093,6|0
76,242,38910,2,0,B|192:242,1,100.000001192093,2|0
240,194,40587,6,0,B|332:194,1,80.0000009536742,2|0
360,194,41705,1,2
360,194,41892,1,0
220,52,43382,6,0,B|176:48|176:48|136:68|112:116,1,125.000001490116,8|0
171,156,44873,2,0,B|215:152|215:152|255:172|279:220,1,125.000001490116,8|0
207,283,46550,5,8
306,283,47295,1,0
256,196,48041,2,0,B|256:152,2,25.0000002980232,4|4|4
256,95,49345,6,0,B|300:96|300:96|316:104|316:104|368:104,1,100.000001192093,6|0
414,104,50836,2,0,B|478:112|486:184,1,100.000001192093,2|0
464,244,52513,6,0,B|380:244,1,80.0000009536742,2|0
343,244,53631,1,2
343,244,53817,1,0
207,96,55308,6,0,B|207:160|207:160|211:168|211:168|203:168|203:168|207:176|207:176|207:196,1,100.000001192093,2|8
306,186,56798,2,0,B|306:122|306:122|302:114|302:114|310:114|310:114|306:106|306:106|306:86,1,100.000001192093,2|8
256,192,58103,12,4,61457
332,212,62948,5,4
256,212,63507,2,4,B|256:144,2,50.0000005960464
124,284,65370,5,8
174,284,65743,2,0,B|212:284|212:284|232:292|232:292|292:292,1,100.000001192093,2|0
355,236,67233,1,2
393,143,67979,1,8
308,52,68910,6,4,B|212:52,1,75.0000008940696
182,52,69842,2,4,B|112:52,1,50.0000005960464
72,192,71333,5,8
107,227,71705,2,0,B|115:235|115:235|127:227|127:227|191:227|191:227|207:207,1,100.000001192093,2|0
243,129,73196,1,2
317,129,73755,2,0,B|381:129,1,50.0000005960464,8|2
428,208,74873,5,4
428,282,75432,2,4,B|496:282,2,50.0000005960464
278,282,77295,5,8
227,282,77668,2,0,B|159:282|147:218,1,100.000001192093,2|0
111,138,79159,1,2
210,150,79904,1,8
298,61,80836,6,4,B|382:61,1,75.0000008940696
408,96,81767,2,4,B|408:160,1,50.0000005960464
324,272,83258,5,8
279,294,83631,2,0,B|271:306|271:306|259:298|259:298|215:298|215:298|203:294|203:294|187:294,1,100.000001192093,2|0
103,241,85121,2,0,B|91:233|91:233|99:221|99:221|99:173|99:173|98:157,1,75.0000008940696,2|8
116,128,86053,1,0
151,92,86426,1,2
256,192,86798,12,4,88103
