osu file format v12

[General]
AudioFilename: Itou Kanako - Hacking to the Gate.mp3
AudioLeadIn: 0
PreviewTime: 67072
Countdown: 0
SampleSet: Normal
StackLeniency: 0.7
Mode: 0
LetterboxInBreaks: 0

[Editor]
Bookmarks: 6016,17942,29867,41606,53532,67134,79060,90985
DistanceSpacing: 2
BeatDivisor: 2
GridSize: 8

[Metadata]
Title:Hacking to the Gate (TV Size)
TitleUnicode:Hacking to the Gate (TV Size)
Artist:Itou Kanako
ArtistUnicode:いとう かなこ
Creator:Dangaard
Version:Insane
Source:Steins;Gate
Tags:Steins Gate 5pb. Nitroplus nitro+ opening Sallad4ever
BeatmapID:113978
BeatmapSetID:35108

[Difficulty]
HPDrainRate:7
CircleSize:4
OverallDifficulty:8
ApproachRate:9
SliderMultiplier:1.6
SliderTickRate:2

[Events]
//Background and Video events
0,0,"el psy congroo.jpg",0,0
Video,0,"hacking.avi"
//Break Periods
//Storyboard Layer 0 (Background)
//Storyboard Layer 1 (Fail)
//Storyboard Layer 2 (Pass)
//Storyboard Layer 3 (Foreground)
//Storyboard Sound Samples
//Background Colour Transformations
3,100,0,0,0

[TimingPoints]
4527,372.670807453416,4,2,1,70,1,0
6017,-100,4,1,1,70,0,0
17943,-100,4,2,1,70,0,0
26887,-100,4,1,1,70,0,0
29868,-100,4,2,1,70,0,0
38812,-100,4,1,1,70,0,0
41607,-200,4,2,1,70,0,0
44775,-200,4,2,1,60,0,0
44868,-200,4,2,1,70,0,0
47570,-100,4,1,1,70,0,0
53533,-200,4,2,1,70,0,0
56700,-200,4,2,1,60,0,0
56794,-200,4,2,1,70,0,0
59495,-100,4,1,1,70,0,0
67135,-100,4,1,1,70,0,1
92290,-100,4,1,1,70,0,0

[Colours]
Combo1 : 223,128,32
Combo2 : 116,6,1
Combo3 : 45,90,225

[HitObjects]
48,80,5458,2,0,B|32:32|32:32|112:32|112:32|128:48|128:48|216:48,1,240,0|4,0:0|0:0,0:0:0:0:
384,48,6204,2,0,B|336:48|320:88,1,80
192,128,6576,2,0,B|232:120|257:132|257:132|271:156|271:156|296:168|336:160,1,160
144,240,7135,2,0,B|192:240|208:200,1,80
64,256,7508,6,0,B|76:305|128:321,1,80,4|0,0:0|0:0,0:0:0:0:
304,336,8067,1,0,0:0:0:0:
256,256,8440,1,0,0:0:0:0:
208,336,8812,1,0,0:0:0:0:
398,315,8999,6,0,B|436:305|448:256,1,80,4|0,0:0|0:0,0:0:0:0:
256,48,9558,1,0,0:0:0:0:
144,240,9930,1,0,0:0:0:0:
368,240,10303,1,0,0:0:0:0:
448,128,10489,5,4,0:0:0:0:
368,48,10676,1,0,0:0:0:0:
368,48,10862,2,0,B|336:120,2,80,0|0|0,0:0|0:0|0:0,0:0:0:0:
208,172,11421,1,0,0:0:0:0:
208,172,11607,2,0,B|245:161|257:112,1,80,8|0,0:0|0:0,0:0:0:0:
240,96,11887,1,0,0:0:0:0:
224,80,11980,6,0,B|144:80,1,80,4|0,0:0|0:0,0:0:0:0:
0,176,12353,2,0,B|80:176,2,80,8|0|0,0:0|0:0|0:0,0:0:0:0:
144,312,12912,2,0,B|160:272|144:232,1,80,0|8,0:0|0:0,0:0:0:0:
64,272,13284,1,0,0:0:0:0:
240,272,13471,6,0,B|320:272,1,80
480,336,13843,2,0,B|400:336,2,80,8|0|0,0:0|0:0|0:0,0:0:0:0:
480,144,14402,2,0,B|433:145|411:186,1,80,0|8,0:0|0:0,0:0:0:0:
480,224,14775,1,0,0:0:0:0:
400,80,14961,6,0,B|360:64|320:80,1,80,4|0,0:0|0:0,0:0:0:0:
216,176,15334,2,0,B|256:192|296:176,2,80,8|0|0,0:0|0:0|0:0,0:0:0:0:
112,80,15893,1,0,0:0:0:0:
112,80,16079,2,0,B|152:64|192:80,1,80,8|0,0:0|0:0,0:0:0:0:
112,256,16452,6,0,B|80:184,1,80,0|0,0:0|0:0,0:0:0:0:
256,288,16825,1,8,0:0:0:0:
256,288,17011,2,0,B|224:360,1,80,0|0,0:0|0:0,0:0:0:0:
400,256,17384,2,0,B|368:184,2,80,8|8|0,0:0|0:0|0:0,0:0:0:0:
384,272,17849,1,0,0:0:0:0:
368,288,17943,6,0,B|336:216,1,80,4|2,0:0|0:0,0:0:0:0:
400,152,18315,1,8,0:0:0:0:
464,216,18502,2,0,B|480:248|480:280|448:312|448:312|408:352,1,160,0|2,0:0|0:0,0:0:0:0:
320,352,19061,1,8,0:0:0:0:
256,288,19247,2,0,B|184:128,1,160,0|2,0:0|0:0,0:0:0:0:
112,304,19806,6,0,B|144:232,1,80,8|2,0:0|0:0,0:0:0:0:
32,144,20179,2,0,B|64:216,1,80,0|2,0:0|0:0,0:0:0:0:
32,368,20551,2,0,B|0:320|16:272,1,80,8|2,0:0|0:0,0:0:0:0:
32,72,20924,6,0,B|78:74|96:112,1,80,0|2,0:0|0:0,0:0:0:0:
128,192,21297,1,8,0:0:0:0:
192,64,21483,2,0,B|212:20|256:8|300:20|320:64,1,160,0|2,0:0|0:0,0:0:0:0:
384,192,22042,1,8,0:0:0:0:
416,112,22228,1,0,0:0:0:0:
304,192,22415,6,0,B|272:264,1,80,0|2,0:0|0:0,0:0:0:0:
384,352,22788,2,0,B|352:280,1,80,8|2,0:0|0:0,0:0:0:0:
464,192,23160,2,0,B|432:264,1,80,0|2,0:0|0:0,0:0:0:0:
256,352,23533,1,8,0:0:0:0:
80,264,23719,5,2,0:0:0:0:
80,264,23905,2,0,B|92:215|144:199,1,80,0|2,0:0|0:0,0:0:0:0:
0,176,24278,1,8,0:0:0:0:
0,48,24464,2,0,B|72:-14|144:48,1,160,0|2,0:0|0:0,0:0:0:0:
256,128,25023,5,8,0:0:0:0:
256,128,25210,1,0,0:0:0:0:
176,192,25396,2,0,B|112:240,2,80,0|2|8,0:0|0:0|0:0,0:0:0:0:
336,192,25955,2,0,B|400:240,2,80,2|0|2,0:0|0:0|0:0,0:0:0:0:
256,224,26514,2,0,B|256:304,1,80,8|0,0:0|0:0,0:0:0:0:
480,304,26887,5,4,0:0:0:0:
480,304,27073,1,4,0:0:0:0:
336,192,27259,1,4,0:0:0:0:
480,80,27446,1,4,0:0:0:0:
32,80,27818,5,0,0:0:0:0:
176,192,28005,1,0,0:0:0:0:
32,304,28191,1,0,0:0:0:0:
368,224,28750,5,0,0:0:0:0:
368,224,28936,1,4,0:0:0:0:
368,224,29309,1,0,0:0:0:0:
256,352,29495,1,0,0:0:0:0:
144,224,29682,1,0,0:0:0:0:
160,208,29775,1,0,0:0:0:0:
176,192,29868,6,0,B|208:264,1,80,4|2,0:0|0:0,0:0:0:0:
144,328,30240,1,8,0:0:0:0:
80,264,30427,2,0,B|64:232|64:200|96:168|96:168|136:128,1,160,0|2,0:0|0:0,0:0:0:0:
240,104,30986,1,8,0:0:0:0:
344,128,31172,2,0,B|360:160|360:192|328:224|328:224|288:264,1,160,0|2,0:0|0:0,0:0:0:0:
240,104,31731,6,0,B|240:152|280:168,1,80,8|2,0:0|0:0,0:0:0:0:
424,200,32104,2,0,B|435:156|416:112,1,80,0|2,0:0|0:0,0:0:0:0:
280,40,32477,1,8,0:0:0:0:
144,120,32663,1,2,0:0:0:0:
48,240,32849,6,0,B|97:228|113:176,1,80,0|2,0:0|0:0,0:0:0:0:
32,160,33222,1,8,0:0:0:0:
112,304,33408,2,0,B|132:348|176:360|220:348|240:304,1,160,0|2,0:0|0:0,0:0:0:0:
304,168,33967,1,8,0:0:0:0:
224,128,34154,1,0,0:0:0:0:
304,256,34340,6,0,B|376:288,1,80,0|2,0:0|0:0,0:0:0:0:
464,176,34713,2,0,B|392:208,1,80,8|2,0:0|0:0,0:0:0:0:
304,96,35086,2,0,B|376:128,1,80,0|2,0:0|0:0,0:0:0:0:
464,304,35458,1,8,0:0:0:0:
256,368,35645,1,2,0:0:0:0:
48,304,35831,6,0,B|60:255|112:239,1,80,0|2,0:0|0:0,0:0:0:0:
128,320,36204,1,8,0:0:0:0:
32,192,36390,2,0,B|32:104|112:64,1,160,0|2,0:0|0:0,0:0:0:0:
352,160,36949,5,8,0:0:0:0:
256,192,37136,1,0,0:0:0:0:
160,160,37322,2,0,B|172:111|224:95,1,80,0|2,0:0|0:0,0:0:0:0:
352,224,37694,2,0,B|340:273|288:289,2,80,8|2|0,0:0|0:0|0:0,0:0:0:0:
304,100,38253,1,2,0:0:0:0:
160,224,38440,2,0,B|172:273|224:289,1,80,8|2,0:0|0:0,0:0:0:0:
144,128,38813,5,4,0:0:0:0:
144,128,38999,2,0,B|127:83|83:62,1,80,0|0,0:0|0:0,0:0:0:0:
32,256,39371,2,0,B|76:236|88:192|76:148|32:128,1,160,0|0,0:0|0:0,0:0:0:0:
0,192,39931,1,0,0:0:0:0:
80,352,40117,5,4,0:0:0:0:
400,192,40489,1,4,0:0:0:0:
400,192,40675,1,0,0:0:0:0:
80,32,41048,1,4,0:0:0:0:
80,32,41235,1,0,0:0:0:0:
80,32,41607,6,0,B|16:80,1,80,4|0,0:0|0:0,0:0:0:0:
144,176,42166,2,0,B|80:128,1,80,2|8,0:0|0:0,0:0:0:0:
208,32,42725,1,0,0:0:0:0:
208,32,43098,6,0,B|144:80,1,80
16,176,43657,1,2,0:0:0:0:
144,256,43843,2,0,B|160:216|144:176,1,80,0|0,0:0|0:0,0:0:0:0:
64,320,44402,2,0,B|24:352,1,40,8|0,0:0|0:0,0:0:0:0:
192,320,44775,6,0,B|256:272,1,80,4|2,0:0|0:0,0:0:0:0:
384,368,45334,2,0,B|320:320,1,80
192,224,45893,1,2,0:0:0:0:
192,224,46079,2,0,B|204:175|256:159,1,80,0|2,0:0|0:0,0:0:0:0:
160,80,46638,6,0,B|188:90|200:112,1,40,8|0,0:0|0:0,0:0:0:0:
320,256,47011,2,0,B|292:246|280:224,1,40,8|2,0:0|0:0,0:0:0:0:
320,80,47384,1,8,0:0:0:0:
464,160,47570,6,0,B|392:222|320:160,1,160,4|0,0:0|0:0,0:0:0:0:
192,32,48129,2,0,B|241:44|257:96,1,80,8|0,0:0|0:0,0:0:0:0:
224,256,48502,2,0,B|208:216|224:176,1,80,0|0,0:0|0:0,0:0:0:0:
392,112,48874,1,8,0:0:0:0:
176,112,49061,6,0,B|16:112,1,160,0|0,0:0|0:0,0:0:0:0:
16,288,49620,2,0,B|28:337|80:353,1,80,8|0,0:0|0:0,0:0:0:0:
208,240,49992,2,0,B|168:224|128:240,1,80
271,347,50365,2,0,B|308:330|320:287,1,80,8|0,0:0|0:0,0:0:0:0:
464,144,50738,6,0,B|373:125|320:192,1,160,0|8,0:0|0:0,0:0:0:0:
416,384,51297,2,0,B|478:312|416:240,1,160,0|0,0:0|0:0,0:0:0:0:
184,200,51856,2,0,B|168:160|184:120,1,80,8|0,0:0|0:0,0:0:0:0:
368,16,52228,5,4,0:0:0:0:
256,160,52414,1,4,0:0:0:0:
144,16,52601,1,4,0:0:0:0:
416,192,52974,5,4,0:0:0:0:
416,192,53161,1,0,0:0:0:0:
416,192,53533,6,0,B|480:240,1,80,4|0,0:0|0:0,0:0:0:0:
352,336,54092,2,0,B|416:288,1,80,2|8,0:0|0:0,0:0:0:0:
288,192,54651,1,0,0:0:0:0:
288,192,55023,6,0,B|224:240,1,80
96,336,55582,1,2,0:0:0:0:
80,192,55769,2,0,B|120:176|160:192,1,80
288,288,56328,2,0,B|328:320,1,40,8|0,0:0|0:0,0:0:0:0:
480,336,56701,6,0,B|416:288,1,80,4|2,0:0|0:0,0:0:0:0:
288,384,57260,2,0,B|352:336,1,80
480,240,57819,1,2,0:0:0:0:
480,240,58005,2,0,B|468:191|416:175,1,80,0|2,0:0|0:0,0:0:0:0:
512,96,58564,6,0,B|484:106|472:128,1,40,8|0,0:0|0:0,0:0:0:0:
352,272,58937,2,0,B|380:262|392:240,1,40,8|2,0:0|0:0,0:0:0:0:
352,96,59310,1,8,0:0:0:0:
208,176,59496,6,0,B|280:238|352:176,1,160,4|0,0:0|0:0,0:0:0:0:
192,96,60054,2,0,B|143:108|127:160,1,80,8|0,0:0|0:0,0:0:0:0:
144,304,60427,2,0,B|160:264|144:224,1,80
64,96,60799,1,8,0:0:0:0:
256,24,60986,6,0,B|318:96|256:168,1,160
72,192,61545,2,0,B|89:155|132:143,1,80,8|0,0:0|0:0,0:0:0:0:
296,240,61917,2,0,B|256:256|216:240,1,80
368,80,62290,5,8,0:0:0:0:
512,192,62477,1,4,0:0:0:0:
144,304,62849,5,0,0:0:0:0:
0,192,63035,1,8,0:0:0:0:
144,80,63222,1,4,0:0:0:0:
368,304,63781,5,0,0:0:0:0:
512,192,63967,1,4,0:0:0:0:
256,0,64340,1,0,0:0:0:0:
0,192,64713,1,4,0:0:0:0:
256,384,65086,1,0,0:0:0:0:
200,224,65272,2,0,B|216:186|256:170|256:170|296:186|312:224,1,160,0|4,0:0|0:0,0:0:0:0:
32,96,66017,6,0,B|81:108|97:160,1,80,0|0,0:0|0:0,0:0:0:0:
176,320,66390,2,0,B|127:308|111:256,1,80,0|0,0:0|0:0,0:0:0:0:
256,144,66763,1,0,0:0:0:0:
256,144,66856,1,0,0:0:0:0:
256,144,66949,1,0,0:0:0:0:
256,144,67042,1,0,0:0:0:0:
256,144,67135,6,0,B|244:193|192:209,1,80,4|0,0:0|0:0,0:0:0:0:
176,128,67508,1,0,0:0:0:0:
336,128,67694,2,0,B|496:128,2,160,4|4|4,0:0|0:0|0:0,0:0:0:0:
256,272,68626,6,0,B|268:321|320:337,1,80
416,256,68999,2,0,B|376:240|336:256,1,80,8|0,0:0|0:0,0:0:0:0:
208,352,69371,2,0,B|168:368|128:352,1,80
24,192,69744,5,8,0:0:0:0:
24,192,69930,2,0,B|115:173|168:240,1,160
80,272,70489,1,8,0:0:0:0:
128,112,70676,2,0,B|144:72|192:64,1,80
296,168,71048,2,0,B|256:184|216:168,1,80,0|8,0:0|0:0,0:0:0:0:
328,64,71421,2,0,B|488:64,1,160
416,232,71980,6,0,B|448:160,1,80,8|0,0:0|0:0,0:0:0:0:
256,240,72353,2,0,B|288:312,1,80
96,232,72725,2,0,B|128:160,1,80,8|0,0:0|0:0,0:0:0:0:
112,144,73005,1,0,0:0:0:0:
96,128,73098,6,0,B|64:200,1,80,4|0,0:0|0:0,0:0:0:0:
16,64,73471,1,0,0:0:0:0:
176,64,73657,2,0,B|336:64,2,160,4|4|4,0:0|0:0|0:0,0:0:0:0:
48,224,74589,6,0,B|128:224,1,80
272,304,74961,2,0,B|192:304,1,80,8|0,0:0|0:0,0:0:0:0:
208,144,75334,2,0,B|224:184|208:224,1,80
128,144,75707,5,8,0:0:0:0:
128,144,75893,2,0,B|288:144,1,160
448,200,76452,1,8,0:0:0:0:
448,200,76638,2,0,B|436:249|384:265,1,80
368,104,77011,2,0,B|352:144|368:184,1,80,0|8,0:0|0:0,0:0:0:0:
440,336,77384,2,0,B|280:336,1,160
192,128,77943,6,0,B|224:200,1,80,8|0,0:0|0:0,0:0:0:0:
112,304,78315,2,0,B|144:232,1,80
300,224,78688,2,0,B|292:268|247:280,1,80,8|0,0:0|0:0,0:0:0:0:
224,280,78967,1,0,0:0:0:0:
200,280,79061,5,4,0:0:0:0:
288,144,79247,1,0,0:0:0:0:
432,224,79433,1,0,0:0:0:0:
344,360,79620,2,0,B|184:360,2,160,4|4|4,0:0|0:0|0:0,0:0:0:0:
416,144,80551,6,0,B|367:156|352:208,1,80,0|0,0:0|0:0,0:0:0:0:
424,344,80924,2,0,B|412:295|360:280,1,80,8|0,0:0|0:0,0:0:0:0:
208,256,81297,2,0,B|288:256,1,80
432,224,81669,5,8,0:0:0:0:
368,80,81856,2,0,B|277:61|224:128,1,160
312,168,82415,1,8,0:0:0:0:
192,32,82601,2,0,B|152:16|112:32,1,80
8,152,82974,2,0,B|99:171|152:104,2,160,8|0|0,0:0|0:0|0:0,0:0:0:0:
160,200,83905,6,0,B|192:272,1,80,8|0,0:0|0:0,0:0:0:0:
48,328,84278,2,0,B|60:279|112:264,1,80
288,272,84651,2,0,B|256:344,1,80,8|0,0:0|0:0,0:0:0:0:
272,360,84930,1,0,0:0:0:0:
288,376,85024,5,4,0:0:0:0:
368,232,85210,1,0,0:0:0:0:
208,264,85396,1,0,0:0:0:0:
352,328,85582,2,0,B|512:328,2,160,4|4|4,0:0|0:0|0:0,0:0:0:0:
224,184,86514,6,0,B|273:196|288:248,1,80
216,384,86887,2,0,B|228:335|280:320,1,80,8|0,0:0|0:0,0:0:0:0:
432,296,87260,2,0,B|352:296,1,80
208,264,87632,5,8,0:0:0:0:
272,112,87818,2,0,B|432:112,1,160
288,200,88377,1,8,0:0:0:0:
184,88,88564,2,0,B|196:39|248:24,1,80
200,176,88936,2,0,B|40:176,2,160,0|0|0,0:0|0:0|0:0,0:0:0:0:
128,320,89868,6,0,B|140:369|192:384,1,80,8|0,0:0|0:0,0:0:0:0:
296,248,90241,2,0,B|256:232|216:248,1,80
335,378,90613,2,0,B|372:363|384:319,1,80,8|0,0:0|0:0,0:0:0:0:
256,192,90986,12,4,92290,0:0:0:0:
