osu file format v12

[General]
AudioFilename: Steins;Gate - Hacking to the Gate ~ OP TV size ~.mp3
AudioLeadIn: 2500
PreviewTime: 58125
Countdown: 0
SampleSet: Normal
StackLeniency: 0.4
Mode: 0
LetterboxInBreaks: 0

[Editor]
DistanceSpacing: 0.5
BeatDivisor: 4
GridSize: 4

[Metadata]
Title:Hacking to the Gate (TV Size)
TitleUnicode:Hacking to the Gate (TV Size)
Artist:Itou Kanako
ArtistUnicode:いとうかなこ
Creator:Chloe
Version:Normal
Source:Steins;Gate
Tags:Anime 5pb nitroplus nitro+ opening DakeDekaane [CSGA]Ar3sgice Banana Gamu Dekaane AR233
BeatmapID:256184
BeatmapSetID:89379

[Difficulty]
HPDrainRate:3
CircleSize:4
OverallDifficulty:4
ApproachRate:5
SliderMultiplier:1
SliderTickRate:1

[Events]
//Background and Video events
0,0,"Hacking to the Gate.jpg",0,0
Video,236,"STEINS;GATE Op.flv"
//Break Periods
//Storyboard Layer 0 (Background)
//Storyboard Layer 1 (Fail)
//Storyboard Layer 2 (Pass)
//Storyboard Layer 3 (Foreground)
//Storyboard Sound Samples
//Background Colour Transformations
3,100,0,0,64

[TimingPoints]
362,372.670807453416,4,2,0,5,1,0
1852,-100,4,1,0,50,0,0
13778,-100,4,2,1,70,0,0
41169,-100,4,1,0,50,0,0
41914,-100,4,2,1,70,0,0
42287,-100,4,1,0,50,0,0
42846,-100,4,2,1,70,0,0
61480,-100,4,2,1,50,0,1
61573,-100,4,2,1,100,0,0
61852,-100,4,1,1,70,0,0
62318,-100,4,1,1,50,0,0
62411,-100,4,1,1,70,0,0
62970,-100,4,1,1,75,0,1
74523,-100,4,1,1,75,0,0
74896,-100,4,1,1,75,0,1
86821,-100,4,1,1,75,0,0
88125,-100,4,1,1,60,0,0

[Colours]
Combo1 : 255,255,0
Combo2 : 255,0,128
Combo3 : 170,170,255
Combo4 : 200,0,200
SliderBorder : 255,255,255

[HitObjects]
298,232,1852,6,0,P|372:226|417:170,2,150,6|0|0,0:0|0:0|0:0,0:0:0:0:
269,135,3343,6,0,P|226:73|155:62,2,150,6|0|0,0:0|0:0|0:0,0:0:0:0:
200,207,4834,6,0,P|168:274|194:341,2,150,6|0|0,0:0|0:0|0:0,0:0:0:0:
271,278,6324,6,0,P|319:293|365:279,1,100,6|0,0:0|0:0,0:0:0:0:
409,188,7070,2,0,P|361:173|315:187,1,100
291,179,7629,1,0,0:0:0:0:
267,170,7815,6,0,L|180:244,1,100,4|0,0:0|0:0,0:0:0:0:
127,156,8560,2,0,L|203:91,1,100
301,111,9306,6,0,L|214:185,1,100,4|0,0:0|0:0,0:0:0:0:
161,97,10051,2,0,L|237:32,1,100
256,192,10796,12,4,13405,0:0:0:0:
310,145,13778,6,0,L|242:231,1,100,2|0,0:0|0:0,0:0:0:0:
148,231,14523,1,2,0:0:0:0:
127,329,14896,2,0,P|181:336|217:307,1,100,0|2,0:0|0:0,0:0:0:0:
315,309,15641,5,2,0:0:0:0:
315,309,16014,1,0,0:0:0:0:
411,283,16386,2,0,P|409:228|381:174,1,100,2|0,0:0|0:0,0:0:0:0:
332,105,17132,5,2,0:0:0:0:
268,28,17504,2,0,P|239:71|234:132,2,100
242,226,18995,6,0,P|190:215|155:181,1,100,2|0,0:0|0:0,2:0:0:0:
132,86,19740,2,0,P|71:164|108:271,1,200,2|2,0:0|0:0,0:0:0:0:
190,276,20858,2,0,P|253:251|283:220,1,100,2|0,0:0|0:0,0:0:0:0:
283,130,21604,6,0,P|330:147|370:195,2,100,2|0|2,0:0|0:0|0:0,0:0:0:0:
183,123,22722,2,0,L|136:142,3,50,4|0|2|0,0:0|0:0|0:0|0:0,0:0:0:0:
256,192,23653,12,0,25330,0:0:0:0:
386,93,25703,6,0,L|430:183,1,100,6|0,0:0|0:0,0:0:0:0:
331,162,26448,2,0,L|375:252,1,100,2|0,0:0|0:0,0:0:0:0:
276,231,27194,2,0,L|320:321,2,100,2|0|2,0:0|0:0|0:0,0:0:0:0:
192,176,28312,6,0,L|120:259,1,100,2|0,0:0|0:0,0:0:0:0:
28,229,29057,2,0,L|93:153,1,100,2|0,0:0|0:0,0:0:0:0:
168,88,29802,1,2,0:0:0:0:
190,75,29989,2,0,P|274:77|320:138,1,150,0|2,0:0|0:0,0:0:0:0:
294,220,30921,6,0,P|245:201|223:155,2,100,0|2|0,0:0|0:0|0:0,0:0:0:0:
385,179,32039,1,2,0:0:0:0:
393,202,32225,2,0,P|388:276|331:327,1,150,0|2,0:0|0:0,0:0:0:0:
314,310,32970,1,0,0:0:0:0:
292,297,33157,6,0,P|242:288|192:298,2,100,2|0|2,0:0|0:0|0:0,0:0:0:0:
260,202,34275,2,0,P|292:153|299:94,1,100,2|4,0:0|0:0,0:0:0:0:
266,18,35020,5,2,0:0:0:0:
291,20,35206,2,0,P|338:33|379:62,1,100,4|0,0:0|0:0,0:0:0:0:
404,62,35765,2,0,L|458:62,1,50,4|0,0:0|0:0,0:0:0:0:
511,144,36324,1,8,0:0:0:0:
511,144,36511,1,8,0:0:0:0:
511,144,36883,6,0,P|506:220|455:273,1,150,4|4,0:0|0:0,0:0:0:0:
307,271,38001,2,0,L|202:271,2,100,8|0|0,0:0|0:0|0:0,0:0:0:0:
282,174,39119,2,0,L|396:174,2,100,0|8|0,0:0|0:0|0:0,0:0:0:0:
209,105,40237,1,0,0:0:0:0:
138,34,40610,5,2,0:0:0:0:
112,130,40983,1,8,0:0:0:0:
112,130,41169,2,0,P|44:200|53:300,1,200,0|0,0:0|0:0,0:0:0:0:
129,233,42287,2,0,P|179:287|257:303,1,150,0|2,0:0|0:0,0:0:0:0:
254,203,43219,5,2,0:0:0:0:
278,194,43405,2,0,P|343:246|421:247,1,150,0|2,0:0|0:0,0:0:0:0:
446,158,44337,2,0,P|381:106|303:105,1,150,0|0,0:0|0:0,0:0:0:0:
227,56,45268,5,2,0:0:0:0:
227,56,45455,2,0,P|212:107|228:172,1,100,0|2,0:0|0:0,0:0:0:0:
290,222,46200,2,0,P|305:171|289:106,1,100,0|2,0:0|0:0,0:0:0:0:
397,111,46945,5,0,0:0:0:0:
404,135,47132,2,0,P|437:183|473:207,1,100,4|0,0:0|0:0,0:0:0:0:
487,224,47691,2,0,P|491:299|474:338,1,100,4|4,0:0|0:0,0:0:0:0:
463,337,48250,5,0,0:0:0:0:
441,349,48436,1,2,0:0:0:0:
367,281,48809,2,0,L|307:277,3,50,6|0|0|0,0:0|0:0|0:0|0:0,0:0:0:0:
174,231,49927,5,8,0:0:0:0:
127,142,50299,2,0,P|184:93|202:13,1,150,2|2,0:0|0:0,0:0:0:0:
104,42,51231,1,2,0:0:0:0:
104,42,51417,2,0,P|39:89|45:203,1,200,0|2,0:0|0:0,0:0:0:0:
0,290,52535,5,2,0:0:0:0:
99,283,52908,2,0,P|141:317|203:319,1,100,0|2,0:0|0:0,0:0:0:0:
276,283,53653,1,2,0:0:0:0:
276,283,53840,2,0,P|324:284|366:312,1,100
384,329,54399,6,0,P|463:311|493:245,1,150,4|0,0:0|0:0,0:0:0:0:
482,231,55144,1,8,0:0:0:0:
465,212,55330,2,0,L|363:222,2,100,2|0|0,0:0|0:0|0:0,0:0:0:0:
394,141,56448,5,2,0:0:0:0:
394,115,56635,1,8,0:0:0:0:
397,90,56821,2,0,L|496:80,2,100
256,192,58125,12,4,61480,0:0:0:0:
172,209,61852,5,0,0:0:0:0:
172,209,62039,1,0,0:0:0:0:
172,209,62225,2,0,L|200:310,1,100,8|0,0:0|0:0,0:0:0:0:
276,368,62970,6,0,L|295:312,3,50,4|0|0|0,0:0|0:0|0:0|0:0,0:0:0:0:
391,334,63902,1,0,0:0:0:0:
391,334,64088,1,8,0:0:0:0:
391,334,64275,2,0,P|410:260|388:187,1,150,0|8,0:0|0:0,0:0:0:0:
317,122,65206,2,0,P|295:177|301:234,2,100,8|0|8,0:0|0:0|0:0,0:0:0:0:
233,67,66324,6,0,P|193:140|164:160,1,100,8|8,0:0|0:0,0:0:0:0:
161,164,66883,2,0,P|135:226|140:279,1,100
142,357,67629,1,0,0:0:0:0:
142,357,67815,2,0,P|98:352|53:298,2,100,8|0|8,0:0|0:0|0:0,0:0:0:0:
226,302,68933,6,0,P|271:250|276:161,1,150,8|0,0:0|0:0,0:0:0:0:
242,78,69865,1,0,0:0:0:0:
242,78,70051,2,0,P|169:125|210:230,1,200,8|8,0:0|0:0,0:0:0:0:
282,171,71169,5,8,0:0:0:0:
282,171,71355,2,0,P|361:192|381:191,2,100,0|8|0,0:0|0:0|0:0,0:0:0:0:
315,76,72473,2,0,P|212:105|182:201,1,200,8|4,0:0|0:0,0:0:0:0:
253,315,73778,5,0,0:0:0:0:
228,308,73965,1,0,0:0:0:0:
203,304,74151,2,0,L|94:322,1,100,8|0,0:0|0:0,0:0:0:0:
87,222,74896,6,0,L|131:199,3,50,4|0|0|0,0:0|0:0|0:0|0:0,0:0:0:0:
225,234,75827,1,0,0:0:0:0:
225,234,76014,1,8,0:0:0:0:
225,234,76200,2,0,P|300:223|345:161,1,150,0|8,0:0|0:0,0:0:0:0:
317,70,77132,6,0,P|272:103|251:149,1,100,8|0,0:0|0:0,0:0:0:0:
249,166,77691,2,0,P|195:207|143:216,1,100,0|8,0:0|0:0,0:0:0:0:
108,298,78436,2,0,P|165:310|221:294,2,100,8|0|0,0:0|0:0|0:0,0:0:0:0:
92,199,79554,1,0,0:0:0:0:
92,199,79740,2,0,P|65:157|23:125,2,100,8|0|8,0:0|0:0|0:0,0:0:0:0:
147,115,80858,6,0,P|248:100|288:58,1,150,8|0,0:0|0:0,0:0:0:0:
348,143,81790,1,0,0:0:0:0:
348,143,81976,2,8,P|257:198|224:282,1,200,8|8,0:0|0:0,0:0:0:0:
123,279,83094,5,8,0:0:0:0:
123,279,83281,2,0,P|134:319|179:367,2,100,8|8|0,0:0|0:0|0:0,0:0:0:0:
24,260,84399,2,0,P|99:190|203:220,1,200,8|0,0:0|0:0,0:0:0:0:
211,303,85517,5,8,0:0:0:0:
234,295,85703,2,0,P|287:221|246:123,1,200,8|0,0:0|0:0,0:0:0:0:
164,75,86821,5,4,0:0:0:0:
164,75,87007,1,8,0:0:0:0:
164,176,87380,6,0,P|108:184|56:172,2,100,8|0|4,0:0|0:0|0:0,0:0:0:0:
