osu file format v12

[General]
AudioFilename: Steins;Gate - Hacking to the Gate ~ OP TV size ~.mp3
AudioLeadIn: 2500
PreviewTime: 58125
Countdown: 0
SampleSet: Normal
StackLeniency: 0.4
Mode: 0
LetterboxInBreaks: 0

[Editor]
DistanceSpacing: 1.4
BeatDivisor: 4
GridSize: 4

[Metadata]
Title:Hacking to the Gate (TV Size)
TitleUnicode:Hacking to the Gate (TV Size)
Artist:Itou Kanako
ArtistUnicode:いとうかなこ
Creator:Chloe
Version:Insane
Source:Steins;Gate
Tags:Anime 5pb nitroplus nitro+ opening DakeDekaane [CSGA]Ar3sgice Banana Gamu Dekaane AR233
BeatmapID:246599
BeatmapSetID:89379

[Difficulty]
HPDrainRate:7
CircleSize:4
OverallDifficulty:8
ApproachRate:9
SliderMultiplier:1.6
SliderTickRate:1

[Events]
//Background and Video events
0,0,"Hacking to the Gate.jpg",0,0
Video,236,"STEINS;GATE Op.flv"
//Break Periods
//Storyboard Layer 0 (Background)
//Storyboard Layer 1 (Fail)
//Storyboard Layer 2 (Pass)
//Storyboard Layer 3 (Foreground)
//Storyboard Sound Samples
//Background Colour Transformations
3,100,0,0,64

[TimingPoints]
362,372.670807453416,4,2,0,5,1,0
362,-200,4,2,0,5,0,0
921,-200,4,2,0,25,0,0
1293,-200,4,2,0,15,0,0
1852,-100,4,1,0,50,0,0
3157,-100,4,1,0,45,0,0
3343,-100,4,1,0,50,0,0
4647,-100,4,1,0,45,0,0
4834,-100,4,1,0,50,0,0
6138,-100,4,1,0,40,0,0
6324,-100,4,1,0,50,0,0
7070,-100,4,1,0,55,0,0
7442,-100,4,1,0,65,0,0
7629,-100,4,1,0,55,0,0
7815,-100,4,1,0,50,0,0
9306,-100,4,1,0,55,0,0
9399,-100,4,1,0,50,0,0
10424,-100,4,1,0,55,0,0
10610,-100,4,1,0,50,0,0
10796,-100,4,1,0,65,0,0
10889,-100,4,1,0,50,0,0
12287,-100,4,1,0,65,0,0
12380,-100,4,1,0,50,0,0
13032,-100,4,1,0,55,0,0
13778,-100,4,2,0,70,0,0
22722,-100,4,1,0,60,0,0
24026,-100,4,1,0,60,0,0
24212,-100,4,2,0,30,0,0
24585,-100,4,2,0,60,0,0
24771,-100,4,2,0,70,0,0
32225,-76.9230769230769,4,2,0,70,0,0
32598,-100,4,2,0,70,0,0
33157,-100,4,2,0,50,0,0
33250,-100,4,2,0,70,0,0
34647,-66.6666666666667,4,2,0,80,0,0
35393,-66.6666666666667,4,1,0,70,0,0
36883,-100,4,2,0,75,0,0
38933,-100,4,3,0,45,0,0
39306,-100,4,2,0,75,0,0
40051,-100,4,3,0,45,0,0
40144,-100,4,2,0,75,0,0
43964,-100,4,2,0,75,0,0
47877,-100,4,2,0,45,0,0
48063,-100,4,2,0,75,0,0
50858,-100,4,3,0,45,0,0
51231,-100,4,2,0,75,0,0
51790,-100,4,2,0,60,0,0
51976,-100,4,3,0,45,0,0
52070,-100,4,2,0,75,0,0
59430,-100,4,1,0,60,0,0
59616,-100,4,2,0,75,0,0
61480,-200,4,2,0,50,0,1
61573,-200,4,2,0,100,0,0
61852,-100,4,1,1,45,0,0
62318,-100,4,1,1,50,0,0
62411,-100,4,1,1,70,0,0
62970,-100,4,1,1,75,0,1
65765,-100,4,1,1,55,0,1
65858,-100,4,1,1,75,0,1
67256,-100,4,1,1,55,0,1
67349,-100,4,1,1,75,0,1
68560,-100,4,1,1,55,0,1
68653,-100,4,1,1,75,0,1
68747,-100,4,1,1,60,0,1
68840,-100,4,1,1,75,0,1
69678,-100,4,2,0,80,0,1
70424,-100,4,2,0,70,0,1
70610,-100,4,1,1,75,0,1
72535,-133.333333333333,4,2,0,5,0,1
72846,-117.647058823529,4,1,1,85,0,1
72908,-133.333333333333,4,2,0,5,0,1
73219,-133.333333333333,4,1,1,55,0,1
73778,-100,4,1,1,65,0,1
74243,-100,4,1,1,50,0,1
74337,-100,4,1,1,70,0,1
74523,-100,4,1,1,75,0,0
74896,-100,4,1,1,75,0,1
80299,-100,4,1,1,85,0,1
80672,-100,4,1,1,75,0,1
80858,-100,4,1,1,85,0,1
81045,-100,4,1,1,75,0,1
81976,-100,4,1,1,55,0,1
82163,-100,4,1,1,75,0,1
83281,-100,4,1,1,65,0,1
83653,-100,4,1,1,75,0,1
85144,-100,4,1,1,85,0,1
85237,-100,4,1,1,75,0,1
86169,-100,4,2,0,80,0,1
86821,-100,4,1,1,75,0,0
88125,-100,4,1,1,55,0,0

[Colours]
Combo1 : 255,255,0
Combo2 : 255,0,128
Combo3 : 170,170,255
Combo4 : 200,0,200
SliderBorder : 255,255,255

[HitObjects]
192,80,362,22,0,L|192:132,1,40
256,192,734,1,0,0:0:0:0:
161,211,921,2,0,L|161:259,1,40,2|4,0:0|0:0,0:0:0:0:
260,304,1293,6,0,P|319:306|347:258,1,120,4|6,0:0|0:0,0:0:0:0:
430,200,2039,1,0,0:0:0:0:
512,141,2225,1,0,0:0:0:0:
512,141,2411,1,0,0:0:0:0:
336,182,2598,5,0,0:0:0:0:
391,104,2784,1,0,0:0:0:0:
391,104,2970,1,0,0:0:0:0:
242,164,3157,1,2,0:0:0:0:
197,79,3343,5,6,0:0:0:0:
117,79,3529,1,0,0:0:0:0:
23,190,3716,1,0,0:0:0:0:
102,190,3902,1,0,0:0:0:0:
269,291,4088,5,0,0:0:0:0:
188,291,4275,1,0,0:0:0:0:
41,360,4461,1,0,0:0:0:0:
121,360,4647,1,2,0:0:0:0:
188,291,4834,5,6,0:0:0:0:
242,164,5020,1,0,0:0:0:0:
337,164,5206,2,0,L|393:82,1,80
334,14,5579,6,0,L|288:80,1,80,0|0,0:0|0:0,0:0:0:0:
242,164,5952,1,0,0:0:0:0:
146,164,6138,1,0,0:0:0:0:
83,236,6324,5,6,0:0:0:0:
29,255,6511,1,0,0:0:0:0:
100,288,6697,1,0,0:0:0:0:
48,307,6883,1,0,0:0:0:0:
240,368,7070,5,0,0:0:0:0:
317,381,7256,1,4,0:0:0:0:
331,302,7442,1,4,0:0:0:0:
251,288,7629,1,0,0:0:0:0:
219,256,7722,5,0,0:0:0:0:
187,224,7815,2,0,L|294:204,1,80,4|0,0:0|0:0,0:0:0:0:
369,196,8188,1,0,0:0:0:0:
369,196,8374,1,0,0:0:0:0:
372,40,8560,6,0,L|308:88,1,80,0|0,0:0|0:0,0:0:0:0:
210,158,8933,1,0,0:0:0:0:
111,226,9119,5,0,0:0:0:0:
111,226,9212,1,0,0:0:0:0:
111,226,9306,2,0,L|209:278,1,80,4|0,0:0|0:0,0:0:0:0:
296,136,9678,1,0,0:0:0:0:
296,136,9865,1,0,0:0:0:0:
57,114,10051,6,0,L|131:152,1,80
273,220,10424,1,4,0:0:0:0:
379,184,10610,5,0,0:0:0:0:
379,184,10703,1,0,0:0:0:0:
379,184,10796,2,0,L|490:143,1,80,4|0,0:0|0:0,0:0:0:0:
308,64,11169,1,0,0:0:0:0:
308,64,11355,1,0,0:0:0:0:
232,320,11542,6,0,L|335:280,1,80
379,184,11914,1,0,0:0:0:0:
382,55,12101,5,0,0:0:0:0:
382,55,12194,1,0,0:0:0:0:
382,55,12287,2,0,L|456:26,1,80,4|0,0:0|0:0,0:0:0:0:
296,136,12660,1,0,0:0:0:0:
296,136,12847,1,0,0:0:0:0:
178,269,13032,6,0,L|252:240,1,80,4|0,0:0|0:0,0:0:0:0:
42,205,13405,2,0,L|116:176,1,80,4|0,0:0|0:0,0:0:0:0:
116,175,13684,1,0,0:0:0:0:
116,175,13778,5,2,0:0:0:0:
187,89,13964,1,2,0:0:0:0:
227,193,14150,1,8,0:0:0:0:
335,225,14337,2,0,P|375:221|415:205,2,80,0|0|2,0:0|0:0|0:0,0:0:0:0:
253,302,14896,1,0,0:0:0:0:
138,359,15082,6,0,B|104:329|101:273,1,80,2|0,0:0|0:0,0:0:0:0:
155,172,15455,2,0,B|189:202|190:241,1,80,0|8,0:0|0:0,0:0:0:0:
33,213,15827,1,2,0:0:0:0:
43,191,15921,1,0,0:0:0:0:
58,172,16014,1,0,0:0:0:0:
147,80,16200,1,0,0:0:0:0:
259,140,16386,6,0,P|285:172|351:195,1,80,2|0,0:0|0:0,0:0:0:0:
453,168,16759,1,2,0:0:0:0:
453,168,16945,1,0,0:0:0:0:
369,265,17132,1,8,0:0:0:0:
244,294,17318,2,0,P|159:287|111:217,1,160,2|0,0:0|0:0,0:0:0:0:
225,166,17877,1,0,0:0:0:0:
165,51,18063,6,0,P|138:63|112:104,1,80,2|0,0:0|0:0,0:0:0:0:
225,166,18436,1,2,0:0:0:0:
248,163,18529,1,2,0:0:0:0:
271,160,18622,1,8,0:0:0:0:
375,234,18809,1,0,0:0:0:0:
291,330,18995,2,0,P|255:311|229:281,1,80,2|0,0:0|0:0,0:0:0:0:
298,116,19368,2,0,P|317:152|321:191,1,80,2|0,0:0|0:0,0:0:0:0:
229,281,19740,5,2,0:0:0:0:
108,240,19927,1,2,0:0:0:0:
59,121,20113,1,8,0:0:0:0:
79,108,20206,1,0,0:0:0:0:
97,92,20299,2,0,P|129:60|133:22,2,80,0|0|0,0:0|0:0|0:0,0:0:0:0:
136,214,20858,1,8,0:0:0:0:
258,172,21045,1,0,0:0:0:0:
244,299,21231,5,2,0:0:0:0:
244,299,21324,1,2,0:0:0:0:
244,299,21417,1,0,0:0:0:0:
372,291,21604,1,8,0:0:0:0:
438,181,21790,2,0,B|475:196|512:241,2,80,2|0|0,0:0|0:0|0:0,0:0:0:0:
312,151,22349,1,8,0:0:0:0:
200,87,22535,1,0,0:0:0:0:
311,23,22722,5,4,0:2:0:0:
157,66,22908,1,2,0:2:0:0:
213,215,23094,1,2,0:2:0:0:
368,173,23281,1,0,0:2:0:0:
157,66,23653,5,4,0:2:0:0:
368,173,23840,1,2,0:2:0:0:
187,324,24026,1,2,0:2:0:0:
327,292,24212,1,2,0:0:0:0:
346,288,24306,1,2,0:0:0:0:
365,286,24399,1,0,0:0:0:0:
384,283,24492,1,0,0:0:0:0:
403,282,24585,5,2,0:0:0:0:
479,179,24771,2,0,L|400:179,1,80,4|0,0:0|0:0,0:0:0:0:
208,117,25144,2,0,L|288:118,1,80,4|0,0:0|0:0,0:0:0:0:
316,119,25424,1,0,0:0:0:0:
344,120,25516,1,0,0:0:0:0:
416,290,25703,6,0,B|368:288|351:243,1,80,2|0,0:0|0:0,0:0:0:0:
344,120,26076,1,8,0:0:0:0:
241,45,26262,2,0,B|236:84|208:117,1,80,0|2,0:0|0:0,0:0:0:0:
79,112,26635,1,2,0:0:0:0:
84,134,26728,1,0,0:0:0:0:
98,152,26821,1,8,0:0:0:0:
68,276,27007,2,0,P|107:268|147:268,1,80,0|2,0:0|0:0,0:0:0:0:
271,301,27380,1,0,0:0:0:0:
300,131,27566,6,0,B|275:163|237:177,2,80,8|2|0,0:0|0:0|0:0,0:0:0:0:
367,21,28125,1,0,0:0:0:0:
367,21,28312,1,8,0:0:0:0:
450,117,28498,1,2,0:0:0:0:
385,227,28684,6,0,B|342:242|325:294,1,80,2|0,0:0|0:0,0:0:0:0:
438,349,29057,1,8,0:0:0:0:
315,379,29243,2,0,B|267:377|240:353,1,80,2|0,0:0|0:0,0:0:0:0:
123,302,29616,1,2,0:0:0:0:
187,191,29802,1,8,0:0:0:0:
131,75,29989,2,0,P|96:95|75:130,2,80,2|0|0,0:0|0:0|0:0,0:0:0:0:
187,191,30548,5,8,0:0:0:0:
312,165,30734,1,2,0:0:0:0:
416,239,30921,2,0,P|362:278|350:280,1,80,2|0,0:0|0:0,0:0:0:0:
96,239,31293,2,0,P|150:278|161:280,1,80,8|0,0:0|0:0,0:0:0:0:
200,165,31666,1,2,0:0:0:0:
200,165,31759,1,2,0:0:0:0:
200,165,31852,1,0,0:0:0:0:
232,40,32039,5,12,0:0:0:0:
389,68,32225,2,0,B|369:116|369:116|395:173,1,103.999995239258,2|0,0:0|0:0,0:0:0:0:
489,238,32598,1,2,0:0:0:0:
370,285,32784,1,8,0:0:0:0:
254,339,32970,1,2,0:0:0:0:
234,212,33157,6,0,B|218:196|218:196|170:196|170:196|162:188,1,80,4|0,0:0|0:0,0:0:0:0:
97,80,33529,1,8,0:0:0:0:
225,66,33716,2,0,B|305:82|345:162,1,160,2|0,0:0|0:0,0:0:0:0:
313,283,34275,1,4,0:0:0:0:
234,212,34461,1,0,0:0:0:0:
300,68,34647,6,0,P|356:92|380:180,1,120.000004577637,4|0,0:0|0:0,0:0:0:0:
212,316,35020,2,0,P|156:292|132:204,1,120.000004577637,2|0,0:0|0:0,0:0:0:0:
300,68,35393,5,0,0:0:0:0:
212,316,35579,1,4,0:0:0:0:
32,112,35765,1,0,0:0:0:0:
300,68,35952,1,0,0:0:0:0:
47,78,36324,5,4,0:0:0:0:
288,68,36511,1,0,0:0:0:0:
63,44,36883,5,4,0:0:0:0:
276,68,37070,2,0,B|316:92|336:144,1,80,2|0,0:0|0:0,0:0:0:0:
216,196,37442,2,0,B|180:285|260:341,1,160,4|2,0:0|0:0,0:0:0:0:
337,239,38001,2,0,B|383:227|401:195,1,80,0|0,0:0|0:0,0:0:0:0:
276,68,38374,5,2,0:0:0:0:
359,250,38560,1,2,0:0:0:0:
382,252,38653,1,2,0:0:0:0:
405,247,38747,2,0,P|440:224|459:179,1,80,0|0,0:0|0:0,0:0:0:0:
456,190,39306,5,2,0:0:0:0:
336,148,39492,1,2,0:0:0:0:
221,203,39678,1,0,0:0:0:0:
116,164,39865,2,0,B|125:128|163:99,2,80,2|0|8,0:0|0:0|0:0,0:0:0:0:
44,240,40424,1,2,0:0:0:0:
144,284,40610,6,0,B|156:296|156:348|168:359|168:359,1,80,4|0,0:0|0:0,0:0:0:0:
272,300,40983,1,2,0:0:0:0:
388,284,41169,2,0,B|400:273|400:221|412:209,1,80,0|0,0:0|0:0,0:0:0:0:
300,40,41542,1,2,0:0:0:0:
300,40,41635,1,2,0:0:0:0:
300,40,41728,2,0,P|319:83|317:143,1,80,2|0,0:0|0:0,0:0:0:0:
292,223,42101,5,2,0:0:0:0:
185,255,42287,1,0,0:0:0:0:
78,220,42473,2,0,P|67:177|76:140,1,80,2|0,0:0|0:0,0:0:0:0:
152,61,42846,2,0,P|192:61|225:81,1,80,4|0,0:0|0:0,0:0:0:0:
225,81,43125,1,0,0:0:0:0:
225,81,43219,1,8,0:0:0:0:
223,193,43405,6,0,P|263:222|322:212,1,80,2|0,0:0|0:0,0:0:0:0:
212,301,43778,1,0,0:0:0:0:
116,245,43964,2,0,B|65:166|116:96,1,160,8|2,0:0|0:0,0:0:0:0:
240,128,44523,1,0,0:0:0:0:
116,96,44709,5,8,0:0:0:0:
240,128,44896,2,0,B|248:87|236:48,2,80,2|0|0,0:0|0:0|0:0,0:0:0:0:
355,185,45455,1,8,0:0:0:0:
408,301,45641,2,0,P|347:306|297:329,1,80,0|2,0:0|0:0,0:0:0:0:
376,384,46014,1,2,0:0:0:0:
355,185,46200,6,0,P|406:147|428:105,2,80,8|0|2,0:0|0:0|0:0,0:0:0:0:
240,128,46759,1,0,0:0:0:0:
119,169,46945,1,8,0:0:0:0:
72,288,47132,1,2,0:0:0:0:
87,305,47225,1,2,0:0:0:0:
109,313,47318,1,0,0:0:0:0:
232,347,47504,5,0,0:0:0:0:
302,240,47691,2,0,P|330:221|374:207,1,80,8|0,0:0|0:0,0:0:0:0:
497,239,48063,5,4,0:0:0:0:
374,207,48250,1,2,0:0:0:0:
374,207,48436,1,2,0:0:0:0:
381,47,48622,5,2,0:0:0:0:
381,47,48716,1,0,0:0:0:0:
381,47,48809,2,0,L|303:63,1,80,4|0,0:0|0:0,0:0:0:0:
89,254,49181,2,0,L|167:238,1,80,2|4,0:0|0:0,0:0:0:0:
445,314,49927,5,8,0:0:0:0:
350,300,50113,1,0,0:0:0:0:
281,232,50299,1,2,0:0:0:0:
266,137,50486,2,0,P|347:141|374:207,1,160,0|0,0:0|0:0,0:0:0:0:
374,206,51231,1,0,0:0:0:0:
281,232,51417,5,2,0:0:0:0:
191,196,51604,1,2,0:0:0:0:
172,217,51697,1,2,0:0:0:0:
155,239,51790,2,0,P|129:298|128:349,2,80,4|0|8,0:0|0:0|0:0,0:0:0:0:
65,170,52349,1,0,0:0:0:0:
74,58,52535,2,0,P|110:65|144:91,1,80,4|0,0:0|0:0,0:0:0:0:
191,196,52908,5,2,0:0:0:0:
304,221,53094,1,2,0:0:0:0:
304,221,53188,1,2,0:0:0:0:
304,221,53281,2,0,P|352:203|373:184,1,80,0|0,0:0|0:0,0:0:0:0:
394,71,53653,1,2,0:0:0:0:
281,43,53840,2,0,P|275:80|292:121,2,80,2|0|0,0:0|0:0|0:0,0:0:0:0:
394,71,54399,6,0,P|447:101|468:144,1,80,4|2,0:0|0:0,0:0:0:0:
366,289,54771,2,0,P|360:255|376:214,1,80,4|2,0:0|0:0,0:0:0:0:
376,213,55051,1,0,0:0:0:0:
376,213,55144,1,8,0:0:0:0:
485,337,55330,2,0,P|426:377|323:375,1,160,4|2,0:0|0:0,0:0:0:0:
248,290,55889,6,0,P|189:260|139:265,1,80,4|2,0:0|0:0,0:0:0:0:
0,328,56262,2,0,P|63:313|74:306,1,80,6|2,0:0|0:0,0:0:0:0:
73,306,56542,1,0,0:0:0:0:
73,306,56635,1,8,0:0:0:0:
101,125,56821,2,0,P|66:181|64:194,2,80,4|0|2,0:0|0:0|0:0,0:0:0:0:
217,210,57380,5,4,0:0:0:0:
217,210,57566,1,2,0:0:0:0:
309,120,57753,2,0,L|358:108,1,40,4|2,0:0|0:0,0:0:0:0:
458,106,57939,2,0,L|419:115,2,40,0|0|4,0:0|0:0|0:0,0:0:0:0:
419,188,58312,2,0,P|395:262|336:317,1,160,2|4,0:0|0:0,0:0:0:0:
217,210,58871,1,2,0:0:0:0:
97,102,59057,1,4,0:0:0:0:
50,325,59430,5,0,0:0:0:0:
74,375,59523,1,0,0:0:0:0:
130,382,59616,2,0,B|185:354,1,40,4|0,0:0|0:0,0:0:0:0:
208,347,59802,2,0,L|257:359,2,40,2|0|0,0:0|0:0|0:0,0:0:0:0:
237,192,60175,2,0,B|263:175|283:172|309:152,1,80,4|0,0:0|0:0,0:0:0:0:
353,34,60548,5,2,0:0:0:0:
353,34,60641,1,2,0:0:0:0:
353,34,60734,1,0,0:0:0:0:
209,51,60921,1,0,0:0:0:0:
237,192,61107,2,0,B|218:184|218:184|188:204|163:180,1,80,4|0,0:0|0:0,0:0:0:0:
135,256,61480,1,4,0:0:0:0:
135,256,61852,5,0,0:0:0:0:
243,285,62039,1,0,0:0:0:0:
354,281,62225,1,0,0:0:0:0:
369,279,62318,1,0,0:0:0:0:
385,275,62411,1,0,0:0:0:0:
399,270,62504,1,0,0:0:0:0:
414,264,62598,2,0,P|449:245|486:215,1,80,4|0,0:0|0:0,0:0:0:0:
317,120,62970,6,0,P|263:130|237:147,1,80,4|0,0:0|0:0,0:0:0:0:
223,169,63250,1,0,0:0:0:0:
212,199,63343,2,0,P|169:214|109:218,1,80,8|4,0:0|0:0,0:0:0:0:
376,365,63902,2,0,L|365:326,1,40,0|0,0:0|0:0,0:0:0:0:
305,304,64088,2,0,L|327:206,1,80,8|0,0:0|0:0,0:0:0:0:
270,108,64461,5,0,0:0:0:0:
270,108,64647,2,0,L|252:186,1,80,0|8,0:0|0:0,0:1:0:0:
127,217,65020,1,0,0:0:0:0:
80,97,65206,2,0,P|44:115|19:149,1,80
127,217,65579,1,8,0:0:0:0:
107,343,65765,2,0,P|184:332|243:279,1,160,4|0,0:0|0:0,0:0:0:0:
366,312,66324,6,0,P|371:272|362:233,1,80,8|0,0:0|0:0,0:0:0:0:
298,82,66697,2,0,P|280:104|263:152,1,80
243,278,67070,1,8,0:0:0:0:
139,353,67256,2,0,P|91:285|84:207,1,160,4|0,0:0|0:0,0:0:0:0:
158,105,67815,2,0,P|181:138|191:183,1,80,8|0,0:0|0:0,0:0:0:0:
288,92,68188,6,0,P|265:59|255:20,1,80
402,93,68560,1,12,0:0:0:0:
392,123,68654,1,0,0:0:0:0:
372,148,68748,1,0,0:0:0:0:
344,164,68841,1,0,0:0:0:0:
312,172,68934,6,0,P|272:172|213:150,1,80,4|0,0:0|0:0,0:0:0:0:
166,291,69306,2,0,P|206:291|245:302,1,80,8|4,0:0|0:0,0:0:0:0:
406,272,69678,2,0,L|372:251,2,40,2|0|8,0:0|0:0|0:0,0:0:0:0:
350,274,69958,1,0,0:0:0:0:
323,290,70051,2,0,P|292:300|245:302,1,80,2|8,0:0|0:0,0:0:0:0:
127,280,70424,5,0,0:0:0:0:
90,175,70610,1,0,0:0:0:0:
153,82,70796,1,8,0:0:0:0:
262,52,70983,1,0,0:0:0:0:
284,60,71076,1,0,0:0:0:0:
302,76,71169,1,0,0:0:0:0:
417,184,71355,5,0,0:0:0:0:
287,204,71542,1,8,0:0:0:0:
343,320,71728,2,0,P|391:268|416:184,1,160,4|0,0:0|0:0,0:0:0:0:
416,163,72194,1,0,0:0:0:0:
416,143,72287,1,8,0:0:0:0:
223,92,72473,6,0,L|302:76,1,80,4|0,0:0|0:0,0:0:0:0:
90,175,72846,6,0,L|157:185,1,68.0000012969971,4|0,0:0|0:0,0:0:0:0:
262,258,73219,6,0,L|287:204,2,60.0000022888184,4|0|0,0:0|0:0|0:0,0:0:0:0:
384,264,73778,5,0,0:0:0:0:
371,274,73871,1,0,0:0:0:0:
357,281,73964,1,0,0:0:0:0:
341,285,74057,1,0,0:0:0:0:
325,286,74150,1,0,0:0:0:0:
309,284,74243,1,0,0:0:0:0:
293,278,74337,2,0,P|246:254|202:256,1,80,0|4,0:0|0:0,0:0:0:0:
80,81,74896,6,0,L|161:110,1,80,4|0,0:0|0:0,0:0:0:0:
187,84,75175,1,0,0:0:0:0:
220,62,75268,2,0,P|276:68|324:84,1,80,8|4,0:0|0:0,0:0:0:0:
352,291,75827,2,0,L|385:313,1,40
440,236,76014,2,0,P|492:210|509:197,2,80,0|0|0,0:0|0:0|0:0,0:0:0:0:
292,272,76573,5,0,0:0:0:0:
269,278,76666,1,0,0:0:0:0:
246,285,76759,1,8,0:0:0:0:
166,175,76945,1,0,0:0:0:0:
46,108,77132,1,0,0:0:0:0:
163,40,77318,1,0,0:0:0:0:
114,192,77504,1,8,0:0:0:0:
246,285,77691,6,0,P|292:211|300:108,1,160,4|0,0:0|0:0,0:0:0:0:
440,124,78250,1,8,0:0:0:0:
399,253,78436,2,0,P|436:269|484:266,1,80,0|0,0:0|0:0,0:0:0:0:
475,268,78716,1,0,0:0:0:0:
475,268,78809,1,0,0:0:0:0:
440,124,78995,1,8,0:0:0:0:
302,72,79181,6,0,P|264:63|223:68,2,80,4|0|0,0:0|0:0|0:0,0:0:0:0:
256,192,79740,2,0,P|248:264|293:335,1,160,8|0,0:0|0:0,0:0:0:0:
404,261,80299,2,0,P|377:236|368:195,1,80,0|0,0:0|0:0,0:0:0:0:
400,122,80672,5,0,0:0:0:0:
321,138,80858,1,4,0:0:0:0:
447,187,81045,1,0,0:0:0:0:
447,187,81138,1,0,0:0:0:0:
447,187,81231,1,0,0:0:0:0:
348,61,81417,2,0,L|364:22,2,40,0|0|0,0:0|0:0|0:0,0:0:0:0:
290,210,81790,5,0,0:0:0:0:
301,256,81883,1,0,0:0:0:0:
325,297,81976,1,8,0:0:0:0:
171,256,82163,5,0,0:0:0:0:
126,241,82256,1,0,0:0:0:0:
92,208,82349,1,0,0:0:0:0:
61,83,82535,1,0,0:0:0:0:
169,152,82722,1,8,0:0:0:0:
254,247,82908,1,0,0:0:0:0:
276,374,83094,1,0,0:0:0:0:
402,276,83281,5,0,0:0:0:0:
276,374,83467,1,8,0:0:0:0:
101,227,83653,2,0,P|170:217|254:247,1,160,4|0,0:0|0:0,0:0:0:0:
282,88,84212,1,8,0:0:0:0:
123,61,84399,2,0,P|94:83|52:91,1,80,0|0,0:0|0:0,0:0:0:0:
254,122,84771,2,0,P|251:94|270:47,1,80,0|0,0:0|0:0,0:0:0:0:
405,136,85144,6,0,P|372:196|265:242,1,160,4|0,0:0|0:0,0:0:0:0:
101,227,85703,1,8,0:0:0:0:
139,283,85796,1,0,0:0:0:0:
201,309,85889,1,0,0:0:0:0:
269,312,85983,1,0,0:0:0:0:
335,299,86076,2,0,P|378:280|403:259,1,80,0|0,0:0|0:0,0:0:0:0:
204,372,86448,5,2,0:0:0:0:
173,367,86541,1,0,0:0:0:0:
142,363,86635,1,0,0:0:0:0:
293,239,86821,5,4,0:0:0:0:
386,109,87007,5,0,0:0:0:0:
390,121,87380,1,0,0:0:0:0:
394,133,87753,1,0,0:0:0:0:
398,145,88125,5,4,0:0:0:0:
