osu file format v12

[General]
AudioFilename: Steins;Gate - Hacking to the Gate ~ OP TV size ~.mp3
AudioLeadIn: 2500
PreviewTime: 58125
Countdown: 0
SampleSet: Normal
StackLeniency: 0.4
Mode: 0
LetterboxInBreaks: 0

[Editor]
DistanceSpacing: 0.82
BeatDivisor: 4
GridSize: 4

[Metadata]
Title:Hacking to the Gate (TV Size)
TitleUnicode:Hacking to the Gate (TV Size)
Artist:Itou Kanako
ArtistUnicode:いとうかなこ
Creator:Chloe
Version:5.167569%
Source:Steins;Gate
Tags:Anime 5pb nitroplus nitro+ opening DakeDekaane [CSGA]Ar3sgice Banana Gamu Dekaane AR233
BeatmapID:251043
BeatmapSetID:89379

[Difficulty]
HPDrainRate:6
CircleSize:4
OverallDifficulty:7
ApproachRate:8
SliderMultiplier:1.8
SliderTickRate:1

[Events]
//Background and Video events
0,0,"Hacking to the Gate.jpg",0,0
Video,236,"STEINS;GATE Op.flv"
//Break Periods
//Storyboard Layer 0 (Background)
//Storyboard Layer 1 (Fail)
//Storyboard Layer 2 (Pass)
//Storyboard Layer 3 (Foreground)
//Storyboard Sound Samples
//Background Colour Transformations
3,100,0,0,64

[TimingPoints]
362,372.670807453416,4,1,0,60,1,0
1293,-200,4,1,0,60,0,0
1666,-200,4,1,0,17,0,0
1852,-100,4,1,0,60,0,0
10796,-100,4,2,0,60,0,0
13405,-100,4,2,0,5,0,0
13778,-100,4,1,0,60,0,0
24212,-100,4,2,0,60,0,0
24771,-133.333333333333,4,1,0,60,0,0
25330,-100,4,1,0,60,0,0
37442,-133.333333333333,4,1,0,60,0,0
43032,-100,4,1,0,60,0,0
61480,-100,4,1,0,60,0,1
61573,-100,4,1,0,60,0,0
62970,-100,4,1,0,60,0,1
74523,-100,4,1,0,60,0,0
74896,-100,4,1,0,60,0,1
86821,-100,4,1,0,60,0,0

[Colours]
Combo1 : 255,255,0
Combo2 : 255,0,128
Combo3 : 170,170,255
Combo4 : 200,0,200
SliderBorder : 255,255,255

[HitObjects]
0,128,1293,2,0,L|100:120,1,90,0|0,0:0|0:0,0:0:0:0:
0,128,1852,5,4,0:0:0:0:
68,148,2039,1,0,0:0:0:0:
136,164,2225,1,0,0:0:0:0:
204,180,2411,1,0,0:0:0:0:
272,200,2598,1,0,0:0:0:0:
340,216,2784,1,0,0:0:0:0:
408,232,2970,1,0,0:0:0:0:
476,252,3157,1,0,0:0:0:0:
500,84,3343,5,4,0:0:0:0:
436,116,3529,1,0,0:0:0:0:
372,148,3716,1,0,0:0:0:0:
308,180,3902,1,0,0:0:0:0:
244,216,4088,1,0,0:0:0:0:
180,248,4275,1,0,0:0:0:0:
116,284,4461,1,0,0:0:0:0:
52,316,4647,1,0,0:0:0:0:
232,368,4834,5,4,0:0:0:0:
212,296,5020,1,0,0:0:0:0:
192,224,5206,1,0,0:0:0:0:
172,152,5393,1,0,0:0:0:0:
192,224,5579,5,0,0:0:0:0:
172,152,5765,1,0,0:0:0:0:
148,80,5952,1,0,0:0:0:0:
128,8,6138,1,0,0:0:0:0:
4,160,6324,5,4,0:0:0:0:
76,168,6511,1,0,0:0:0:0:
148,176,6697,1,0,0:0:0:0:
220,184,6883,1,0,0:0:0:0:
292,192,7070,1,0,0:0:0:0:
364,200,7256,1,0,0:0:0:0:
436,208,7442,1,0,0:0:0:0:
508,216,7629,1,0,0:0:0:0:
488,116,7815,6,0,L|396:120,1,90,0|0,0:0|0:0,0:0:0:0:
312,296,8188,2,0,L|416:288,1,90,8|0,0:0|0:0,0:0:0:0:
320,68,8560,2,0,L|228:72,1,90,0|0,0:0|0:0,0:0:0:0:
144,248,8933,2,0,L|248:240,1,90,8|0,0:0|0:0,0:0:0:0:
368,92,9306,6,0,L|376:204,1,90,0|0,0:0|0:0,0:0:0:0:
232,340,9679,2,0,L|224:240,1,90,8|0,0:0|0:0,0:0:0:0:
164,32,10051,2,0,L|172:144,1,90,0|0,0:0|0:0,0:0:0:0:
28,280,10424,2,0,L|20:180,1,90,8|0,0:0|0:0,0:0:0:0:
256,192,10796,12,0,13405,0:0:0:0:
12,240,13778,6,0,P|48:264|104:264,1,90,0|0,0:0|0:0,0:0:0:0:
164,184,14150,1,8,0:0:0:0:
220,276,14337,1,0,0:0:0:0:
164,184,14523,2,0,P|152:144|160:92,1,90,0|0,0:0|0:0,0:0:0:0:
224,8,14896,1,8,0:0:0:0:
296,88,15082,2,0,P|348:116|472:96,1,180,0|0,0:0|0:0,0:0:0:0:
388,24,15641,2,0,P|376:72|384:128,1,90,8|0,0:0|0:0,0:0:0:0:
456,188,16014,5,0,0:0:0:0:
384,268,16200,2,0,P|380:307|392:355,2,90,0|8|0,0:0|0:0|0:0,0:0:0:0:
484,312,16759,2,0,P|452:348|312:360,1,180,0|8,0:0|0:0,0:0:0:0:
256,284,17318,2,0,L|164:276,1,90,0|0,0:0|0:0,0:0:0:0:
92,356,17691,1,0,0:0:0:0:
28,192,17877,2,0,L|12:284,1,90,8|0,0:0|0:0,0:0:0:0:
28,192,18250,1,0,0:0:0:0:
112,124,18436,2,0,P|156:144|208:144,2,90,0|8|0,0:0|0:0|0:0,0:0:0:0:
184,44,18995,6,0,L|276:36,1,90,0|0,0:0|0:0,0:0:0:0:
320,200,19368,2,0,L|228:192,1,90,8|0,0:0|0:0,0:0:0:0:
376,112,19740,2,0,P|356:168|416:272,1,180,0|8,0:0|0:0,0:0:0:0:
464,176,20299,1,0,0:0:0:0:
472,336,20486,2,0,L|368:344,1,90,0|0,0:0|0:0,0:0:0:0:
284,296,20858,2,0,L|184:300,1,90,8|0,0:0|0:0,0:0:0:0:
100,352,21231,6,0,P|56:320|44:280,1,90,0|0,0:0|0:0,0:0:0:0:
48,260,21511,1,0,0:0:0:0:
64,236,21604,1,8,0:0:0:0:
148,168,21790,2,0,P|152:92|76:20,1,180,0|0,0:0|0:0,0:0:0:0:
52,124,22349,1,8,0:0:0:0:
52,124,22535,1,0,0:0:0:0:
144,260,22722,5,4,0:0:0:0:
244,224,22908,1,0,0:0:0:0:
344,184,23094,1,0,0:0:0:0:
444,140,23281,1,0,0:0:0:0:
344,184,23653,5,0,0:0:0:0:
244,224,23840,1,8,0:0:0:0:
144,260,24026,1,0,0:0:0:0:
72,204,24212,2,0,L|40:160,3,45,2|0|2|0,0:0|0:0|0:0|0:0,0:0:0:0:
72,204,24771,6,0,P|92:128|140:100,1,135.000005149842,0|0,0:0|0:0,0:0:0:0:
220,168,25330,6,0,L|316:160,1,90,8|0,0:0|0:0,0:0:0:0:
360,184,25610,1,0,0:0:0:0:
360,184,25703,2,0,P|372:232|368:276,1,90,0|0,0:0|0:0,0:0:0:0:
404,92,26076,1,8,0:0:0:0:
512,248,26262,2,0,L|412:244,1,90,0|0,0:0|0:0,0:0:0:0:
512,248,26635,1,0,0:0:0:0:
396,364,26821,1,8,0:0:0:0:
288,228,27007,6,0,P|276:276|280:320,1,90,0|0,0:0|0:0,0:0:0:0:
196,152,27380,1,0,0:0:0:0:
80,280,27566,2,0,L|176:276,1,90,8|0,0:0|0:0,0:0:0:0:
0,220,27939,1,0,0:0:0:0:
0,220,28125,1,0,0:0:0:0:
56,124,28312,1,8,0:0:0:0:
56,124,28498,1,0,0:0:0:0:
260,100,28684,6,0,P|276:144|268:196,1,90,0|0,0:0|0:0,0:0:0:0:
172,40,29057,1,8,0:0:0:0:
260,100,29243,2,0,L|364:96,1,90,0|0,0:0|0:0,0:0:0:0:
504,164,29616,1,0,0:0:0:0:
472,32,29802,1,8,0:0:0:0:
424,140,29989,2,0,P|420:184|448:228,1,90,0|0,0:0|0:0,0:0:0:0:
396,320,30361,1,0,0:0:0:0:
304,264,30548,1,8,0:0:0:0:
256,360,30734,1,0,0:0:0:0:
156,320,30921,6,0,P|96:328|56:320,1,90,0|0,0:0|0:0,0:0:0:0:
108,224,31293,2,0,P|168:216|208:224,1,90,8|0,0:0|0:0,0:0:0:0:
24,160,31666,1,0,0:0:0:0:
76,64,31852,1,0,0:0:0:0:
76,64,31945,1,0,0:0:0:0:
76,64,32039,1,8,0:0:0:0:
172,116,32225,2,0,P|232:132|344:80,1,180,0|0,0:0|0:0,0:0:0:0:
416,12,32784,5,8,0:0:0:0:
500,80,32970,1,0,0:0:0:0:
428,160,33157,2,0,P|408:232|460:328,1,180,0|8,0:0|0:0,0:0:0:0:
372,252,33716,2,0,L|268:244,1,90,0|0,0:0|0:0,0:0:0:0:
192,360,34088,1,0,0:0:0:0:
192,360,34275,2,0,L|292:356,1,90,8|0,0:0|0:0,0:0:0:0:
320,356,34554,1,0,0:0:0:0:
356,356,34647,1,4,0:0:0:0:
128,236,35020,5,8,0:0:0:0:
44,312,35206,1,0,0:0:0:0:
44,312,35393,2,0,L|40:128,1,180,4|8,0:0|0:0,0:0:0:0:
40,132,35952,1,4,0:0:0:0:
200,20,36324,1,4,0:0:0:0:
224,104,36511,1,4,0:0:0:0:
224,104,36883,5,4,0:0:0:0:
200,20,37070,1,0,0:0:0:0:
200,20,37442,2,0,P|152:52|144:136,1,135.000005149842,0|0,0:0|0:0,0:0:0:0:
196,180,38001,1,8,0:0:0:0:
236,252,38188,1,0,0:0:0:0:
236,252,38281,1,0,0:0:0:0:
236,252,38374,2,0,L|316:248,1,67.5000025749208,0|0,0:0|0:0,0:0:0:0:
304,272,38933,6,0,L|164:280,1,135.000005149842,0|0,0:0|0:0,0:0:0:0:
88,240,39492,2,0,P|68:296|68:320,1,67.5000025749208,8|0,0:0|0:0,0:0:0:0:
120,364,39865,1,0,0:0:0:0:
188,324,40051,1,0,0:0:0:0:
188,324,40144,1,0,0:0:0:0:
188,324,40237,1,8,0:0:0:0:
260,364,40424,1,0,0:0:0:0:
336,336,40610,6,0,P|368:296|360:212,1,135.000005149842,0|8,0:0|0:0,0:0:0:0:
296,264,41169,2,0,P|290:183|322:143,1,135.000005149842,0|0,0:0|0:0,0:0:0:0:
292,68,41728,1,8,0:0:0:0:
220,104,41914,2,0,L|144:100,1,67.5000025749208,0|0,0:0|0:0,0:0:0:0:
88,148,42287,2,0,P|72:108|76:76,2,67.5000025749208,0|8|0,0:0|0:0|0:0,0:0:0:0:
140,212,42846,5,0,0:0:0:0:
124,320,43032,2,0,L|220:336,1,90,0|8,0:0|0:0,0:0:0:0:
296,200,43405,2,0,P|284:248|292:292,1,90,0|0,0:0|0:0,0:0:0:0:
228,124,43778,1,0,0:0:0:0:
296,200,43964,2,0,L|400:196,1,90,8|0,0:0|0:0,0:0:0:0:
472,260,44337,5,0,0:0:0:0:
408,112,44523,2,0,L|498:116,1,90,0|8,0:0|0:0,0:0:0:0:
500,88,44896,2,0,L|300:80,1,180,0|0,0:0|0:0,0:0:0:0:
240,16,45455,1,8,0:0:0:0:
156,76,45641,1,0,0:0:0:0:
167,165,45827,2,0,L|156:76,1,90,0|0,0:0|0:0,0:0:0:0:
72,216,46200,5,8,0:0:0:0:
232,228,46386,1,0,0:0:0:0:
76,220,46573,2,0,L|68:320,1,90,0|0,0:0|0:0,0:0:0:0:
80,224,46945,1,8,0:0:0:0:
208,312,47132,2,0,P|256:312|312:200,2,180,0|0|0,0:0|0:0|0:0,0:0:0:0:
232,228,48063,5,4,0:0:0:0:
344,136,48250,1,4,0:0:0:0:
452,40,48436,1,4,0:0:0:0:
344,136,48809,5,4,0:0:0:0:
232,228,48995,1,0,0:0:0:0:
344,136,49368,2,0,P|272:144|232:52,1,180,0|0,0:0|0:0,0:0:0:0:
230,57,49927,1,8,0:0:0:0:
48,176,50299,6,0,L|148:168,1,90,0|8,0:0|0:0,0:0:0:0:
48,176,50858,1,0,0:0:0:0:
52,324,51231,2,0,L|156:316,1,90,0|8,0:0|0:0,0:0:0:0:
52,324,51604,1,0,0:0:0:0:
220,264,51790,6,0,P|208:316|216:364,1,90,0|0,0:0|0:0,0:0:0:0:
304,212,52163,2,0,P|316:168|308:112,1,90,8|0,0:0|0:0,0:0:0:0:
224,164,52535,2,0,L|408:160,1,180,0|8,0:0|0:0,0:0:0:0:
488,88,53094,1,0,0:0:0:0:
488,88,53467,5,0,0:0:0:0:
476,196,53653,1,8,0:0:0:0:
464,304,53840,1,0,0:0:0:0:
372,232,54026,2,0,P|328:228|284:236,1,90,0|0,0:0|0:0,0:0:0:0:
292,360,54399,2,0,P|336:364|380:356,1,90,8|0,0:0|0:0,0:0:0:0:
216,300,54771,5,0,0:0:0:0:
128,364,54958,2,0,L|24:368,1,90,0|8,0:0|0:0,0:0:0:0:
38,367,55330,2,0,L|24:184,1,180,0|0,0:0|0:0,0:0:0:0:
84,96,55889,1,8,0:0:0:0:
176,156,56076,1,0,0:0:0:0:
473,367,56448,6,0,L|384:364,1,90,0|8,0:0|0:0,0:0:0:0:
473,367,56821,2,0,L|492:188,1,180,0|0,0:0|0:0,0:0:0:0:
428,96,57379,1,8,0:0:0:0:
336,156,57566,1,0,0:0:0:0:
300,248,57753,2,0,P|252:256|212:248,1,90,0|0,0:0|0:0,0:0:0:0:
336,156,58125,5,0,0:0:0:0:
176,156,58312,1,4,0:0:0:0:
428,96,58684,5,0,0:0:0:0:
256,36,58871,1,0,0:0:0:0:
84,96,59057,1,4,0:0:0:0:
84,96,59616,5,0,0:0:0:0:
108,280,59802,1,4,0:0:0:0:
108,280,60175,5,0,0:0:0:0:
256,240,60361,1,0,0:0:0:0:
404,280,60548,1,4,0:0:0:0:
404,280,60921,5,0,0:0:0:0:
428,96,61107,1,0,0:0:0:0:
328,52,61293,2,0,L|288:32,2,45,4|0|0,0:0|0:0|0:0,0:0:0:0:
328,52,61852,5,8,0:0:0:0:
332,136,62039,1,0,0:0:0:0:
296,212,62225,1,4,0:0:0:0:
224,248,62411,1,0,0:0:0:0:
144,244,62598,1,8,0:0:0:0:
144,244,62970,5,4,0:0:0:0:
112,112,63157,1,0,0:0:0:0:
28,304,63343,1,8,0:0:0:0:
216,340,63529,2,0,P|272:348|368:264,1,180,0|0,0:0|0:0,0:0:0:0:
308,184,64088,1,8,0:0:0:0:
420,24,64275,2,0,P|404:80|464:180,1,180,0|0,0:0|0:0,0:0:0:0:
420,280,64834,6,0,L|312:292,1,90,8|0,0:0|0:0,0:0:0:0:
308,184,65206,1,0,0:0:0:0:
260,348,65393,2,0,L|152:344,1,90,0|8,0:0|0:0,0:0:0:0:
72,128,65765,2,0,P|44:184|80:296,1,180,0|0,0:0|0:0,0:0:0:0:
172,140,66324,5,8,0:0:0:0:
172,140,66511,2,0,L|180:48,1,90,0|0,0:0|0:0,0:0:0:0:
256,192,66883,1,0,0:0:0:0:
300,292,67070,1,8,0:0:0:0:
300,292,67256,2,0,P|352:312|456:252,1,180,0|0,0:0|0:0,0:0:0:0:
416,156,67815,1,8,0:0:0:0:
472,64,68001,1,0,0:0:0:0:
472,64,68094,1,0,0:0:0:0:
472,64,68188,1,0,0:0:0:0:
332,32,68374,6,0,P|312:76|316:132,1,90,0|8,0:0|0:0,0:0:0:0:
468,228,68747,1,0,0:0:0:0:
468,228,68840,1,0,0:0:0:0:
468,228,68933,1,4,0:0:0:0:
332,240,69119,1,0,0:0:0:0:
196,248,69306,1,8,0:0:0:0:
60,256,69492,1,0,0:0:0:0:
196,248,69865,5,0,0:0:0:0:
332,240,70051,1,8,0:0:0:0:
468,228,70237,1,0,0:0:0:0:
380,164,70424,2,0,P|360:116|360:72,1,90,0|0,0:0|0:0,0:0:0:0:
440,8,70796,1,8,0:0:0:0:
380,164,70983,2,0,L|264:172,1,90,0|0,0:0|0:0,0:0:0:0:
240,76,71355,5,0,0:0:0:0:
240,76,71542,1,8,0:0:0:0:
160,148,71728,2,0,P|108:152|64:136,1,90,0|0,0:0|0:0,0:0:0:0:
240,76,72101,1,0,0:0:0:0:
272,180,72287,2,0,P|272:236|256:276,1,90,8|0,0:0|0:0,0:0:0:0:
60,344,72846,5,0,0:0:0:0:
276,360,73219,1,8,0:0:0:0:
496,376,73778,5,0,0:0:0:0:
380,304,73964,1,8,0:0:0:0:
264,232,74150,1,0,0:0:0:0:
148,160,74337,1,0,0:0:0:0:
36,84,74523,1,8,0:0:0:0:
148,160,74896,5,4,0:0:0:0:
264,232,75083,1,0,0:0:0:0:
380,304,75269,1,8,0:0:0:0:
496,376,75455,1,0,0:0:0:0:
432,144,75827,6,0,P|420:200|428:236,1,90,0|8,0:0|0:0,0:0:0:0:
432,144,76200,2,0,L|324:152,1,90,0|0,0:0|0:0,0:0:0:0:
296,52,76573,1,0,0:0:0:0:
248,148,76759,1,8,0:0:0:0:
144,112,76945,1,0,0:0:0:0:
144,112,77039,1,0,0:0:0:0:
144,112,77132,1,0,0:0:0:0:
64,184,77318,6,0,P|48:236|56:280,1,90,0|8,0:0|0:0,0:0:0:0:
124,352,77691,2,0,L|312:364,1,180,0|0,0:0|0:0,0:0:0:0:
376,284,78250,1,8,0:0:0:0:
472,236,78436,2,0,L|464:140,1,90,0|0,0:0|0:0,0:0:0:0:
388,72,78809,1,0,0:0:0:0:
388,72,78902,1,0,0:0:0:0:
388,72,78995,1,8,0:0:0:0:
304,140,79181,6,0,P|256:156|144:104,1,180,0|0,0:0|0:0,0:0:0:0:
88,12,79740,1,8,0:0:0:0:
12,88,79927,2,0,L|4:196,1,90,0|0,0:0|0:0,0:0:0:0:
80,256,80299,1,0,0:0:0:0:
112,244,80393,1,0,0:0:0:0:
148,244,80486,1,8,0:0:0:0:
184,256,80579,1,0,0:0:0:0:
212,280,80672,1,0,0:0:0:0:
228,312,80765,1,0,0:0:0:0:
236,348,80858,5,4,0:0:0:0:
316,240,81045,1,0,0:0:0:0:
400,136,81231,1,8,0:0:0:0:
484,32,81417,1,0,0:0:0:0:
400,136,81790,5,0,0:0:0:0:
316,240,81976,1,8,0:0:0:0:
236,348,82163,1,0,0:0:0:0:
136,332,82349,2,0,P|88:336|48:324,1,90,0|0,0:0|0:0,0:0:0:0:
104,196,82722,2,0,P|152:192|192:204,1,90,8|0,0:0|0:0,0:0:0:0:
104,196,83094,1,0,0:0:0:0:
16,128,83281,6,0,L|12:36,1,90,0|8,0:0|0:0,0:0:0:0:
16,128,83653,2,0,P|64:96|184:104,1,180,0|0,0:0|0:0,0:0:0:0:
268,40,84212,1,8,0:0:0:0:
348,112,84399,2,0,L|360:216,1,90,0|0,0:0|0:0,0:0:0:0:
372,308,84771,1,0,0:0:0:0:
160,352,85144,6,0,L|48:344,1,90,0|0,0:0|0:0,0:0:0:0:
160,352,85517,1,0,0:0:0:0:
252,208,85703,2,0,L|260:304,1,90,8|0,0:0|0:0,0:0:0:0:
104,252,86076,5,0,0:0:0:0:
72,236,86169,1,0,0:0:0:0:
44,212,86262,1,0,0:0:0:0:
32,176,86355,1,0,0:0:0:0:
36,140,86448,1,8,0:0:0:0:
52,108,86542,1,0,0:0:0:0:
80,88,86635,1,0,0:0:0:0:
116,80,86728,1,0,0:0:0:0:
152,84,86821,1,4,0:0:0:0:
304,44,87007,5,4,0:0:0:0:
308,48,87380,1,0,0:0:0:0:
312,52,87753,1,0,0:0:0:0:
316,56,88125,1,4,0:0:0:0:
