osu file format v13

[General]
AudioFilename: Itou Kanako - Hacking to the Gate.mp3
AudioLeadIn: 0
PreviewTime: 54950
Countdown: 0
SampleSet: Normal
StackLeniency: 0.7
Mode: 1
LetterboxInBreaks: 0
WidescreenStoryboard: 0

[Editor]
DistanceSpacing: 1.6
BeatDivisor: 4
GridSize: 32
TimelineZoom: 1

[Metadata]
Title:Hacking to the Gate
TitleUnicode:Hacking to the Gate
Artist:Itou Kanako
ArtistUnicode:いとうかなこ
Creator:DakeDekaane
Version:Futsuu
Source:Steins;Gate
Tags:5pb nitroplus nitro+ opening Ito
BeatmapID:494456
BeatmapSetID:210153

[Difficulty]
HPDrainRate:4
CircleSize:5
OverallDifficulty:4
ApproachRate:5
SliderMultiplier:1.4
SliderTickRate:1

[Events]
//Background and Video events
0,0,"Itou Kanako - Hacking to the Gate - Background.jpg",0,65
//Break Periods
//Storyboard Layer 0 (Background)
//Storyboard Layer 1 (Fail)
//Storyboard Layer 2 (Pass)
//Storyboard Layer 3 (Foreground)
//Storyboard Sound Samples
//Background Colour Transformations
3,100,163,162,255

[TimingPoints]
1938,372.670807453416,4,1,0,75,1,0
1938,-100,4,1,0,75,0,1
7900,-100,4,1,0,75,0,0
63056,-100,4,1,0,75,0,1
88211,-100,4,1,0,75,0,0

[HitObjects]
0,96,1937,5,4,0:0:0:0:
0,160,3428,1,4,0:0:0:0:
0,224,4919,1,4,0:0:0:0:
0,288,6410,1,4,0:0:0:0:
256,288,7155,1,0,0:0:0:0:
384,288,7528,1,0,0:0:0:0:
448,288,7714,1,0,0:0:0:0:
0,96,7900,1,0,0:0:0:0:
256,96,8646,1,0,0:0:0:0:
384,96,9018,1,0,0:0:0:0:
0,160,9391,1,0,0:0:0:0:
256,160,10136,1,0,0:0:0:0:
384,160,10509,1,0,0:0:0:0:
448,160,10695,1,0,0:0:0:0:
0,224,10882,1,0,0:0:0:0:
256,224,11627,1,0,0:0:0:0:
384,224,12000,1,0,0:0:0:0:
0,288,12372,2,0,L|448:288,1,420
0,96,13863,1,0,0:0:0:0:
256,96,14608,1,0,0:0:0:0:
0,160,15354,1,8,0:0:0:0:
128,160,15726,1,8,0:0:0:0:
384,160,16472,1,0,0:0:0:0:
0,224,16844,1,0,0:0:0:0:
256,224,17590,1,8,0:0:0:0:
384,224,17962,1,8,0:0:0:0:
448,224,18149,1,8,0:0:0:0:
256,288,19080,1,0,0:0:0:0:
384,288,19453,1,0,0:0:0:0:
0,96,19826,1,0,0:0:0:0:
128,96,20198,1,0,0:0:0:0:
192,96,20385,1,0,0:0:0:0:
384,96,20944,1,0,0:0:0:0:
0,160,21316,1,0,0:0:0:0:
128,160,21689,1,0,0:0:0:0:
192,160,21875,1,0,0:0:0:0:
384,160,22434,1,0,0:0:0:0:
0,224,22807,1,4,0:0:0:0:
320,224,23739,1,8,0:0:0:0:
448,224,24111,1,8,0:0:0:0:
192,288,24857,1,8,0:0:0:0:
320,288,25229,1,8,0:0:0:0:
0,96,25788,1,0,0:0:0:0:
256,96,26534,1,0,0:0:0:0:
0,160,27279,1,8,0:0:0:0:
128,160,27652,1,8,0:0:0:0:
384,160,28397,1,0,0:0:0:0:
0,224,28770,1,0,0:0:0:0:
256,224,29515,1,8,0:0:0:0:
384,224,29888,1,8,0:0:0:0:
448,224,30074,1,8,0:0:0:0:
256,288,31006,1,0,0:0:0:0:
384,288,31378,1,0,0:0:0:0:
0,96,31751,1,0,0:0:0:0:
128,96,32124,1,0,0:0:0:0:
192,96,32310,1,0,0:0:0:0:
384,96,32869,1,0,0:0:0:0:
0,160,33242,1,0,0:0:0:0:
128,160,33615,1,0,0:0:0:0:
192,160,33801,1,0,0:0:0:0:
384,160,34360,1,0,0:0:0:0:
0,224,34733,1,4,0:0:0:0:
256,224,35478,1,0,0:0:0:0:
448,224,36037,1,8,0:0:0:0:
256,288,36969,1,0,0:0:0:0:
448,288,37528,1,4,0:0:0:0:
256,96,38459,1,0,0:0:0:0:
0,160,39205,1,0,0:0:0:0:
128,160,39577,1,0,0:0:0:0:
256,160,39950,1,8,0:0:0:0:
0,224,40695,1,0,0:0:0:0:
256,224,41441,1,0,0:0:0:0:
0,288,42186,1,8,0:0:0:0:
256,288,42931,1,0,0:0:0:0:
320,288,43118,1,0,0:0:0:0:
384,288,43304,1,0,0:0:0:0:
448,288,43490,1,0,0:0:0:0:
128,96,44049,1,8,0:0:0:0:
320,96,44608,1,0,0:0:0:0:
384,96,44795,1,0,0:0:0:0:
448,96,44981,1,0,0:0:0:0:
128,160,45540,1,8,0:0:0:0:
384,160,46285,1,0,0:0:0:0:
448,160,46472,1,0,0:0:0:0:
0,224,46658,1,0,0:0:0:0:
128,224,47031,1,0,0:0:0:0:
256,224,47403,1,8,0:0:0:0:
0,288,48149,1,8,0:0:0:0:
256,288,48894,1,0,0:0:0:0:
448,288,49453,1,4,0:0:0:0:
256,96,50385,1,0,0:0:0:0:
0,160,51130,1,0,0:0:0:0:
128,160,51503,1,0,0:0:0:0:
256,160,51875,1,8,0:0:0:0:
0,224,52621,1,0,0:0:0:0:
256,224,53366,1,0,0:0:0:0:
0,288,54111,1,8,0:0:0:0:
320,288,55043,1,0,0:0:0:0:
384,288,55229,1,0,0:0:0:0:
448,288,55416,1,0,0:0:0:0:
128,96,55975,1,8,0:0:0:0:
192,96,56161,1,8,0:0:0:0:
320,96,56534,1,0,0:0:0:0:
384,96,56720,1,0,0:0:0:0:
448,96,56906,1,0,0:0:0:0:
128,160,57465,1,8,0:0:0:0:
192,160,57652,1,8,0:0:0:0:
256,192,58211,12,0,61565,0:0:0:0:
0,96,63056,5,4,0:0:0:0:
64,96,63242,1,4,0:0:0:0:
192,96,63615,1,4,0:0:0:0:
320,96,63987,1,4,0:0:0:0:
448,96,64360,1,4,0:0:0:0:
320,160,65478,1,0,0:0:0:0:
384,160,65664,1,0,0:0:0:0:
448,160,65851,1,0,0:0:0:0:
128,224,66410,1,8,0:0:0:0:
192,224,66596,1,8,0:0:0:0:
320,224,66969,1,0,0:0:0:0:
448,224,67341,1,0,0:0:0:0:
64,288,67714,1,8,0:0:0:0:
128,288,67900,1,8,0:0:0:0:
192,288,68087,1,0,0:0:0:0:
0,96,69018,1,12,0:0:0:0:
64,96,69205,1,12,0:0:0:0:
192,96,69577,1,12,0:0:0:0:
320,96,69950,1,12,0:0:0:0:
448,96,70323,1,12,0:0:0:0:
320,160,71441,1,8,0:0:0:0:
384,160,71627,1,8,0:0:0:0:
448,160,71813,1,8,0:0:0:0:
128,224,72372,1,0,0:0:0:0:
192,224,72559,1,0,0:0:0:0:
320,224,72931,1,0,0:0:0:0:
448,224,73304,1,8,0:0:0:0:
128,288,73863,1,8,0:0:0:0:
192,288,74049,1,8,0:0:0:0:
256,288,74236,1,8,0:0:0:0:
320,288,74422,1,8,0:0:0:0:
384,288,74608,1,8,0:0:0:0:
0,96,74981,1,4,0:0:0:0:
64,96,75167,1,4,0:0:0:0:
192,96,75540,1,4,0:0:0:0:
320,96,75913,1,4,0:0:0:0:
448,96,76285,1,4,0:0:0:0:
320,160,77403,1,0,0:0:0:0:
384,160,77590,1,0,0:0:0:0:
448,160,77776,1,0,0:0:0:0:
128,224,78335,1,8,0:0:0:0:
192,224,78521,1,8,0:0:0:0:
320,224,78894,1,0,0:0:0:0:
448,224,79267,1,0,0:0:0:0:
64,288,79639,1,8,0:0:0:0:
128,288,79826,1,8,0:0:0:0:
192,288,80012,1,0,0:0:0:0:
0,96,80944,1,12,0:0:0:0:
64,96,81130,1,12,0:0:0:0:
192,96,81503,1,12,0:0:0:0:
320,96,81875,1,12,0:0:0:0:
448,96,82248,1,12,0:0:0:0:
320,160,83366,1,8,0:0:0:0:
384,160,83552,1,8,0:0:0:0:
448,160,83739,1,8,0:0:0:0:
128,224,84298,1,0,0:0:0:0:
192,224,84484,1,0,0:0:0:0:
320,224,84857,1,0,0:0:0:0:
448,224,85229,1,8,0:0:0:0:
64,288,85602,2,0,L|416:288,1,350
0,96,86906,5,4,0:0:0:0:
64,96,87093,1,4,0:0:0:0:
192,96,87465,1,4,0:0:0:0:
320,96,87838,1,4,0:0:0:0:
448,96,88211,1,4,0:0:0:0:
