osu file format v13

[General]
AudioFilename: Itou Kanako - Hacking to the Gate.mp3
AudioLeadIn: 0
PreviewTime: 54950
Countdown: 0
SampleSet: Normal
StackLeniency: 0.7
Mode: 1
LetterboxInBreaks: 0
WidescreenStoryboard: 0

[Editor]
DistanceSpacing: 1.6
BeatDivisor: 4
GridSize: 32
TimelineZoom: 1

[Metadata]
Title:Hacking to the Gate
TitleUnicode:Hacking to the Gate
Artist:Itou Kanako
ArtistUnicode:いとうかなこ
Creator:DakeDekaane
Version:Muzukashii
Source:Steins;Gate
Tags:5pb nitroplus nitro+ opening Ito
BeatmapID:494458
BeatmapSetID:210153

[Difficulty]
HPDrainRate:5
CircleSize:5
OverallDifficulty:5
ApproachRate:5
SliderMultiplier:1.4
SliderTickRate:1

[Events]
//Background and Video events
0,0,"Itou Kanako - Hacking to the Gate - Background.jpg",0,65
//Break Periods
//Storyboard Layer 0 (Background)
//Storyboard Layer 1 (Fail)
//Storyboard Layer 2 (Pass)
//Storyboard Layer 3 (Foreground)
//Storyboard Sound Samples
//Background Colour Transformations
3,100,163,162,255

[TimingPoints]
1938,372.670807453416,4,1,0,75,1,0
1938,-100,4,1,0,75,0,1
7900,-100,4,1,0,75,0,0
63056,-100,4,1,0,75,0,1
88211,-100,4,1,0,75,0,0

[HitObjects]
0,96,1937,5,4,0:0:0:0:
0,160,3428,1,4,0:0:0:0:
0,224,4919,1,4,0:0:0:0:
0,288,6410,1,4,0:0:0:0:
128,288,6782,1,0,0:0:0:0:
256,288,7155,1,0,0:0:0:0:
320,288,7341,1,0,0:0:0:0:
384,288,7528,1,0,0:0:0:0:
448,288,7714,1,0,0:0:0:0:
480,288,7807,1,0,0:0:0:0:
0,96,7900,1,0,0:0:0:0:
128,96,8273,1,8,0:0:0:0:
192,96,8459,1,8,0:0:0:0:
256,96,8646,1,0,0:0:0:0:
384,96,9018,1,8,0:0:0:0:
448,96,9205,1,0,0:0:0:0:
480,96,9298,1,0,0:0:0:0:
0,160,9391,1,0,0:0:0:0:
128,160,9764,1,8,0:0:0:0:
192,160,9950,1,0,0:0:0:0:
256,160,10136,1,0,0:0:0:0:
384,160,10509,1,8,0:0:0:0:
448,160,10695,1,0,0:0:0:0:
480,160,10788,1,0,0:0:0:0:
0,224,10882,1,0,0:0:0:0:
128,224,11254,1,8,0:0:0:0:
192,224,11441,1,8,0:0:0:0:
256,224,11627,1,0,0:0:0:0:
384,224,12000,1,8,0:0:0:0:
0,288,12372,1,0,0:0:0:0:
64,288,12559,1,0,0:0:0:0:
128,288,12745,1,0,0:0:0:0:
192,288,12931,1,0,0:0:0:0:
256,288,13118,1,8,0:0:0:0:
320,288,13304,1,8,0:0:0:0:
384,288,13490,1,0,0:0:0:0:
448,288,13677,1,8,0:0:0:0:
0,96,13863,1,0,0:0:0:0:
128,96,14236,1,0,0:0:0:0:
192,96,14422,1,0,0:0:0:0:
320,96,14795,1,0,0:0:0:0:
384,96,14981,1,0,0:0:0:0:
448,96,15167,1,8,0:0:0:0:
64,160,15540,1,0,0:0:0:0:
128,160,15726,1,8,0:0:0:0:
384,160,16472,1,0,0:0:0:0:
448,160,16658,1,0,0:0:0:0:
0,224,16844,1,0,0:0:0:0:
128,224,17217,1,0,0:0:0:0:
192,224,17403,1,8,0:0:0:0:
320,224,17776,1,0,0:0:0:0:
384,224,17962,1,8,0:0:0:0:
448,224,18149,1,0,0:0:0:0:
256,288,19080,1,0,0:0:0:0:
384,288,19453,1,0,0:0:0:0:
0,96,19826,1,0,0:0:0:0:
64,96,20012,1,0,0:0:0:0:
128,96,20198,1,8,0:0:0:0:
192,96,20385,1,0,0:0:0:0:
384,96,20944,1,8,0:0:0:0:
448,96,21130,1,8,0:0:0:0:
0,160,21316,1,0,0:0:0:0:
128,160,21689,1,8,0:0:0:0:
192,160,21875,1,0,0:0:0:0:
320,160,22248,1,0,0:0:0:0:
384,160,22434,1,8,0:0:0:0:
0,224,22807,1,4,0:0:0:0:
64,224,22993,1,4,0:0:0:0:
128,224,23180,1,4,0:0:0:0:
192,224,23366,1,4,0:0:0:0:
320,224,23739,1,12,0:0:0:0:
384,224,23925,1,12,0:0:0:0:
448,224,24111,1,12,0:0:0:0:
192,288,24857,1,4,0:0:0:0:
320,288,25229,1,4,0:0:0:0:
0,96,25788,1,0,0:0:0:0:
128,96,26161,1,0,0:0:0:0:
192,96,26347,1,0,0:0:0:0:
320,96,26720,1,0,0:0:0:0:
384,96,26906,1,0,0:0:0:0:
448,96,27093,1,8,0:0:0:0:
64,160,27465,1,0,0:0:0:0:
128,160,27652,1,8,0:0:0:0:
384,160,28397,1,0,0:0:0:0:
448,160,28583,1,0,0:0:0:0:
0,224,28770,1,0,0:0:0:0:
128,224,29142,1,0,0:0:0:0:
192,224,29329,1,8,0:0:0:0:
320,224,29701,1,0,0:0:0:0:
384,224,29888,1,8,0:0:0:0:
448,224,30074,1,0,0:0:0:0:
256,288,31006,1,0,0:0:0:0:
384,288,31378,1,0,0:0:0:0:
0,96,31751,1,0,0:0:0:0:
64,96,31937,1,0,0:0:0:0:
128,96,32124,1,8,0:0:0:0:
192,96,32310,1,0,0:0:0:0:
384,96,32869,1,8,0:0:0:0:
448,96,33056,1,8,0:0:0:0:
0,160,33242,1,0,0:0:0:0:
128,160,33615,1,8,0:0:0:0:
192,160,33801,1,0,0:0:0:0:
320,160,34174,1,0,0:0:0:0:
384,160,34360,1,8,0:0:0:0:
0,224,34733,1,0,0:0:0:0:
64,224,34919,1,0,0:0:0:0:
128,224,35105,1,8,0:0:0:0:
192,224,35292,1,0,0:0:0:0:
256,224,35478,1,0,0:0:0:0:
384,224,35851,1,8,0:0:0:0:
448,224,36037,1,4,0:0:0:0:
64,288,36410,1,4,0:0:0:0:
128,288,36596,1,4,0:0:0:0:
256,288,36969,1,8,0:0:0:0:
320,288,37155,1,0,0:0:0:0:
448,288,37528,1,4,0:0:0:0:
128,96,38087,1,0,0:0:0:0:
256,96,38459,1,8,0:0:0:0:
448,96,39018,1,0,0:0:0:0:
128,160,39577,1,0,0:0:0:0:
256,160,39950,1,8,0:0:0:0:
0,224,40695,1,0,0:0:0:0:
128,224,41068,1,0,0:0:0:0:
256,224,41441,1,8,0:0:0:0:
448,224,42000,1,0,0:0:0:0:
256,288,42931,1,4,0:0:0:0:
320,288,43118,1,4,0:0:0:0:
384,288,43304,1,4,0:0:0:0:
448,288,43490,1,4,0:0:0:0:
64,96,43863,1,0,0:0:0:0:
128,96,44049,1,0,0:0:0:0:
256,96,44422,1,0,0:0:0:0:
320,96,44608,1,0,0:0:0:0:
384,96,44795,1,8,0:0:0:0:
448,96,44981,1,0,0:0:0:0:
128,160,45354,1,8,0:0:0:0:
64,160,45540,1,8,0:0:0:0:
384,160,46285,1,8,0:0:0:0:
448,160,46472,1,8,0:0:0:0:
0,224,46658,1,0,0:0:0:0:
128,224,47031,1,8,0:0:0:0:
192,224,47217,1,8,0:0:0:0:
256,224,47403,1,0,0:0:0:0:
320,224,47590,1,0,0:0:0:0:
384,224,47776,1,8,0:0:0:0:
0,288,48149,1,4,0:0:0:0:
64,288,48335,1,4,0:0:0:0:
128,288,48521,1,4,0:0:0:0:
256,288,48894,1,8,0:0:0:0:
320,288,49080,1,0,0:0:0:0:
448,288,49453,1,4,0:0:0:0:
128,96,50012,1,0,0:0:0:0:
256,96,50385,1,8,0:0:0:0:
448,96,50944,1,0,0:0:0:0:
128,160,51503,1,0,0:0:0:0:
256,160,51875,1,8,0:0:0:0:
0,224,52621,1,0,0:0:0:0:
128,224,52993,1,0,0:0:0:0:
256,224,53366,1,8,0:0:0:0:
448,224,53925,1,0,0:0:0:0:
320,288,55043,1,8,0:0:0:0:
384,288,55229,1,8,0:0:0:0:
448,288,55416,1,4,0:0:0:0:
128,96,55975,1,8,0:0:0:0:
160,96,56068,1,8,0:0:0:0:
192,96,56161,1,8,0:0:0:0:
320,96,56534,1,8,0:0:0:0:
384,96,56720,1,8,0:0:0:0:
448,96,56906,1,4,0:0:0:0:
128,160,57465,1,8,0:0:0:0:
160,160,57559,1,8,0:0:0:0:
192,160,57652,1,8,0:0:0:0:
320,160,58024,1,0,0:0:0:0:
384,160,58211,1,0,0:0:0:0:
448,160,58397,1,4,0:0:0:0:
64,224,58770,1,0,0:0:0:0:
128,224,58956,1,0,0:0:0:0:
192,224,59142,1,4,0:0:0:0:
320,224,59515,1,0,0:0:0:0:
384,224,59701,1,0,0:0:0:0:
448,224,59888,1,4,0:0:0:0:
64,288,60260,1,0,0:0:0:0:
128,288,60447,1,0,0:0:0:0:
192,288,60633,1,4,0:0:0:0:
320,288,61006,1,0,0:0:0:0:
384,288,61192,1,0,0:0:0:0:
0,352,61565,1,12,0:0:0:0:
0,96,63056,1,4,0:0:0:0:
64,96,63242,1,4,0:0:0:0:
128,96,63428,1,4,0:0:0:0:
192,96,63615,1,4,0:0:0:0:
320,96,63987,1,8,0:0:0:0:
384,96,64174,1,8,0:0:0:0:
448,96,64360,1,4,0:0:0:0:
64,160,64733,1,0,0:0:0:0:
128,160,64919,1,8,0:0:0:0:
192,160,65105,1,0,0:0:0:0:
320,160,65478,1,8,0:0:0:0:
384,160,65664,1,8,0:0:0:0:
448,160,65851,1,0,0:0:0:0:
64,224,66223,1,0,0:0:0:0:
128,224,66410,1,8,0:0:0:0:
192,224,66596,1,0,0:0:0:0:
256,224,66782,1,0,0:0:0:0:
320,224,66969,1,8,0:0:0:0:
384,224,67155,1,8,0:0:0:0:
448,224,67341,1,0,0:0:0:0:
64,288,67714,1,8,0:0:0:0:
128,288,67900,1,8,0:0:0:0:
192,288,68087,1,0,0:0:0:0:
0,96,69018,1,4,0:0:0:0:
64,96,69205,1,4,0:0:0:0:
128,96,69391,1,4,0:0:0:0:
192,96,69577,1,4,0:0:0:0:
320,96,69950,1,0,0:0:0:0:
384,96,70136,1,0,0:0:0:0:
448,96,70323,1,12,0:0:0:0:
64,160,70695,1,0,0:0:0:0:
128,160,70882,1,8,0:0:0:0:
192,160,71068,1,0,0:0:0:0:
320,160,71441,1,0,0:0:0:0:
384,160,71627,1,8,0:0:0:0:
448,160,71813,1,8,0:0:0:0:
64,224,72186,1,0,0:0:0:0:
128,224,72372,1,8,0:0:0:0:
192,224,72559,1,0,0:0:0:0:
256,224,72745,1,0,0:0:0:0:
320,224,72931,1,8,0:0:0:0:
384,224,73118,1,8,0:0:0:0:
448,224,73304,1,8,0:0:0:0:
128,288,73863,1,4,0:0:0:0:
192,288,74049,1,4,0:0:0:0:
256,288,74236,1,4,0:0:0:0:
320,288,74422,1,4,0:0:0:0:
384,288,74608,1,4,0:0:0:0:
0,96,74981,1,4,0:0:0:0:
64,96,75167,1,4,0:0:0:0:
128,96,75354,1,4,0:0:0:0:
192,96,75540,1,4,0:0:0:0:
320,96,75913,1,8,0:0:0:0:
384,96,76099,1,8,0:0:0:0:
448,96,76285,1,4,0:0:0:0:
64,160,76658,1,0,0:0:0:0:
128,160,76844,1,8,0:0:0:0:
192,160,77031,1,0,0:0:0:0:
320,160,77403,1,8,0:0:0:0:
384,160,77590,1,8,0:0:0:0:
448,160,77776,1,0,0:0:0:0:
64,224,78149,1,0,0:0:0:0:
128,224,78335,1,8,0:0:0:0:
192,224,78521,1,0,0:0:0:0:
320,224,78894,1,0,0:0:0:0:
384,224,79080,1,8,0:0:0:0:
448,224,79267,1,0,0:0:0:0:
0,288,79453,1,0,0:0:0:0:
64,288,79639,1,8,0:0:0:0:
128,288,79826,1,8,0:0:0:0:
192,288,80012,1,0,0:0:0:0:
0,96,80944,1,4,0:0:0:0:
64,96,81130,1,4,0:0:0:0:
128,96,81316,1,4,0:0:0:0:
192,96,81503,1,4,0:0:0:0:
320,96,81875,1,0,0:0:0:0:
384,96,82062,1,0,0:0:0:0:
448,96,82248,1,12,0:0:0:0:
64,160,82621,1,0,0:0:0:0:
128,160,82807,1,8,0:0:0:0:
192,160,82993,1,0,0:0:0:0:
320,160,83366,1,8,0:0:0:0:
384,160,83552,1,8,0:0:0:0:
448,160,83739,1,0,0:0:0:0:
64,224,84111,1,0,0:0:0:0:
128,224,84298,1,8,0:0:0:0:
192,224,84484,1,0,0:0:0:0:
320,224,84857,1,0,0:0:0:0:
384,224,85043,1,8,0:0:0:0:
448,224,85229,1,8,0:0:0:0:
0,288,85416,1,0,0:0:0:0:
64,288,85602,1,0,0:0:0:0:
128,288,85788,2,0,L|416:288,1,280
0,96,86906,1,4,0:0:0:0:
64,96,87093,1,4,0:0:0:0:
192,96,87465,1,12,0:0:0:0:
320,96,87838,1,12,0:0:0:0:
448,96,88211,1,4,0:0:0:0:
