osu file format v13

[General]
AudioFilename: Itou Kanako - Hacking to the Gate.mp3
AudioLeadIn: 0
PreviewTime: 54950
Countdown: 0
SampleSet: Normal
StackLeniency: 0.7
Mode: 1
LetterboxInBreaks: 0
WidescreenStoryboard: 0

[Editor]
DistanceSpacing: 1.6
BeatDivisor: 4
GridSize: 32
TimelineZoom: 1

[Metadata]
Title:Hacking to the Gate
TitleUnicode:Hacking to the Gate
Artist:Itou Kanako
ArtistUnicode:いとうかなこ
Creator:DakeDekaane
Version:Kantan
Source:Steins;Gate
Tags:5pb nitroplus nitro+ opening Ito
BeatmapID:494457
BeatmapSetID:210153

[Difficulty]
HPDrainRate:3
CircleSize:5
OverallDifficulty:3
ApproachRate:5
SliderMultiplier:1.4
SliderTickRate:1

[Events]
//Background and Video events
0,0,"Itou Kanako - Hacking to the Gate - Background.jpg",0,65
//Break Periods
//Storyboard Layer 0 (Background)
//Storyboard Layer 1 (Fail)
//Storyboard Layer 2 (Pass)
//Storyboard Layer 3 (Foreground)
//Storyboard Sound Samples
//Background Colour Transformations
3,100,163,162,255

[TimingPoints]
1938,372.670807453416,4,1,0,75,1,0
1938,-100,4,1,0,75,0,1
7900,-100,4,1,0,75,0,0
63056,-100,4,1,0,75,0,1
88211,-100,4,1,0,75,0,0

[HitObjects]
0,96,1937,5,4,0:0:0:0:
0,160,3428,1,4,0:0:0:0:
0,224,4919,1,4,0:0:0:0:
0,288,6410,1,4,0:0:0:0:
256,288,7155,1,0,0:0:0:0:
384,288,7528,1,0,0:0:0:0:
0,96,7900,1,0,0:0:0:0:
0,160,9391,1,0,0:0:0:0:
448,160,10509,1,0,0:0:0:0:
0,224,10882,1,0,0:0:0:0:
0,288,12372,2,0,L|448:288,1,420
0,96,13863,1,0,0:0:0:0:
0,160,15354,1,0,0:0:0:0:
0,224,16844,1,0,0:0:0:0:
256,224,17590,1,0,0:0:0:0:
0,288,18335,1,0,0:0:0:0:
256,288,19080,1,0,0:0:0:0:
384,288,19453,1,0,0:0:0:0:
0,96,19826,1,0,0:0:0:0:
384,96,20944,1,0,0:0:0:0:
0,160,21316,1,0,0:0:0:0:
256,160,22062,1,0,0:0:0:0:
0,224,22807,1,4,0:0:0:0:
384,224,24111,1,8,0:0:0:0:
0,96,25788,1,0,0:0:0:0:
0,160,27279,1,0,0:0:0:0:
0,224,28770,1,0,0:0:0:0:
256,224,29515,1,0,0:0:0:0:
0,288,30260,1,0,0:0:0:0:
256,288,31006,1,0,0:0:0:0:
384,288,31378,1,0,0:0:0:0:
0,96,31751,1,0,0:0:0:0:
384,96,32869,1,0,0:0:0:0:
0,160,33242,1,0,0:0:0:0:
256,160,33987,1,0,0:0:0:0:
0,224,34733,1,0,0:0:0:0:
256,224,35478,1,0,0:0:0:0:
0,288,36037,1,8,0:0:0:0:
0,96,37528,1,0,0:0:0:0:
0,160,39205,1,0,0:0:0:0:
256,160,39950,1,8,0:0:0:0:
0,224,40695,1,0,0:0:0:0:
0,288,42186,1,8,0:0:0:0:
256,288,42931,1,0,0:0:0:0:
384,288,43304,1,0,0:0:0:0:
128,96,44049,1,8,0:0:0:0:
384,96,44795,1,0,0:0:0:0:
128,160,45540,1,8,0:0:0:0:
384,160,46285,1,0,0:0:0:0:
0,224,46658,1,0,0:0:0:0:
256,224,47403,1,0,0:0:0:0:
0,288,48149,1,8,0:0:0:0:
0,96,49453,1,0,0:0:0:0:
0,160,51130,1,0,0:0:0:0:
256,160,51875,1,8,0:0:0:0:
0,224,52621,1,0,0:0:0:0:
0,288,54111,1,8,0:0:0:0:
384,288,55229,1,0,0:0:0:0:
0,96,55416,1,0,0:0:0:0:
384,96,56720,1,8,0:0:0:0:
0,160,56906,1,8,0:0:0:0:
256,192,58211,12,0,61565,0:0:0:0:
0,96,63056,5,4,0:0:0:0:
192,96,63615,1,4,0:0:0:0:
320,96,63987,1,4,0:0:0:0:
448,96,64360,1,4,0:0:0:0:
0,224,66037,1,0,0:0:0:0:
256,224,66782,1,0,0:0:0:0:
0,288,67528,1,0,0:0:0:0:
128,288,67900,1,0,0:0:0:0:
0,96,69018,1,12,0:0:0:0:
192,96,69577,1,12,0:0:0:0:
320,96,69950,1,12,0:0:0:0:
448,96,70323,1,12,0:0:0:0:
0,224,72000,1,8,0:0:0:0:
256,224,72745,1,8,0:0:0:0:
0,288,73490,1,8,0:0:0:0:
256,288,74236,1,0,0:0:0:0:
384,288,74608,1,0,0:0:0:0:
0,96,74981,1,4,0:0:0:0:
192,96,75540,1,4,0:0:0:0:
320,96,75913,1,4,0:0:0:0:
448,96,76285,1,4,0:0:0:0:
0,224,77962,1,0,0:0:0:0:
256,224,78708,1,0,0:0:0:0:
0,288,79453,1,0,0:0:0:0:
128,288,79826,1,0,0:0:0:0:
0,96,80944,1,12,0:0:0:0:
192,96,81503,1,12,0:0:0:0:
320,96,81875,1,12,0:0:0:0:
448,96,82248,1,12,0:0:0:0:
0,224,83925,1,8,0:0:0:0:
256,224,84670,1,8,0:0:0:0:
256,224,85416,1,8,0:0:0:0:
256,224,85788,1,8,0:0:0:0:
0,96,86906,5,4,0:0:0:0:
256,96,87465,1,4,0:0:0:0:
384,96,87838,1,4,0:0:0:0:
0,160,88211,1,4,0:0:0:0:
