osu file format v7

[General]
AudioFilename: Itou Kanako - Shoes of Glass02.mp3
AudioLeadIn: 0
PreviewTime: 78676
Countdown: 1
SampleSet: Normal
StackLeniency: 0.7
Mode: 0
LetterboxInBreaks: 1

[Editor]
Bookmarks: 5453,14803,27660,30777,42832,43245,45949,52985,59219,71686,77141,79868,88342,88829,93894,97790,101686,107531,112595,117271,119998,130518,133634,142985,148634,155842,159326,162076,167507,234933,250128,260258,265323,278959,284024
DistanceSpacing: 0.800000011920929
BeatDivisor: 4
GridSize: 8

[Metadata]
Title:Garasu no Kutsu
Artist:Itou Kanako
Creator:pete2528
Version:Normal
Source:Saya no Uta
Tags:

[Difficulty]
HPDrainRate:5
CircleSize:5
OverallDifficulty:6
SliderMultiplier:1.6
SliderTickRate:2

[Events]
//Background and Video events
0,0,"h1.jpg"
//Break Periods
2,117837,118925
2,230045,231815
//Storyboard Layer 0 (Background)
//Storyboard Layer 1 (Fail)
//Storyboard Layer 2 (Pass)
//Storyboard Layer 3 (Foreground)
//Storyboard Sound Samples
//Background Colour Transformations
3,100,0,0,0

[TimingPoints]
2313.11688311688,779.220779220779,4,2,0,41,1,0
2313.11688311688,-100,4,2,0,41,0,0
73611,-100,4,1,0,41,0,0
77118,-100,4,1,0,70,0,1
119975,-100,4,2,0,21,0,0
121436,-100,4,2,0,25,0,0
122994,-100,4,2,0,30,0,0
124455,-100,4,2,0,33,0,0
126111,-100,4,2,0,36,0,0
129715,-100,4,1,0,41,0,0
161761,-100,4,1,0,41,0,0
168092,-100,4,1,0,43,0,0
174228,-100,4,1,0,42,0,0
181533,-100,4,1,0,41,0,1
196533,-100,4,1,0,41,0,1
200624,-100,4,1,0,56,0,1
206079,-200,4,1,0,43,0,1
207767,-100,4,1,0,40,0,1
215235,-100,4,1,0,41,0,0
220494,-100,4,1,0,39,0,0
232865,-100,4,1,0,62,0,0
249326,-100,4,1,0,41,0,1
287800,-100,4,1,0,41,0,1
289066,-200,4,1,0,42,0,1
290429,-200,4,1,0,9,0,0

[Colours]
Combo1 : 0,128,0
Combo2 : 0,128,255
Combo3 : 255,74,74

[HitObjects]
88,88,14780,6,0,C|200:40|352:176|472:88,1,480,8|0
448,216,17897,6,0,C|336:160|168:288|56:200,1,480,8|0
64,320,21014,5,0
192,320,21793,1,8
320,320,22572,1,2
320,256,22962,1,0
320,192,23352,1,8
448,192,24131,1,2
448,64,24910,5,10
384,64,25300,1,0
320,64,25689,1,0
256,64,26079,2,0,C|96:64,1,160,0|8
40,64,27248,6,8,C|160:192|72:320|296:352,1,560,0|8
312,288,30365,1,2
382,302,30754,6,8,C|414:174|382:142|320:216|472:192|440:72,1,560,0|2
320,64,34261,5,8
192,64,35040,1,0
64,64,35819,1,8
64,128,36209,1,0
64,192,36598,1,2
192,192,37378,5,8
192,256,37767,1,0
192,320,38157,1,0
320,320,38936,1,8
352,320,39131,1,0
384,320,39326,1,8
448,320,39715,1,4
448,320,40105,6,2,C|432:48|288:312,1,560
240,296,43222,6,8,C|112:40|72:312,1,560,8|2
72,304,46728,5,8
136,304,47118,1,0
200,304,47507,1,2
232,184,48287,2,0,C|280:176|312:208|376:184,1,160,8|2
464,272,49845,1,8
464,208,50235,1,0
464,144,50624,1,2
344,104,51404,2,0,C|176:104,1,160,8|4
64,64,52962,5,8
64,128,53352,1,0
64,192,53741,1,2
64,320,54520,1,8
192,320,55300,1,2
255,211,56079,1,8
255,147,56468,1,2
255,83,56858,1,2
160,168,57637,6,0,L|80:168,1,80,8|0
80,104,58417,1,4
208,80,59196,5,8
208,144,59585,1,0
264,176,59975,1,2
360,256,60754,2,0,C|408:264|440:320|488:336,1,160,8|2
344,320,62313,1,8
280,320,62702,2,0,C|192:320,1,80,0|2
64,320,63871,5,8
64,256,64261,2,8,C|64:168,1,80,0|2
128,112,65429,5,8
128,176,65819,1,0
192,176,66209,1,0
256,176,66598,2,0,C|344:176,1,80,0|8
400,184,67378,2,0,C|400:280,2,80,0|0|2
336,184,68546,1,8
256,280,69326,1,2
256,216,69715,2,0,C|256:128,1,80,0|8
128,152,70884,5,4
128,24,71663,1,8
128,88,72053,1,0
128,152,72442,1,2
128,216,72832,2,0,L|128:264,1,40
128,288,73222,1,8
256,280,74001,5,0
256,280,74391,1,0
256,280,74780,1,8
256,280,75170,1,0
256,280,75559,2,0,C|328:312|312:232|384:280,1,240,8|0
424,232,77118,5,4
394,175,77507,2,0,C|368:152|312:128,1,80,0|0
296,144,78092,2,8,L|256:168,1,40,8|0
208,200,78676,2,0,B|136:152,1,80
88,119,79455,1,4
200,96,80235,6,0,C|240:112|286:86,3,80,8|0|8|0
264,32,81793,1,8
200,32,82183,1,0
168,32,82378,1,0
136,32,82572,1,8
136,96,82962,5,0
136,96,83352,2,0,L|136:192,1,80,4|0
136,240,84131,1,8
136,304,84520,2,0,L|216:304,1,80
248,304,85105,2,0,L|296:304,1,40,8|0
344,304,85689,1,0
344,304,86079,1,0
344,304,86468,6,0,L|344:208,1,80,4|0
344,160,87248,1,0
344,160,87637,1,12
264,104,88222,2,0,L|216:104,1,40
152,200,88806,5,8
152,264,89196,1,0
152,328,89585,1,4
215,328,89975,2,0,C|215:291|215:234,3,80,0|8|0|0
245,191,91533,1,0
181,194,91923,1,12
216,140,92313,1,0
216,108,92507,1,0
215,75,92702,1,4
64,128,93871,5,8
64,64,94261,2,0,L|144:64,1,80
208,64,95040,1,8
240,119,95429,2,2,C|324:119,1,80
361,70,96209,1,8
424,73,96598,1,0
424,74,96988,1,0
422,138,97378,5,0
423,202,97767,2,0,L|343:258,1,80
256,192,98449,12,0,101274
224,64,101663,5,8
224,128,102053,1,4
225,191,102442,2,0,L|309:193,1,80
307,257,103222,2,0,L|306:344,1,80
272,336,103806,1,8
242,336,104001,2,0,L|244:244,1,80
256,192,104780,12,0,107118
256,239,107507,5,8
256,182,107897,1,0
256,125,108287,1,0
293,74,108676,2,0,C|256:64|211:74,2,80,0|2|8
404,133,110235,5,8
404,133,110624,1,8
404,133,111014,5,8
404,133,111209,1,4
404,133,111404,2,2,L|256:216,1,160,6|2
144,312,113157,6,0,L|112:264,1,40,8|0
88,224,113741,1,0
240,264,114715,6,0,L|208:232,1,40,8|0
168,192,115300,1,4
168,192,115689,1,4
232,120,116274,5,0
232,120,116468,1,0
296,120,116858,1,0
360,128,117248,1,0
400,176,117637,1,4
464,320,119975,6,0,C|368:320,1,80,8|8
385,191,120754,1,2
385,191,121144,1,2
299,286,121533,6,0,C|203:286,1,80,8|8
255,162,122313,1,2
255,162,122702,1,2
149,89,123092,6,0,C|109:73|69:97,2,80,8|8|2
149,89,124261,1,2
255,159,124650,6,8,C|293:139|333:163,1,80
259,267,125429,1,2
259,267,125819,1,2
386,259,126209,6,8,C|386:355,1,80
256,336,127767,6,2,C|256:240,1,80,2|0
256,192,128546,1,4
160,192,129326,6,4,C|320:192,1,160,0|4
256,64,130884,5,8
256,192,131663,1,0
192,192,132053,1,0
128,192,132442,1,8
128,224,132637,1,0
128,256,132832,1,0
128,320,133222,1,0
128,192,134001,5,8
128,64,134780,1,0
256,64,135559,1,8
288,64,135754,1,0
320,64,135949,1,0
384,64,136339,1,0
392,192,137118,5,8
288,192,138287,1,8
224,192,138676,1,0
160,192,139066,1,0
96,192,139455,1,0
112,256,139845,1,0
144,312,140235,1,8
224,192,141404,5,8
288,192,141793,1,8
320,192,141988,1,0
352,192,142183,1,8
384,192,142378,1,0
416,192,142572,1,4
416,320,143352,5,0
288,192,144520,1,8
224,192,144910,1,0
224,128,145300,1,0
224,64,145689,1,0
224,192,146468,1,8
384,192,147637,1,8
320,192,148027,1,0
320,256,148417,1,0
256,256,148806,1,0
128,256,149585,5,8
128,191,149975,1,0
127,126,150365,1,0
128,64,150754,1,0
192,64,151144,1,8
191,127,151533,2,0,C|279:127,1,80
335,128,152313,1,0
398,128,152702,1,8
320,288,153871,5,8
256,288,154261,1,8
224,288,154455,1,0
192,288,154650,1,0
216,232,155040,1,4
88,224,155819,6,0,L|120:144,1,80,8|0
136,120,156404,1,0
160,96,156598,2,0,L|248:72,1,80
272,72,157183,1,0
304,80,157378,2,0,L|384:136,1,80,8|0
416,176,158157,1,0
352,176,158546,1,0
320,176,158741,1,0
288,176,158936,1,8
224,176,159326,1,0
322,79,160105,5,8
288,80,160300,1,0
255,80,160494,1,0
190,80,160884,1,8
160,80,161079,1,0
127,81,161274,1,4
112,288,162053,5,8
112,288,162442,1,0
112,288,162832,2,0,L|264:216,1,160,0|8
416,296,164391,5,8
416,296,164780,1,0
416,296,165170,2,0,L|296:176,1,160,0|8
256,64,166728,5,8
256,128,167118,2,0,L|256:176,2,40,8|0|4
448,192,168287,6,0,C|449:288,1,80,8|0
392,276,169066,2,0,C|295:276,1,80,0|0
256,280,169845,2,8,C|76:270|42:134,1,320,8|0
168,201,172183,5,8
167,202,172572,1,0
213,246,172962,1,0
263,206,173352,2,0,L|215:142,1,80,0|4
105,75,174520,6,8,C|201:75,1,80,8|0
249,76,175300,2,8,B|249:114|304:117,1,80,0|0
370,117,176079,1,8
371,118,176468,2,0,L|369:176|316:173|317:233,1,160,0|0
315,285,177637,1,8
251,279,178027,2,0,L|177:273|242:226|163:170,1,240,0|8
82,84,179975,1,0
208,63,180754,1,8
189,124,181144,1,8
152,176,181533,6,8,B|96:176,2,40
152,240,182313,6,8,B|208:240,2,40
256,192,182897,12,0,185429
128,64,185819,6,8,C|128:160,1,80,0|0
192,152,186598,2,8,C|192:248,1,80,0|8
160,288,187378,2,0,C|256:288,1,80
304,288,188157,2,0,C|400:288,1,80,0|8
432,336,188936,6,2,C|416:240|496:144|400:184|328:56,1,480,2|0
274,87,191663,5,8
274,87,192053,1,0
224,48,192442,2,0,L|64:104|144:176|48:240|216:288,1,560,0|0
272,288,195559,1,0
344,176,196339,1,8
344,176,196728,6,0,C|272:112,1,80,0|0
242,171,197507,2,0,C|184:112,3,80,0|8|0|0
122,124,199066,5,0
120,187,199455,1,8
119,251,199845,1,0
224,192,200624,6,0,C|288:240,2,80
256,192,201598,12,8,204131
336,184,204520,5,0
296,232,204910,1,0
352,264,205300,1,0
296,296,205689,1,8
232,296,206079,2,0,C|233:164,1,120,0|8
256,192,207735,12,0,209975
106,261,210365,5,8
168,264,210754,1,0
232,264,211144,1,0
296,256,211533,2,0,C|290:212|253:193,1,80,0|8
208,160,212313,2,0,C|218:119|258:103,1,80,0|0
296,152,213092,2,8,C|296:106|341:105,2,80,0|8|0
232,152,214261,1,4
232,88,214650,1,0
232,88,214845,1,0
232,88,215040,1,8
176,120,215429,5,0
176,184,215819,1,0
240,184,216209,1,0
301,169,216598,1,8
256,128,216988,2,0,C|96:128,1,160,0|0
96,128,218157,1,0
96,192,218546,1,0
224,192,219326,1,0
160,192,219715,1,0
184,80,220494,5,4
320,80,221274,1,4
320,216,222053,1,8
264,184,222442,1,0
208,151,222832,1,0
336,144,223611,1,4
336,272,224391,1,4
328,144,225170,1,8
296,160,225365,1,0
272,176,225559,1,0
248,192,225754,1,0
216,208,225949,1,8
144,88,226728,5,4
144,152,227118,1,0
144,216,227507,1,8
216,320,228287,1,0
344,320,229066,1,0
344,192,229845,1,4
160,256,232865,5,12
256,192,233254,1,0
352,128,233644,1,0
448,64,234910,6,0,C|400:64,2,40,0|0|8
448,64,235689,5,0
448,64,236079,1,12
448,64,236468,1,0
448,64,236858,1,8
448,64,237248,5,0
448,64,237442,1,0
448,64,237637,1,8
448,64,238027,2,0,C|408:48|440:96|384:72|360:160,1,240,0|4
416,184,239585,1,0
448,240,239975,5,0
384,240,240365,1,4
320,240,240754,1,0
257,242,241144,1,0
224,240,241339,1,0
194,242,241533,1,4
130,241,241923,1,0
72,208,242313,6,0,C|119:136,2,80,0|4|0
116,142,243481,1,4
176,144,243871,5,0
240,144,244261,1,0
272,144,244455,1,0
304,144,244650,1,0
224,48,245429,6,0,C|128:48,2,80,4|0|4
288,48,246598,1,0
352,48,246988,1,0
288,48,247378,1,0
288,112,247767,1,0
224,112,248157,1,4
320,224,249326,5,4
416,304,250105,2,0,L|416:224,1,80,8|0
416,160,250884,1,0
416,160,251079,1,0
416,160,251274,2,2,C|376:240|336:200|224:224|336:80|240:32,1,560,2|2
224,96,254391,6,0,C|160:32,1,80,8|0
96,64,255170,2,0,C|160:128,1,80,0|8
128,192,255949,2,0,C|64:128,1,80,0|0
96,64,256728,2,0,C|163:127,1,80,0|8
224,96,257507,2,2,C|56:40|136:152|48:288,1,480,2|0
160,312,260235,5,8
192,256,260624,1,0
256,256,261014,2,0,C|336:256,1,80,0|8
384,216,261793,2,0,C|472:216,2,80,0|4|0
384,152,262962,1,0
384,40,263644,1,0
320,128,264326,6,0,C|288:160,1,35
248,192,264910,1,8
176,192,265300,5,4
256,112,265689,1,0
336,192,266079,1,0
255,266,266468,1,8
256,112,266858,2,0,C|184:192|336:192|208:272,1,400
160,264,269196,2,0,C|64:264,1,80
256,192,269975,12,0,272702
232,160,273092,5,0
312,208,273481,1,0
232,264,273871,1,0
312,304,274261,1,8
256,352,274650,2,0,C|376:272|120:280|256:200,1,560
256,144,277767,1,0
256,80,278157,1,8
256,80,278352,1,0
256,80,278546,1,0
192,80,278936,5,0
128,80,279326,2,8,C|128:176,1,80,8|0
128,224,280105,1,0
256,224,280884,1,0
384,224,281663,1,0
368,160,282053,5,4
352,96,282442,2,8,C|264:96,1,80,4|8
208,96,283222,2,0,L|128:96,1,80,0|0
131,167,284001,5,0
185,201,284391,1,8
232,160,284780,1,0
296,160,285170,1,0
296,224,285559,2,0,C|214:225,1,80,0|12
213,160,286339,1,0
213,96,286728,2,8,C|295:95,2,80
232,160,287897,5,0
256,216,288287,1,0
256,216,288481,1,0
256,216,288676,1,0
256,216,289066,2,4,C|88:208,1,160,0|4
