osu file format v8

[General]
AudioFilename: Itou Kanako - Shoes of Glass02.mp3
AudioLeadIn: 0
PreviewTime: -1
Countdown: 1
SampleSet: Normal
StackLeniency: 0.7
Mode: 0
LetterboxInBreaks: 1

[Editor]
Bookmarks: 949,5453,14803,27660,30777,43245,52985,59219,71663,79868,88342,88829,93894,97790,101686,107531,112595,117271,119998,130518,133634,142985,148634,155842,162076,234933,250128,260258,265323,278959,284024
DistanceSpacing: 0.699999988079071
BeatDivisor: 4
GridSize: 8

[Metadata]
Title:Garasu no Kutsu
Artist:Itou Kanako
Creator:pete2528
Version:Hard
Source:Saya no Uta
Tags:

[Difficulty]
HPDrainRate:8
CircleSize:5
OverallDifficulty:8
ApproachRate:8
SliderMultiplier:1.8
SliderTickRate:2

[Events]
//Background and Video events
0,0,"moesaya.jpg"
//Break Periods
2,118616,119225
2,171603,173770
2,248357,249355
//Storyboard Layer 0 (Background)
//Storyboard Layer 1 (Fail)
//Storyboard Layer 2 (Pass)
//Storyboard Layer 3 (Foreground)
//Storyboard Sound Samples
//Background Colour Transformations
3,100,0,0,0

[TimingPoints]
2313,779.220779220779,4,1,0,41,1,0
2313,-100,4,1,0,40,0,0
14780,-100,4,2,0,40,0,0
27248,-100,4,2,0,17,0,0
27637,-100,4,2,0,61,0,0
28709,-200,4,1,0,40,0,0
30388,-100,4,1,0,40,0,0
33481,-100,4,2,0,40,0,0
46631,-100,4,2,0,11,0,0
47312,-100,4,2,0,20,0,0
47312,-100,4,2,0,16,0,0
48189,-100,4,2,0,23,0,0
48968,-100,4,2,0,26,0,0
49748,-100,4,2,0,30,0,0
50527,-100,4,2,0,32,0,0
51306,-100,4,2,0,35,0,0
52790,-100,4,1,0,41,0,0
77118,-100,4,1,0,39,0,1
93676,-100,4,1,0,42,0,1
98546,-100,4,1,0,40,0,1
111014,-100,4,1,0,39,0,1
119780,-50,4,2,0,11,0,0
120559,-50,4,2,0,13,0,0
121338,-50,4,2,0,16,0,0
122118,-50,4,2,0,18,0,0
122897,-50,4,2,0,21,0,0
123676,-50,4,2,0,23,0,0
124455,-50,4,2,0,26,0,0
125235,-50,4,2,0,28,0,0
126014,-50,4,2,0,32,0,0
126793,-50,4,2,0,34,0,0
127572,-50,4,2,0,38,0,0
128546,-100,4,1,0,41,0,0
130300,-100,4,1,0,40,0,0
136923,-100,4,1,0,41,0,0
136923,-100,4,2,0,42,0,0
142864,-100,4,1,0,42,0,0
149390,-50,4,2,0,25,0,0
150267,-50,4,2,0,32,0,0
151046,-50,4,2,0,42,0,0
152702,-100,4,2,0,42,0,0
159738,-100,4,1,0,39,0,0
176274,-100,4,1,0,63,0,0
179780,-100,4,1,0,41,0,1
187401,-100,4,1,0,42,0,1
196631,-100,4,1,0,41,0,1
201306,-100,4,1,0,41,0,1
213774,-100,4,1,0,41,0,1
220494,-200,4,1,0,41,0,0
223611,-100,4,1,0,41,0,0
250105,-100,4,1,0,41,0,1
254390,-100,4,1,0,41,0,1
293351,-100,4,1,0,15,0,0
295300,-200,4,1,0,24,0,1
297248,-200,4,1,0,41,0,0

[Colours]
Combo1 : 0,128,0
Combo2 : 0,128,255
Combo3 : 255,74,74

[HitObjects]
64,320,14780,1,2
96,320,14975,1,0
128,320,15170,1,0
192,320,15559,1,8
256,320,15949,1,0
320,320,16338,2,0,B|408:341|472:208,1,180,0|8
440,104,17897,1,2
415,83,18092,1,0
385,70,18287,1,0
322,59,18676,1,8
197,79,19455,1,2
84,135,19845,5,0
80,166,20040,1,0
89,196,20235,1,0
106,222,20429,1,0
127,244,20624,1,0
174,285,21014,1,2
282,220,21793,5,8
389,285,22572,1,2
408,260,22767,1,0
413,229,22962,1,0
405,198,23157,1,0
391,169,23351,1,8
353,118,23741,1,0
300,83,24131,1,2
256,192,24520,12,4,27248
256,160,27637,5,0
234,195,27832,1,0
268,203,28027,1,8
229,227,28222,1,0
268,237,28416,1,0
228,264,28611,1,0
256,288,28806,2,0,B|256:96,1,180,8|0
256,108,30754,5,0
256,108,31144,1,8
227,164,31533,1,0
196,109,31923,1,0
164,163,32312,1,0
133,107,32702,1,8
102,162,33092,1,0
63,112,33481,6,0,B|15:328|303:336,1,360,2|0
280,208,35429,1,0
248,202,35624,1,0
217,193,35819,1,8
64,128,36598,5,0
88,240,36988,1,0
192,169,37377,1,8
415,286,38157,1,0
384,136,38936,5,8
408,152,39131,1,0
432,168,39325,1,0
448,192,39520,1,0
464,216,39715,1,4
448,288,40105,5,0
416,290,40300,1,0
384,289,40494,1,8
352,288,40689,1,0
320,288,40884,1,0
291,288,41079,1,0
262,288,41274,2,0,C|112:240|24:152,1,270
32,160,42832,1,2
64,96,43222,5,0
96,96,43416,1,0
128,96,43611,1,8
160,96,43806,1,0
192,96,44001,1,0
224,96,44196,1,0
256,96,44390,2,0,C|360:96,1,90
344,96,44975,5,0
448,96,45559,1,0
448,136,45754,1,0
256,96,46728,6,0,B|256:136,4,22.5,8|0|0|0|0
256,192,47507,1,0
256,192,47702,1,0
256,192,47897,1,0
144,192,48287,6,0,B|185:192,4,22.5,8|0|0|0|0
256,192,49066,1,0
256,192,49261,1,0
256,192,49455,1,0
368,192,49845,6,0,B|332:192,4,22.5,8|0|0|0|0
256,192,50624,1,0
256,192,50819,1,0
256,192,51014,1,0
256,288,51403,6,0,B|257:254,4,22.5,8|0|0|0|0
256,287,52183,1,4
96,320,52962,5,8
83,290,53157,1,0
66,263,53351,1,0
80,234,53546,1,0
100,209,53741,1,0
120,185,53936,1,0
105,156,54131,1,0
78,99,54520,1,8
102,79,54715,1,0
125,58,54910,1,0
214,57,55300,5,0
214,88,55494,1,0
213,119,55689,1,0
219,181,56079,1,8
236,207,56274,1,0
257,229,56468,1,0
319,234,56858,1,0
319,297,57248,5,0
320,298,57637,2,0,L|219:298,1,90,8|0
229,266,58222,1,0
228,234,58416,1,4
400,56,59196,6,0,L|304:56,1,90
312,56,59975,1,0
312,56,60170,2,0,L|200:56,1,90
222,56,60754,2,0,L|160:56,1,45,8|0
176,56,61144,1,0
176,128,61533,6,0,L|156:152|126:159|104:192,1,90
89,241,62312,1,8
151,236,62702,2,0,L|172:209|201:210|231:180,1,90
245,172,63287,1,0
275,164,63481,1,0
425,94,63871,5,8
415,123,64066,1,0
393,146,64261,1,0
366,163,64455,1,0
339,180,64650,2,0,L|315:140|275:172,1,90,4|0
225,283,65429,5,0
167,309,65819,1,0
104,316,66209,1,0
78,297,66403,1,0
61,270,66598,1,0
54,207,66988,1,8
56,208,67377,2,0,L|56:112,1,90
152,56,68157,5,0
216,56,68546,2,0,C|216:152,1,90
216,146,69131,1,0
216,144,69325,2,0,C|284:124|357:144,1,140
350,141,70105,2,0,L|393:166,1,45,8|0
390,164,70494,2,0,B|436:187,1,45
432,186,70884,2,0,C|458:222|432:282,1,90,4|0
319,332,71663,5,0
196,300,72053,1,0
115,203,72442,1,0
91,79,72832,1,0
92,80,73027,1,0
91,80,73222,1,0
256,192,73611,12,0,76338
368,184,77118,5,4
216,272,77507,5,0
160,240,77702,2,0,B|120:208,3,45,0|8|0|8
249,59,78676,5,0
312,80,78871,2,0,B|368:96,3,45,0|0|0|8
256,192,79845,12,0,82572
348,125,82962,5,0
317,117,83157,1,0
286,108,83351,1,0
222,108,83741,1,0
192,119,83936,1,0
163,132,84131,1,8
154,194,84520,6,0,C|200:205|258:194,1,90,8|8
273,195,85105,1,0
304,193,85300,2,0,C|351:183|400:193,1,90,0|8
409,251,86079,6,0,B|333:318|174:348|94:303|63:187|87:97|172:47,1,540
410,75,88806,5,0
380,130,89196,1,0
360,154,89390,1,0
335,173,89585,1,0
220,193,89975,6,0,C|180:177|132:193,1,90,0|8
73,185,90754,2,0,C|57:145|81:97,1,90,0|8
97,79,91338,1,0
121,58,91533,2,0,C|161:42|209:58,1,90,0|8
264,56,92312,1,0
264,56,92507,1,0
264,56,92702,2,0,B|312:120|192:152|296:208|256:240,1,180,4|8
128,253,93871,5,0
130,316,94261,1,0
161,317,94455,1,0
192,320,94650,1,0
255,317,95040,1,0
317,319,95429,2,0,C|357:295|405:319,1,90,0|4
413,252,96209,1,0
359,219,96598,1,0
412,252,96988,1,0
358,218,97377,1,0
330,202,97572,1,0
303,185,97767,1,0
170,192,98157,5,0
160,179,98254,1,0
149,167,98351,1,0
140,153,98449,1,0
132,139,98546,1,0
256,192,98936,12,0,101274
256,64,101663,5,0
129,62,102053,1,0
96,183,102442,2,0,C|64:223|96:271,1,90,0|8
206,280,103222,2,0,C|248:304|296:272,1,90,0|8
283,283,103806,1,0
283,284,104001,2,0,C|322:263|372:285,1,90,0|8
256,192,104780,12,0,107118
88,72,107507,5,0
111,93,107702,1,0
119,123,107897,1,0
137,148,108092,1,0
163,164,108287,1,0
225,167,108676,2,0,C|262:148|306:169,1,90,0|8
319,229,109455,6,0,C|297:245|271:227,1,45,0|8
282,235,109845,2,0,L|259:244|225:246,1,45,0|8
207,242,110235,1,0
128,186,110624,5,0
115,176,110722,1,0
106,162,110819,1,0
100,147,110916,1,0
94,132,111014,6,0,C|94:79,2,45,0|0|8
160,128,111793,1,0
191,127,111988,1,0
222,125,112183,1,0
324,67,112572,5,0
384,85,112962,1,0
408,105,113157,1,0
426,130,113351,1,0
385,178,113741,1,0
381,240,114131,1,0
379,302,114520,2,0,L|315:302,1,45
272,304,114910,5,0
144,288,115300,1,0
104,168,115689,1,0
235,189,116274,5,0
263,175,116468,1,0
224,128,116858,1,0
213,93,117053,1,0
220,62,117248,1,0
282,60,117637,2,0,B|362:108|410:204,1,180
131,84,119975,6,8,B|96:50,4,45
256,192,120754,1,0
256,192,120949,1,0
256,192,121144,1,0
370,301,121533,6,8,B|406:335,4,45
256,192,122312,1,0
256,192,122507,1,0
256,192,122702,1,0
373,82,123092,6,8,B|408:45,4,45
256,192,123871,1,0
256,192,124066,1,0
256,192,124261,1,0
121,307,124650,6,8,B|83:344,4,45
256,192,125429,1,0
256,192,125624,1,0
256,192,125819,1,0
256,192,126209,6,8,B|257:261,4,45
75,193,126988,5,0
75,193,127183,1,0
75,193,127377,1,0
76,66,127767,2,8,B|76:135,4,45
139,67,128546,5,0
170,66,128741,1,0
201,67,128936,1,0
224,128,129131,5,0
240,128,129228,1,0
256,128,129325,1,0
287,177,129520,5,0
303,177,129618,1,0
319,177,129715,1,0
323,114,130105,1,4
416,224,130494,5,0
397,249,130689,1,0
373,270,130884,1,8
344,284,131079,1,0
327,257,131274,5,0
303,277,131468,1,0
274,290,131663,1,0
242,285,131858,1,0
215,268,132053,5,0
189,249,132248,2,0,C|163:206|178:163|157:141|152:113,1,135
155,138,133222,1,0
72,64,133611,5,0
72,96,133806,1,0
72,128,134001,1,8
72,160,134196,1,0
104,160,134390,5,0
104,192,134585,1,0
104,224,134780,1,0
104,256,134975,1,0
72,256,135170,5,0
72,288,135364,2,0,B|72:328|96:328,1,45,0|8
152,328,135949,1,0
184,328,136144,1,0
287,315,136728,5,0
288,316,137118,2,2,C|351:315,1,45,8|0
362,305,137507,2,0,C|396:268,1,45,8|0
416,248,137897,2,0,C|416:184,1,45,0|0
416,176,138287,1,0
416,144,138481,2,8,C|416:80,1,45,0|8
326,61,139261,5,0
294,59,139455,2,0,C|227:57,1,45
229,82,139845,2,0,C|195:119,1,45
170,100,140235,2,0,C|138:66,1,45,8|0
121,93,140624,2,0,C|87:127,1,45
72,192,141014,5,0
72,192,141403,1,0
72,192,141793,1,8
72,128,142183,1,0
72,128,142377,1,0
72,128,142572,1,4
64,64,142962,5,0
96,32,143157,1,0
128,64,143351,1,8
160,32,143546,1,0
192,64,143741,1,0
224,32,143936,1,0
256,64,144131,1,0
320,64,144520,1,0
352,32,144715,2,0,C|401:52|440:74|474:121,1,135
472,151,145494,1,0
472,150,145689,1,0
416,224,146079,5,0
384,256,146274,1,0
352,224,146468,1,8
320,256,146663,1,0
288,224,146858,1,0
256,256,147053,1,0
224,224,147248,1,0
152,184,147637,2,0,B|152:232,1,45
152,264,148027,1,8
64,312,148416,2,0,B|64:256,1,45
64,232,148806,1,0
423,196,149585,6,0,C|377:196,2,45,8|0|0
93,194,150364,6,0,C|159:193,2,45
258,43,151144,6,0,C|258:114,2,45,8|0|0
257,344,151923,6,0,C|256:274,2,45
259,41,152702,5,8
294,60,152897,1,0
326,83,153092,1,0
355,111,153287,1,0
390,183,153481,5,0
372,219,153676,1,0
345,249,153871,1,8
308,267,154066,1,0
223,266,154261,5,8
187,247,154455,1,0
159,215,154650,1,0
107,152,155040,5,4
240,56,155819,5,8
272,88,156014,1,0
304,120,156209,1,0
328,152,156403,1,0
352,184,156598,5,0
328,152,156793,1,0
304,120,156988,1,0
272,88,157183,1,0
240,56,157377,5,8
272,88,157572,1,0
304,120,157767,2,0,B|360:192,1,90
256,192,158546,5,0
256,192,158936,1,8
255,192,159325,1,0
96,288,159910,5,8
96,288,160105,1,0
192,288,160494,1,8
282,290,160884,1,0
327,289,161079,1,0
372,290,161274,1,4
423,117,162053,5,8
377,253,162442,1,0
304,128,162832,1,0
250,261,163222,1,0
189,130,163611,1,8
127,260,164001,1,0
128,187,164196,1,0
128,115,164390,2,0,L|160:120|192:112|226:115,1,90
218,116,165170,5,8
218,116,165559,2,0,L|224:144|208:176|219:219,1,90
216,232,166144,1,0
216,264,166338,1,0
280,264,166728,1,8
344,264,167118,1,0
344,264,167312,1,0
344,264,167507,1,4
224,64,168287,5,8
280,144,168676,1,0
352,80,169066,1,0
392,168,169455,1,0
328,176,169845,5,8
304,200,170040,1,0
288,232,170235,1,0
240,272,170624,2,0,L|184:256,1,45
168,240,171014,1,0
128,192,171403,1,8
52,100,174520,5,8
74,158,174910,1,0
112,207,175300,1,0
158,249,175689,1,0
184,265,175884,1,0
211,279,176079,1,8
260,239,176468,6,0,C|261:148,1,90,0|0
261,149,177248,2,0,C|356:148,2,90,0|8|0
261,149,178222,1,0
261,149,178416,2,0,C|129:166|267:200,1,270
256,264,179975,5,12
253,298,180170,1,0
221,298,180364,1,0
189,298,180559,1,0
157,298,180754,1,12
93,298,181144,1,0
98,126,181533,5,0
113,126,181631,1,0
128,126,181728,1,0
143,126,181825,1,0
160,152,181923,5,8
175,152,182020,1,8
190,153,182118,1,8
205,154,182215,1,0
226,126,182312,5,0
241,126,182410,1,0
256,126,182507,1,0
273,129,182605,1,0
296,152,182702,5,8
312,152,182800,1,8
327,152,182897,1,8
344,152,182994,1,4
256,192,183189,12,0,185429
168,76,185819,5,0
136,128,186209,1,4
184,168,186598,1,0
136,208,186988,1,8
184,248,187377,2,0,C|220:224|268:257,1,90,0|0
280,272,187962,1,8
304,288,188157,2,0,C|343:310|376:280,1,90,0|8
376,280,188936,2,0,L|464:280|464:216|384:216|384:152|464:152,1,360,0|8
448,88,190884,1,8
448,88,191079,1,0
448,88,191274,1,8
384,88,191663,5,0
376,152,192053,1,0
352,176,192248,1,0
328,192,192442,1,4
264,192,192832,2,0,C|232:168|188:190,1,90,0|8
184,256,193611,5,0
184,256,193806,1,0
184,256,194001,1,0
184,256,194196,2,0,L|232:256,1,45,8|0
288,256,194780,1,0
272,176,195170,5,0
240,176,195364,1,0
208,176,195559,1,0
144,176,195949,2,0,L|144:240,1,45
112,224,196338,1,8
64,320,196728,5,0
128,320,197118,2,0,C|169:344|205:319,1,90,8|0
264,320,197897,1,0
328,320,198287,2,0,C|368:296|412:329,1,90,0|4
416,256,199066,1,0
416,256,199261,1,0
416,256,199455,1,0
416,192,199845,1,0
416,64,200624,5,0
400,64,200722,1,0
384,64,200819,1,0
368,64,200916,1,0
352,64,201014,1,0
336,64,201111,1,0
320,64,201209,1,0
304,64,201306,1,0
288,64,201403,1,0
224,64,201793,1,0
224,64,202183,2,0,L|128:64,1,90,0|8
128,128,202962,1,0
120,224,203546,2,0,L|184:216,1,45,8|0
224,208,204131,1,0
232,120,204520,6,0,B|296:136|328:208|328:280|304:320|264:352,2,270
232,120,207248,1,0
232,120,207637,6,0,B|336:80,3,90
316,87,209196,5,0
304,248,209780,1,0
256,248,209975,1,0
96,192,210364,5,0
160,224,210754,1,0
224,192,211144,1,4
256,248,211533,2,0,C|256:304,2,45
288,192,212312,2,0,C|328:176|372:201,1,90
400,208,212897,1,0
432,192,213092,2,0,C|456:160|422:123,1,90
392,120,213676,1,0
356,115,213871,2,0,C|293:93|293:93|301:146|248:120,1,180
240,112,214845,1,0
216,96,215040,1,0
160,64,215429,5,0
160,128,215819,1,0
160,160,216014,1,0
160,192,216209,1,0
160,256,216598,1,0
160,320,216988,2,0,C|200:344|239:315,1,90
296,320,217767,1,0
360,320,218157,1,0
392,320,218351,1,0
424,320,218546,1,0
424,288,218741,1,0
424,256,218936,1,0
424,224,219131,1,0
424,192,219325,5,0
424,160,219520,1,0
424,128,219715,1,0
424,96,219910,1,0
424,64,220105,1,0
424,64,220300,1,0
424,64,220494,2,0,C|337:54|262:57|192:72|160:88,1,270
176,152,223222,5,0
280,240,223611,1,0
392,328,224001,5,0
224,304,224390,1,0
88,200,224780,2,0,C|130:207|186:191,1,90
304,312,225559,2,0,C|344:304|400:312,1,90,0|0
448,152,226338,2,0,C|409:139|361:147,1,90
216,56,227118,2,0,C|220:97|180:121,1,90,0|0
456,96,228287,6,0,C|418:82|360:89,1,90,8|8
368,264,229066,2,0,C|334:271|272:264,1,90,0|0
200,104,229845,2,0,C|162:90|96:104,1,90
120,280,230624,2,0,C|72:304|40:264,1,90,0|0
88,104,231403,6,0,L|50:161|112:176|136:144,1,157.5,8|0
160,144,232280,2,0,B|200:192,1,45
216,184,232670,1,0
248,192,232864,2,0,B|280:216|216:248|256:296,1,90
320,280,233741,2,0,C|368:264|408:312|464:280,1,180
424,136,234910,6,0,C|469:182,6,45,0|0|8|0|0|0|8
392,128,236274,2,0,C|356:95,1,45
328,80,236663,2,0,C|267:63,1,45,0|8
256,56,237053,2,0,C|195:53,1,45
176,48,237442,2,0,C|103:49,1,67.5,0|8
81,52,237832,6,0,B|49:84,14,22.5,0|0|0|0|0|0|0|0|0|0|0|0|0|0|4
432,296,240364,5,0
416,160,240754,5,0
296,232,241144,5,0
160,232,241534,5,0
264,144,241923,5,0
134,107,242312,5,0
255,48,242702,5,0
370,117,243092,5,0
336,247,243481,6,0,B|292:229|264:175,1,90,8|0
136,183,244261,6,0,B|141:232|208:255,1,90,8|0
301,170,245040,5,0
379,60,245429,5,0
104,56,246209,5,0
112,328,246988,6,0,B|152:320,1,22.5
208,296,247377,1,0
320,240,247767,1,0
424,128,248157,1,0
64,320,250105,5,0
96,288,250300,1,0
128,256,250494,1,0
192,288,250884,2,0,C|256:288,1,35
256,288,251274,2,0,C|376:224|416:80,1,270
344,128,252832,2,0,B|280:128,1,45,4|0
264,192,253416,1,8
240,216,253611,1,0
192,168,254001,1,8
224,96,254390,6,0,C|152:32,1,90
112,136,255170,1,0
200,200,255559,1,8
128,280,255949,2,0,C|52:212,1,90,0|8
96,176,256533,1,0
128,136,256728,1,0
224,96,257118,1,0
256,192,257507,12,0,259845
320,296,260235,5,0
376,264,260624,1,0
344,208,261014,2,0,C|336:176|296:168|280:136,2,90,8|0|8
408,208,262183,1,0
408,208,262377,1,0
408,208,262572,1,0
400,144,262962,2,0,C|399:108|431:100|439:76,1,90,0|8
380,55,263741,1,0
380,55,263936,1,0
380,55,264131,2,0,B|197:54,1,180,0|8
201,54,265300,5,8
140,36,265689,1,0
156,96,266079,1,8
156,97,266468,2,0,C|210:97,1,45,8|0
232,98,266858,2,0,B|328:99,1,90,0|4
322,161,267637,2,0,C|134:162,1,180,0|0
169,270,269098,5,0
184,266,269196,1,0
199,262,269293,1,0
214,258,269390,1,0
229,255,269488,1,0
244,252,269585,1,0
256,192,269975,12,8,272702
352,264,273092,5,0
232,264,273481,1,0
104,216,273871,2,0,C|88:168|104:112,1,90,0|8
328,48,274650,2,0,C|376:64|399:112,1,90,0|8
328,280,275429,2,0,C|280:296|224:272,1,90,0|8
256,192,276209,12,0,278546
341,301,278936,6,0,L|389:301|390:241,1,90,8|0
391,260,279715,2,0,B|386:195|491:209|471:95,1,180,4|8
418,79,280884,1,0
354,78,281274,1,0
333,101,281468,1,0
310,123,281663,1,0
310,186,282053,1,0
313,248,282442,1,8
313,248,282637,1,8
313,248,282832,2,0,L|380:248|380:300|316:300,1,180,4|12
224,320,284001,5,0
160,320,284390,1,0
160,288,284585,1,0
160,256,284780,1,0
96,256,285170,2,0,L|96:192|224:192,1,180
216,128,286338,1,0
144,128,286728,1,0
144,64,287118,2,0,C|256:64,1,90,0|8
296,64,287897,5,0
328,72,288092,1,0
360,80,288287,1,0
384,96,288481,1,0
408,120,288676,1,0
424,144,288871,1,0
440,176,289066,1,0
344,168,289650,1,0
408,232,290235,2,0,C|264:240|248:88|96:32,1,450
56,152,293351,6,0,C|160:208,1,90
232,192,294325,1,0
192,280,294910,1,0
192,280,295300,2,0,C|376:280,1,180,0|4
